<?xml version="1.0" standalone="no"?>
<!DOCTYPE svg PUBLIC "-//W3C//DTD SVG 1.1//EN" "http://www.w3.org/Graphics/SVG/1.1/DTD/svg11.dtd" >
<svg xmlns="http://www.w3.org/2000/svg" xmlns:xlink="http://www.w3.org/1999/xlink" version="1.1">
<metadata>
Created by FontForge 20190801 at Thu Mar 27 15:46:09 2014
 By Jimmy Wärting
Copyright (c) 2012, Impallari Type (www.impallari.com), with Reserved Font Name Encode Sans.
</metadata>
<defs>
<font id="EncodeSansWide-Medium" horiz-adv-x="595" >
  <font-face 
    font-family="Encode Sans Wide"
    font-weight="500"
    font-stretch="normal"
    units-per-em="1000"
    panose-1="2 0 0 0 0 0 0 0 0 0"
    ascent="800"
    descent="-200"
    x-height="540"
    cap-height="740"
    bbox="-119 -220 1803 1030"
    underline-thickness="55"
    underline-position="-111"
    unicode-range="U+000D-FB04"
  />
<missing-glyph horiz-adv-x="832" 
d="M93 1030h645v-1250h-645v1250zM639 -127v1065h-447v-1065h447z" />
    <glyph glyph-name="f_b" unicode="fb" horiz-adv-x="1112" 
d="M147 440h-130v100h131v23q0 73 13.5 120.5t47 76t90 40.5t141.5 14l6 -84q-55 -3 -90 -10t-55.5 -23t-28.5 -42.5t-8 -69.5v-45h157v-100h-157v-440h-117v440zM775 -11q-50 0 -107.5 4.5t-139.5 18.5v796h117v-329q63 71 180 71q118 0 180 -67t62 -207q0 -73 -21 -127
t-59.5 -89.5t-92.5 -53t-119 -17.5zM773 73q45 0 78.5 10t55 33.5t32 61t10.5 91.5q0 52 -8.5 88t-27.5 58t-48 32t-70 10q-31 0 -58 -7.5t-47.5 -21t-32.5 -33t-12 -44.5v-268q23 -4 56.5 -7t71.5 -3z" />
    <glyph glyph-name="f_f" unicode="ff" horiz-adv-x="873" 
d="M146 440h-130v100h131v23q0 73 13.5 120.5t47 76t90 40.5t141.5 14l6 -84q-55 -3 -90 -10t-55.5 -23t-28.5 -42.5t-8 -69.5v-45h157v-100h-157v-440h-117v440zM584 440h-130v100h131v23q0 73 13.5 120.5t47 76t90 40.5t141.5 14l6 -84q-55 -3 -90 -10t-55.5 -23
t-28.5 -42.5t-8 -69.5v-45h157v-100h-157v-440h-117v440z" />
    <glyph glyph-name="f_f_b" unicode="ffb" horiz-adv-x="1549" 
d="M584 440h-130v100h131v23q0 73 13.5 120.5t47 76t90 40.5t141.5 14l6 -84q-55 -3 -90 -10t-55.5 -23t-28.5 -42.5t-8 -69.5v-45h157v-100h-157v-440h-117v440zM1211 -11q-50 0 -107.5 4.5t-139.5 18.5v796h117v-329q63 71 180 71q118 0 180 -67t62 -207q0 -73 -21 -127
t-59.5 -89.5t-92.5 -53t-119 -17.5zM1209 73q45 0 78.5 10t55 33.5t32 61t10.5 91.5q0 52 -8.5 88t-27.5 58t-48 32t-70 10q-31 0 -58 -7.5t-47.5 -21t-32.5 -33t-12 -44.5v-268q23 -4 56.5 -7t71.5 -3zM147 440h-130v100h131v23q0 73 13.5 120.5t47 76t90 40.5t141.5 14
l6 -84q-55 -3 -90 -10t-55.5 -23t-28.5 -42.5t-8 -69.5v-45h157v-100h-157v-440h-117v440z" />
    <glyph glyph-name="f_f_h" unicode="ffh" horiz-adv-x="1551" 
d="M965 808h116v-331q82 37 139 55t105 18q74 0 114.5 -38t40.5 -113v-399h-117v359q0 53 -21 75.5t-65 22.5q-36 0 -87.5 -14.5t-108.5 -39.5v-403h-116v808zM583 440h-130v100h131v23q0 73 13.5 120.5t47 76t90 40.5t141.5 14l6 -84q-55 -3 -90 -10t-55.5 -23t-28.5 -42.5
t-8 -69.5v-45h157v-100h-157v-440h-117v440zM146 440h-130v100h131v23q0 73 13.5 120.5t47 76t90 40.5t141.5 14l6 -84q-55 -3 -90 -10t-55.5 -23t-28.5 -42.5t-8 -69.5v-45h157v-100h-157v-440h-117v440z" />
    <glyph glyph-name="f_f_i" unicode="ffi" horiz-adv-x="1157" 
d="M1022 639q-36 0 -52 15.5t-16 50.5t16 51t52 16t52.5 -16.5t16.5 -50.5q0 -32 -16.5 -49t-52.5 -17zM963 540h118v-540h-118v540zM583 440h-130v100h131v23q0 73 13.5 120.5t47 76t90 40.5t141.5 14l6 -84q-55 -3 -90 -10t-55.5 -23t-28.5 -42.5t-8 -69.5v-45h157v-100
h-157v-440h-117v440zM146 440h-130v100h131v23q0 73 13.5 120.5t47 76t90 40.5t141.5 14l6 -84q-55 -3 -90 -10t-55.5 -23t-28.5 -42.5t-8 -69.5v-45h157v-100h-157v-440h-117v440z" />
    <glyph glyph-name="f_f_j" unicode="ffj" horiz-adv-x="1160" 
d="M583 440h-130v100h131v23q0 73 13.5 120.5t47 76t90 40.5t141.5 14l6 -84q-55 -3 -90 -10t-55.5 -23t-28.5 -42.5t-8 -69.5v-45h157v-100h-157v-440h-117v440zM1024 639q-36 0 -52 15.5t-16 50.5t16 51t52 16t52 -16.5t16 -50.5q0 -32 -16 -49t-52 -17zM908 -200
q16 39 28 75.5t19.5 77t11 86.5t3.5 105v33.5v63v80t-0.5 85t-1 77t-0.5 57.5h117v-457q-5 -85 -27.5 -160t-62.5 -143zM146 440h-130v100h131v23q0 73 13.5 120.5t47 76t90 40.5t141.5 14l6 -84q-55 -3 -90 -10t-55.5 -23t-28.5 -42.5t-8 -69.5v-45h157v-100h-157v-440
h-117v440z" />
    <glyph glyph-name="f_f_k" unicode="ffk" horiz-adv-x="1494" 
d="M965 808h116v-492h91l177 224h132l-206 -253l-21 -8v-4l22 -8l221 -267h-131l-196 240h-89v-240h-116v808zM583 440h-130v100h131v23q0 73 13.5 120.5t47 76t90 40.5t141.5 14l6 -84q-55 -3 -90 -10t-55.5 -23t-28.5 -42.5t-8 -69.5v-45h157v-100h-157v-440h-117v440z
M146 440h-130v100h131v23q0 73 13.5 120.5t47 76t90 40.5t141.5 14l6 -84q-55 -3 -90 -10t-55.5 -23t-28.5 -42.5t-8 -69.5v-45h157v-100h-157v-440h-117v440z" />
    <glyph glyph-name="f_f_l" unicode="ffl" horiz-adv-x="1158" 
d="M583 440h-130v100h131v23q0 73 13.5 120.5t47 76t90 40.5t141.5 14l6 -84q-55 -3 -90 -10t-55.5 -23t-28.5 -42.5t-8 -69.5v-45h157v-100h-157v-440h-117v440zM963 808h117v-808h-117v808zM146 440h-130v100h131v23q0 73 13.5 120.5t47 76t90 40.5t141.5 14l6 -84
q-55 -3 -90 -10t-55.5 -23t-28.5 -42.5t-8 -69.5v-45h157v-100h-157v-440h-117v440z" />
    <glyph glyph-name="f_f_t" unicode="fft" horiz-adv-x="1311" 
d="M584 440h-130v100h131v23q0 73 13.5 120.5t47 76t90 40.5t141.5 14l6 -84q-55 -3 -90 -10t-55.5 -23t-28.5 -42.5t-8 -69.5v-45h157v-100h-157v-440h-117v440zM1176 -11q-84 0 -127 41t-43 121v289h-112v100h119l17 142l92 10v-152h162v-100h-161v-263q0 -51 21.5 -73.5
t70.5 -22.5q35 0 75 13v-91q-25 -7 -55 -10.5t-59 -3.5zM147 440h-130v100h131v23q0 73 13.5 120.5t47 76t90 40.5t141.5 14l6 -84q-55 -3 -90 -10t-55.5 -23t-28.5 -42.5t-8 -69.5v-45h157v-100h-157v-440h-117v440z" />
    <glyph glyph-name="f_h" unicode="fh" horiz-adv-x="1116" 
d="M529 808h116v-331q82 37 139 55t105 18q74 0 114.5 -38t40.5 -113v-399h-117v359q0 53 -21 75.5t-65 22.5q-36 0 -87.5 -14.5t-108.5 -39.5v-403h-116v808zM146 440h-130v100h131v23q0 73 13.5 120.5t47 76t90 40.5t141.5 14l6 -84q-55 -3 -90 -10t-55.5 -23t-28.5 -42.5
t-8 -69.5v-45h157v-100h-157v-440h-117v440z" />
    <glyph glyph-name="f_i" unicode="fi" horiz-adv-x="721" 
d="M587 639q-36 0 -52 15.5t-16 50.5t16 51t52 16t52.5 -16.5t16.5 -50.5q0 -32 -16.5 -49t-52.5 -17zM528 540h118v-540h-118v540zM146 440h-130v100h131v23q0 73 13.5 120.5t47 76t90 40.5t141.5 14l6 -84q-55 -3 -90 -10t-55.5 -23t-28.5 -42.5t-8 -69.5v-45h157v-100
h-157v-440h-117v440z" />
    <glyph glyph-name="f_j" unicode="fj" horiz-adv-x="724" 
d="M146 440h-130v100h131v23q0 73 13.5 120.5t47 76t90 40.5t141.5 14l6 -84q-55 -3 -90 -10t-55.5 -23t-28.5 -42.5t-8 -69.5v-45h157v-100h-157v-440h-117v440zM588 639q-36 0 -52 15.5t-16 50.5t16 51t52 16t52 -16.5t16 -50.5q0 -32 -16 -49t-52 -17zM472 -200
q16 39 28 75.5t19.5 77t11 86.5t3.5 105v33.5v63v80t-0.5 85t-1 77t-0.5 57.5h117v-457q-5 -85 -27.5 -160t-62.5 -143z" />
    <glyph glyph-name="f_k" unicode="fk" horiz-adv-x="1058" 
d="M529 808h116v-492h91l177 224h132l-206 -253l-21 -8v-4l22 -8l221 -267h-131l-196 240h-89v-240h-116v808zM146 440h-130v100h131v23q0 73 13.5 120.5t47 76t90 40.5t141.5 14l6 -84q-55 -3 -90 -10t-55.5 -23t-28.5 -42.5t-8 -69.5v-45h157v-100h-157v-440h-117v440z
" />
    <glyph glyph-name="f_l" unicode="fl" horiz-adv-x="723" 
d="M146 440h-130v100h131v23q0 73 13.5 120.5t47 76t90 40.5t141.5 14l6 -84q-55 -3 -90 -10t-55.5 -23t-28.5 -42.5t-8 -69.5v-45h157v-100h-157v-440h-117v440zM527 808h117v-808h-117v808z" />
    <glyph glyph-name="f_t" unicode="ft" horiz-adv-x="875" 
d="M147 440h-130v100h131v23q0 73 13.5 120.5t47 76t90 40.5t141.5 14l6 -84q-55 -3 -90 -10t-55.5 -23t-28.5 -42.5t-8 -69.5v-45h157v-100h-157v-440h-117v440zM740 -11q-84 0 -127 41t-43 121v289h-112v100h119l17 142l92 10v-152h162v-100h-161v-263q0 -51 21.5 -73.5
t70.5 -22.5q35 0 75 13v-91q-25 -7 -55 -10.5t-59 -3.5z" />
    <glyph glyph-name=".notdef" horiz-adv-x="832" 
d="M93 1030h645v-1250h-645v1250zM639 -127v1065h-447v-1065h447z" />
    <glyph glyph-name="NULL" horiz-adv-x="0" 
 />
    <glyph glyph-name="NULL" horiz-adv-x="0" 
 />
    <glyph glyph-name="nonmarkingreturn" unicode="&#xd;" horiz-adv-x="305" 
 />
    <glyph glyph-name="space" unicode=" " horiz-adv-x="242" 
 />
    <glyph glyph-name="AE.sc" horiz-adv-x="878" 
d="M9 8l286 569h523v-86h-303l9 -162h274v-75h-267l11 -168h289v-86h-404l-6 148h-227l-74 -148h-111v8zM235 225h181l-11 272h-33z" />
    <glyph glyph-name="AEacute" unicode="&#x1fc;" horiz-adv-x="965" 
d="M501 813l72 150h121l-105 -158zM3 9l321 731h581v-94h-345l12 -225h309v-95h-304l13 -232h328v-94h-447l-9 204h-254l-90 -204h-115v9zM251 302h207l-14 351h-38z" />
    <glyph glyph-name="acute.cap" horiz-adv-x="366" 
d="M126 813l72 150h121l-105 -158z" />
    <glyph glyph-name="AEacute.sc" horiz-adv-x="878" 
d="M9 8l286 569h523v-86h-303l9 -162h274v-75h-267l11 -168h289v-86h-404l-6 148h-227l-74 -148h-111v8zM416 225l-11 272h-33l-137 -272h181zM447 636l63 124h116l-94 -131z" />
    <glyph glyph-name="Aacute" unicode="&#xc1;" horiz-adv-x="742" 
d="M5 8l276 732h180l276 -732v-8h-118l-77 205h-343l-76 -205h-118v8zM510 302l-82 215l-52 142h-11l-51 -143l-82 -214h278zM322 813l72 150h121l-105 -158z" />
    <glyph glyph-name="Aacute.sc" horiz-adv-x="674" 
d="M10 7l242 570h171l241 -570v-7h-112l-66 148h-299l-65 -148h-112v7zM459 232l-72 164l-46 105h-10l-44 -106l-73 -163h245zM291 636l61 124h116l-94 -131z" />
    <glyph glyph-name="Abreve" unicode="&#x102;" horiz-adv-x="742" 
d="M5 8l276 732h180l276 -732v-8h-118l-77 205h-343l-76 -205h-118v8zM510 302l-82 215l-52 142h-11l-51 -143l-82 -214h278zM371 814q-54 0 -92 11.5t-63 32.5t-36.5 50t-11.5 64h83q0 -44 29 -69t91 -25q63 0 92 25t29 69h83q0 -70 -48.5 -114t-155.5 -44z" />
    <glyph glyph-name="breve.cap" horiz-adv-x="503" 
d="M250 814q-54 0 -92 11.5t-63 32.5t-36.5 50t-11.5 64h83q0 -44 29 -69t91 -25q63 0 92 25t29 69h83q0 -70 -48.5 -114t-155.5 -44z" />
    <glyph glyph-name="Abreve.sc" horiz-adv-x="674" 
d="M337 635q-50 0 -84.5 10t-57 27.5t-32.5 41.5t-10 52h78q0 -35 25 -54t81 -19q57 0 82 19t25 54h77q0 -57 -43 -94t-141 -37zM10 7l242 570h171l241 -570v-7h-112l-66 148h-299l-65 -148h-112v7zM459 232l-72 164l-46 105h-10l-44 -106l-73 -163h245z" />
    <glyph glyph-name="Acircumflex" unicode="&#xc2;" horiz-adv-x="742" 
d="M5 8l276 732h180l276 -732v-8h-118l-77 205h-343l-76 -205h-118v8zM510 302l-82 215l-52 142h-11l-51 -143l-82 -214h278zM185 896l186 77l188 -77v-87l-187 76l-187 -76v87z" />
    <glyph glyph-name="circumflex.cap" horiz-adv-x="492" 
d="M57 896l186 77l188 -77v-87l-187 76l-187 -76v87z" />
    <glyph glyph-name="Acircumflex.sc" horiz-adv-x="674" 
d="M10 7l242 570h171l241 -570v-7h-112l-66 148h-299l-65 -148h-112v7zM459 232l-72 164l-46 105h-10l-44 -106l-73 -163h245zM170 708l167 61l170 -61v-78l-168 60l-169 -60v78z" />
    <glyph glyph-name="Adblgrave" unicode="&#x200;" horiz-adv-x="742" 
d="M5 8l276 732h180l276 -732v-8h-118l-77 205h-343l-76 -205h-118v8zM510 302l-82 215l-52 142h-11l-51 -143l-82 -214h278zM232 800l-105 157h120l71 -145zM412 800l-106 157h120l72 -145z" />
    <glyph glyph-name="uni030F.cap" horiz-adv-x="581" 
d="M176 800l-105 157h120l71 -145zM356 800l-106 157h120l72 -145z" />
    <glyph glyph-name="Adblgrave.sc" horiz-adv-x="674" 
d="M10 7l242 570h171l241 -570v-7h-112l-66 148h-299l-65 -148h-112v7zM459 232l-72 164l-46 105h-10l-44 -106l-73 -163h245zM113 756h115l61 -121l-82 -9zM277 756h115l61 -121l-82 -9z" />
    <glyph glyph-name="Adieresis" unicode="&#xc4;" horiz-adv-x="742" 
d="M5 8l276 732h180l276 -732v-8h-118l-77 205h-343l-76 -205h-118v8zM510 302l-82 215l-52 142h-11l-51 -143l-82 -214h278zM226 817q-36 0 -53 16.5t-17 52.5t17 52.5t53 16.5q71 0 71 -69t-71 -69zM516 817q-37 0 -54 16.5t-17 52.5t17 52.5t54 16.5q70 0 70 -69t-70 -69
z" />
    <glyph glyph-name="dieresis.cap" horiz-adv-x="499" 
d="M104 817q-36 0 -53 16.5t-17 52.5t17 52.5t53 16.5q71 0 71 -69t-71 -69zM394 817q-37 0 -54 16.5t-17 52.5t17 52.5t54 16.5q70 0 70 -69t-70 -69z" />
    <glyph glyph-name="Adieresis.sc" horiz-adv-x="674" 
d="M207 634q-34 0 -49.5 15t-15.5 48q0 63 65 63q68 0 68 -63t-68 -63zM466 634q-35 0 -50.5 15t-15.5 48q0 32 15.5 47.5t50.5 15.5t50.5 -15.5t15.5 -47.5t-15.5 -47.5t-50.5 -15.5zM10 7l242 570h171l241 -570v-7h-112l-66 148h-299l-65 -148h-112v7zM459 232l-72 164
l-46 105h-10l-44 -106l-73 -163h245z" />
    <glyph glyph-name="Agrave" unicode="&#xc0;" horiz-adv-x="742" 
d="M5 8l276 732h180l276 -732v-8h-118l-77 205h-343l-76 -205h-118v8zM510 302l-82 215l-52 142h-11l-51 -143l-82 -214h278zM320 805l-105 158h122l71 -145z" />
    <glyph glyph-name="grave.cap" horiz-adv-x="369" 
d="M151 805l-105 158h122l71 -145z" />
    <glyph glyph-name="Agrave.sc" horiz-adv-x="674" 
d="M10 7l242 570h171l241 -570v-7h-112l-66 148h-299l-65 -148h-112v7zM459 232l-72 164l-46 105h-10l-44 -106l-73 -163h245zM288 629l-95 131h117l61 -121z" />
    <glyph glyph-name="Ainvertedbreve" unicode="&#x202;" horiz-adv-x="742" 
d="M5 8l276 732h180l276 -732v-8h-118l-77 205h-343l-76 -205h-118v8zM510 302l-82 215l-52 142h-11l-51 -143l-82 -214h278zM492 819q0 44 -29 68.5t-92 24.5t-92 -24.5t-29 -68.5h-83q0 69 48.5 113t155.5 44t155.5 -43.5t48.5 -113.5h-83z" />
    <glyph glyph-name="uni0311.cap" horiz-adv-x="499" 
d="M370 819q0 44 -29 68.5t-92 24.5t-92 -24.5t-29 -68.5h-83q0 69 48.5 113t155.5 44t155.5 -43.5t48.5 -113.5h-83z" />
    <glyph glyph-name="Ainvertedbreve.sc" horiz-adv-x="674" 
d="M153 639q0 28 10 52t32.5 41.5t57 27.5t84.5 10q98 0 141 -37t43 -94h-77q0 34 -25 53t-82 19q-56 0 -81 -19t-25 -53h-78zM10 7l242 570h171l241 -570v-7h-112l-66 148h-299l-65 -148h-112v7zM459 232l-72 164l-46 105h-10l-44 -106l-73 -163h245z" />
    <glyph glyph-name="Amacron" unicode="&#x100;" horiz-adv-x="742" 
d="M5 8l276 732h180l276 -732v-8h-118l-77 205h-343l-76 -205h-118v8zM510 302l-82 215l-52 142h-11l-51 -143l-82 -214h278zM187 925h369v-83h-369v83z" />
    <glyph glyph-name="macron.cap" horiz-adv-x="498" 
d="M64 925h369v-83h-369v83z" />
    <glyph glyph-name="Amacron.sc" horiz-adv-x="674" 
d="M10 7l242 570h171l241 -570v-7h-112l-66 148h-299l-65 -148h-112v7zM459 232l-72 164l-46 105h-10l-44 -106l-73 -163h245zM170 733h335v-76h-335v76z" />
    <glyph glyph-name="Aogonek" unicode="&#x104;" horiz-adv-x="741" 
d="M655 -220q-122 0 -122 85q0 37 25 69t82 66h-21l-77 205h-343l-76 -205h-118v8l276 732h180l276 -732v-24q-67 -32 -95.5 -57t-28.5 -51q0 -30 41 -30q14 0 37.5 3.5t44.5 8.5v-66q-16 -6 -37 -9t-44 -3zM510 302l-82 215l-52 142h-11l-51 -143l-82 -214h278z" />
    <glyph glyph-name="ogonek" unicode="&#x2db;" horiz-adv-x="320" 
d="M178 -220q-122 0 -122 85q0 37 25 69t82 66h97v-16q-67 -32 -95.5 -57t-28.5 -51q0 -30 41 -30q14 0 37.5 3.5t44.5 8.5v-66q-16 -6 -37 -9t-44 -3z" />
    <glyph glyph-name="Aogonek.sc" horiz-adv-x="673" 
d="M588 -171q-54 0 -82 18t-28 51q0 27 20.5 52.5t66.5 49.5h-15l-65 148h-299l-65 -148h-112v7l242 570h171l241 -570v-16q-63 -24 -86 -40.5t-23 -35.5q0 -14 8.5 -18.5t25.5 -4.5q14 0 37 2t38 7v-62q-17 -5 -36.5 -7.5t-38.5 -2.5zM457 232l-71 166l-46 103h-10
l-44 -104l-74 -165h245z" />
    <glyph glyph-name="Aring" unicode="&#xc5;" horiz-adv-x="742" 
d="M5 8l276 732h180l276 -732v-8h-118l-77 205h-343l-76 -205h-118v8zM510 302l-82 215l-52 142h-11l-51 -143l-82 -214h278zM373 795q-28 0 -52 8t-42 23t-28 35t-10 44q0 25 10 45.5t28 35.5t42 23.5t52 8.5t52 -8.5t41.5 -23.5t27.5 -35.5t10 -45.5q0 -24 -10 -44
t-27.5 -35t-41.5 -23t-52 -8zM373 844q74 0 74 61q0 63 -74 63q-75 0 -75 -63q0 -61 75 -61z" />
    <glyph glyph-name="ring.cap" horiz-adv-x="427" 
d="M214 795q-28 0 -52 8t-42 23t-28 35t-10 44q0 25 10 45.5t28 35.5t42 23.5t52 8.5t52 -8.5t41.5 -23.5t27.5 -35.5t10 -45.5q0 -24 -10 -44t-27.5 -35t-41.5 -23t-52 -8zM214 844q74 0 74 61q0 63 -74 63q-75 0 -75 -63q0 -61 75 -61z" />
    <glyph glyph-name="Aring.sc" horiz-adv-x="674" 
d="M10 7l242 570h171l241 -570v-7h-112l-66 148h-299l-65 -148h-112v7zM459 232l-72 164l-46 105h-10l-44 -106l-73 -163h245zM339 620q-25 0 -46.5 6.5t-37.5 18t-25 27.5t-9 36q0 19 9 35.5t25 28.5t37.5 18.5t46.5 6.5q50 0 83 -25.5t33 -63.5q0 -39 -32.5 -63.5
t-83.5 -24.5zM339 663q64 0 64 45q0 46 -64 46q-66 0 -66 -46q0 -45 66 -45z" />
    <glyph glyph-name="Aringacute" unicode="&#x1fa;" horiz-adv-x="743" 
d="M6 8l249 663q-22 14 -34 36t-12 50q0 48 34 81.5t90 42.5l57 109h122l-77 -116q45 -13 71.5 -44t26.5 -73q0 -27 -12 -50t-33 -39l249 -660v-8h-117l-77 204h-344l-76 -204h-117v8zM371 692q39 0 62.5 17.5t23.5 47.5t-23.5 48t-62.5 18t-62 -18t-23 -48t23.5 -47.5
t61.5 -17.5zM510 302l-81 215l-38 106h-40l-39 -107l-80 -214h278z" />
    <glyph glyph-name="Aringacute.sc" horiz-adv-x="675" 
d="M11 7l218 518q-38 26 -38 67q0 39 30 65.5t81 34.5l49 88h116l-69 -93q40 -11 64.5 -36.5t24.5 -58.5q0 -22 -11 -39t-30 -30l219 -516v-7h-113l-65 148h-300l-64 -148h-112v7zM338 543q35 0 55 13.5t20 35.5q0 23 -20 36t-55 13t-55 -13t-20 -36t20.5 -36t54.5 -13z
M461 232l-74 164l-33 83h-34l-32 -84l-72 -163h245z" />
    <glyph glyph-name="Atilde" unicode="&#xc3;" horiz-adv-x="742" 
d="M5 8l276 732h180l276 -732v-8h-118l-77 205h-343l-76 -205h-118v8zM510 302l-82 215l-52 142h-11l-51 -143l-82 -214h278zM151 865q32 46 70 68t74 22q26 0 49.5 -6.5t46.5 -14t46 -13.5t48 -6q26 0 49.5 8.5t51.5 29.5l23 -31q-31 -45 -71 -67.5t-78 -22.5
q-24 0 -47.5 6t-47 13.5t-47 13.5t-46.5 6q-24 0 -47.5 -7.5t-49.5 -28.5z" />
    <glyph glyph-name="tilde.cap" horiz-adv-x="514" 
d="M36 865q32 46 70 68t74 22q26 0 49.5 -6.5t46.5 -14t46 -13.5t48 -6q26 0 49.5 8.5t51.5 29.5l23 -31q-31 -45 -71 -67.5t-78 -22.5q-24 0 -47.5 6t-47 13.5t-47 13.5t-46.5 6q-24 0 -47.5 -7.5t-49.5 -28.5z" />
    <glyph glyph-name="Atilde.sc" horiz-adv-x="674" 
d="M10 7l242 570h171l241 -570v-7h-112l-66 148h-299l-65 -148h-112v7zM459 232l-72 164l-46 105h-10l-44 -106l-73 -163h245zM139 675q29 41 63 61t67 20q23 0 44.5 -4.5t42 -10.5t41.5 -10.5t43 -4.5t43.5 6t47.5 22l20 -25q-29 -40 -65 -60.5t-69 -20.5q-22 0 -43.5 5
t-43 10.5t-42.5 10.5t-42 5q-22 0 -43 -6t-44 -23z" />
    <glyph glyph-name="B" unicode="B" horiz-adv-x="718" 
d="M365 -10q-66 0 -132 3.5t-144 11.5v730q76 7 137 10.5t119 3.5q80 0 137.5 -11.5t94 -36t53.5 -62.5t17 -92q0 -65 -34.5 -109t-97.5 -58v-4q78 -15 117.5 -60.5t39.5 -118.5q0 -106 -75.5 -156.5t-231.5 -50.5zM358 77q101 0 148.5 31.5t47.5 98.5q0 66 -43.5 97
t-134.5 31h-172v-250q12 -2 26 -3.5t32 -2.5t41.5 -1.5t54.5 -0.5zM367 416q88 0 125.5 28t37.5 96q0 34 -9.5 57t-31 37.5t-56 21t-83.5 6.5q-47 0 -82 -1.5t-64 -6.5v-238h163z" />
    <glyph glyph-name="B.sc" horiz-adv-x="654" 
d="M336 -8q-60 0 -120.5 3t-132.5 9v569q69 5 124.5 8t108.5 3q142 0 205.5 -37.5t63.5 -121.5q0 -50 -30.5 -83.5t-86.5 -44.5v-3q139 -24 139 -139q0 -84 -66 -123.5t-205 -39.5zM329 71q85 0 125 23t40 72q0 48 -36 69.5t-113 21.5h-151v-180q20 -4 49 -5t86 -1zM334 328
q75 0 107 20.5t32 68.5q0 49 -34.5 69t-119.5 20q-40 0 -70.5 -1t-54.5 -5v-172h140z" />
    <glyph glyph-name="C" unicode="C" horiz-adv-x="627" 
d="M410 -10q-180 0 -270 94.5t-90 283.5q0 192 89 288t266 96q36 0 83.5 -5.5t99.5 -13.5v-99q-62 10 -101 14t-70 4q-128 0 -186.5 -67.5t-58.5 -215.5q0 -146 56.5 -213t181.5 -67q18 0 42.5 1.5t49.5 4.5t48 7t38 8v-98q-20 -5 -43 -9t-47 -7t-46.5 -4.5t-41.5 -1.5z" />
    <glyph glyph-name="C.sc" horiz-adv-x="572" 
d="M372 -9q-322 0 -322 296q0 300 316 300q35 0 77.5 -4t84.5 -10v-94q-48 7 -82.5 10.5t-67.5 3.5q-57 0 -97.5 -12t-65.5 -36.5t-36.5 -63.5t-11.5 -93t11 -92t35.5 -62.5t63.5 -36t95 -11.5q16 0 37.5 1t43.5 3t42 4.5t33 5.5v-93q-17 -3 -36.5 -6t-40.5 -5.5t-41.5 -3.5
t-37.5 -1z" />
    <glyph glyph-name="A.sc" horiz-adv-x="674" 
d="M10 7l242 570h171l241 -570v-7h-112l-66 148h-299l-65 -148h-112v7zM460 228l-73 168l-46 105h-10l-44 -106l-74 -167h247z" />
    <glyph glyph-name="Cacute" unicode="&#x106;" horiz-adv-x="627" 
d="M410 -10q-180 0 -270 94.5t-90 283.5q0 192 89 288t266 96q36 0 83.5 -5.5t99.5 -13.5v-99q-62 10 -101 14t-70 4q-128 0 -186.5 -67.5t-58.5 -215.5q0 -146 56.5 -213t181.5 -67q18 0 42.5 1.5t49.5 4.5t48 7t38 8v-98q-20 -5 -43 -9t-47 -7t-46.5 -4.5t-41.5 -1.5z
M312 813l72 150h121l-105 -158z" />
    <glyph glyph-name="Cacute.sc" horiz-adv-x="572" 
d="M372 -9q-322 0 -322 296q0 300 316 300q31 0 72.5 -3.5t89.5 -10.5v-94q-56 7 -90 10.5t-61 3.5q-56 0 -95.5 -11.5t-65 -36t-37.5 -63.5t-12 -94q0 -54 11.5 -92.5t36 -62.5t63.5 -35.5t94 -11.5q15 0 36.5 1t43.5 3t42.5 4.5t33.5 5.5v-93q-18 -3 -38.5 -6t-41 -5.5
t-40.5 -3.5t-36 -1zM278 636l63 124h116l-94 -131z" />
    <glyph glyph-name="Ccaron" unicode="&#x10c;" horiz-adv-x="627" 
d="M410 -10q-180 0 -270 94.5t-90 283.5q0 192 89 288t266 96q36 0 83.5 -5.5t99.5 -13.5v-99q-62 10 -101 14t-70 4q-128 0 -186.5 -67.5t-58.5 -215.5q0 -146 56.5 -213t181.5 -67q18 0 42.5 1.5t49.5 4.5t48 7t38 8v-98q-20 -5 -43 -9t-47 -7t-46.5 -4.5t-41.5 -1.5z
M177 973l187 -77l186 77v-88l-188 -76l-185 76v88z" />
    <glyph glyph-name="caron.cap" horiz-adv-x="488" 
d="M57 973l187 -77l186 77v-88l-188 -76l-185 76v88z" />
    <glyph glyph-name="Ccaron.sc" horiz-adv-x="572" 
d="M372 -9q-322 0 -322 296q0 300 316 300q31 0 72.5 -3.5t89.5 -10.5v-94q-56 7 -90 10.5t-61 3.5q-56 0 -95.5 -11.5t-65 -36t-37.5 -63.5t-12 -94q0 -54 11.5 -92.5t36 -62.5t63.5 -35.5t94 -11.5q15 0 36.5 1t43.5 3t42.5 4.5t33.5 5.5v-93q-18 -3 -38.5 -6t-41 -5.5
t-40.5 -3.5t-36 -1zM158 769l169 -60l169 60v-78l-170 -61l-168 61v78z" />
    <glyph glyph-name="Ccedilla" unicode="&#xc7;" horiz-adv-x="627" 
d="M338 -220q-21 0 -48 3.5t-52 8.5v74q17 -5 36.5 -8.5t40.5 -3.5q37 0 52 12t15 39q0 18 -8.5 38.5t-29.5 50.5q-147 16 -220.5 109.5t-73.5 264.5q0 192 89 288t266 96q36 0 83.5 -5.5t99.5 -13.5v-99q-62 10 -101 14t-70 4q-128 0 -186.5 -67.5t-58.5 -215.5
q0 -146 56.5 -213t181.5 -67q18 0 42.5 1.5t49.5 4.5t48 7t38 8v-98q-35 -9 -80 -14.5t-82 -7.5q23 -33 31 -53t8 -43q0 -54 -33.5 -84t-93.5 -30z" />
    <glyph glyph-name="cedilla" unicode="&#xb8;" horiz-adv-x="327" 
d="M139 -220q-21 0 -48 3.5t-52 8.5v74q17 -5 36.5 -8.5t40.5 -3.5q37 0 52 12t15 39q0 23 -14 50.5t-50 73.5h80q20 -27 33 -46.5t20.5 -34.5t10.5 -27.5t3 -26.5q0 -54 -33.5 -84t-93.5 -30z" />
    <glyph glyph-name="Ccedilla.sc" horiz-adv-x="572" 
d="M309 -172q-19 0 -42.5 3t-47.5 7v67q16 -4 33.5 -6.5t37.5 -2.5q32 0 43 8.5t11 28.5q0 10 -5.5 23t-21.5 37q-134 10 -200.5 84t-66.5 210q0 300 316 300q32 0 73 -3.5t89 -10.5v-94q-56 7 -90 10.5t-60 3.5q-56 0 -96 -11.5t-65.5 -36t-37.5 -63.5t-12 -94
q0 -54 11.5 -92.5t36 -62.5t63.5 -35.5t94 -11.5q15 0 36.5 1t44 3t42.5 4.5t33 5.5v-93q-29 -6 -66.5 -10t-68.5 -6q16 -26 22 -41t6 -32q0 -43 -29.5 -66.5t-82.5 -23.5z" />
    <glyph glyph-name="Ccircumflex" unicode="&#x108;" horiz-adv-x="627" 
d="M410 -10q-180 0 -270 94.5t-90 283.5q0 192 89 288t266 96q36 0 83.5 -5.5t99.5 -13.5v-99q-62 10 -101 14t-70 4q-128 0 -186.5 -67.5t-58.5 -215.5q0 -146 56.5 -213t181.5 -67q18 0 42.5 1.5t49.5 4.5t48 7t38 8v-98q-20 -5 -43 -9t-47 -7t-46.5 -4.5t-41.5 -1.5z
M175 896l186 77l188 -77v-87l-187 76l-187 -76v87z" />
    <glyph glyph-name="Ccircumflex.sc" horiz-adv-x="572" 
d="M372 -9q-322 0 -322 296q0 300 316 300q31 0 72.5 -3.5t89.5 -10.5v-94q-56 7 -90 10.5t-61 3.5q-56 0 -95.5 -11.5t-65 -36t-37.5 -63.5t-12 -94q0 -54 11.5 -92.5t36 -62.5t63.5 -35.5t94 -11.5q15 0 36.5 1t43.5 3t42.5 4.5t33.5 5.5v-93q-18 -3 -38.5 -6t-41 -5.5
t-40.5 -3.5t-36 -1zM157 708l168 61l171 -61v-78l-169 60l-170 -60v78z" />
    <glyph glyph-name="Cdotaccent" unicode="&#x10a;" horiz-adv-x="627" 
d="M375 814q-36 0 -53.5 16t-17.5 52q0 37 17.5 53.5t53.5 16.5q71 0 71 -70q0 -68 -71 -68zM410 -10q-180 0 -270 94.5t-90 283.5q0 192 89 288t266 96q36 0 83.5 -5.5t99.5 -13.5v-99q-62 10 -101 14t-70 4q-128 0 -186.5 -67.5t-58.5 -215.5q0 -146 56.5 -213t181.5 -67
q18 0 42.5 1.5t49.5 4.5t48 7t38 8v-98q-20 -5 -43 -9t-47 -7t-46.5 -4.5t-41.5 -1.5z" />
    <glyph glyph-name="dotaccent.cap" horiz-adv-x="365" 
d="M182 814q-36 0 -53.5 16t-17.5 52q0 37 17.5 53.5t53.5 16.5q71 0 71 -70q0 -68 -71 -68z" />
    <glyph glyph-name="Cdotaccent.sc" horiz-adv-x="572" 
d="M372 -9q-322 0 -322 296q0 300 316 300q31 0 72.5 -3.5t89.5 -10.5v-94q-56 7 -90 10.5t-61 3.5q-56 0 -95.5 -11.5t-65 -36t-37.5 -63.5t-12 -94q0 -54 11.5 -92.5t36 -62.5t63.5 -35.5t94 -11.5q15 0 36.5 1t43.5 3t42.5 4.5t33.5 5.5v-93q-18 -3 -38.5 -6t-41 -5.5
t-40.5 -3.5t-36 -1zM339 632q-35 0 -50.5 14.5t-15.5 48.5q0 33 15.5 48t50.5 15q67 0 67 -63t-67 -63z" />
    <glyph glyph-name="D" unicode="D" horiz-adv-x="790" 
d="M304 -9q-34 0 -67 1t-61.5 3t-51 5t-35.5 6v733q31 2 64 3.5t65 3t60.5 2.5t49.5 1q213 0 312.5 -91.5t99.5 -287.5q0 -99 -25 -171t-78 -118t-135.5 -68t-197.5 -22zM345 87q72 0 124 16t85 50.5t48.5 88t15.5 128.5q0 148 -65 214.5t-211 66.5q-26 0 -62.5 -2t-71.5 -5
v-546q37 -6 68 -8.5t69 -2.5z" />
    <glyph glyph-name="D.sc" horiz-adv-x="716" 
d="M301 -7q-33 0 -65 1t-61 2.5t-52.5 3.5t-38.5 5v571q27 2 57 3.5t58.5 2.5t55 1.5t46.5 0.5q189 0 277.5 -71.5t88.5 -224.5q0 -152 -88.5 -223.5t-277.5 -71.5zM318 84q62 0 106.5 11.5t72.5 36t41 63.5t13 93q0 108 -55.5 156t-180.5 48q-23 0 -55 -1.5t-62 -3.5v-395
q32 -5 59 -6.5t61 -1.5z" />
    <glyph glyph-name="Dcaron" unicode="&#x10e;" horiz-adv-x="790" 
d="M188 973l187 -77l186 77v-88l-188 -76l-185 76v88zM304 -9q-34 0 -67 1t-61.5 3t-51 5t-35.5 6v733q31 2 64 3.5t65 3t60.5 2.5t49.5 1q213 0 312.5 -91.5t99.5 -287.5q0 -99 -25 -171t-78 -118t-135.5 -68t-197.5 -22zM345 87q72 0 124 16t85 50.5t48.5 88t15.5 128.5
q0 148 -65 214.5t-211 66.5q-26 0 -62.5 -2t-71.5 -5v-546q37 -6 68 -8.5t69 -2.5z" />
    <glyph glyph-name="Dcaron.sc" horiz-adv-x="717" 
d="M301 -7q-33 0 -65 1t-61 2.5t-52.5 3.5t-38.5 5v571q27 2 57 3.5t58.5 2.5t55 1.5t46.5 0.5q189 0 277.5 -71.5t88.5 -224.5q0 -152 -88.5 -223.5t-277.5 -71.5zM318 84q62 0 106.5 11.5t72.5 36t41 63.5t13 93q0 108 -55.5 156t-180.5 48q-23 0 -55 -1.5t-62 -3.5v-395
q32 -5 59 -6.5t61 -1.5zM174 691v78l169 -60l169 60v-78l-171 -61z" />
    <glyph glyph-name="Dcroat" unicode="&#x110;" horiz-adv-x="804" 
d="M6 418h97v321q31 2 64 3.5t65 3t60.5 2.5t49.5 1q213 0 312.5 -91.5t99.5 -287.5q0 -99 -25 -171t-78 -118t-135.5 -68t-197.5 -22q-34 0 -67 1t-61.5 3t-51 5t-35.5 6v318h-97v94zM359 87q72 0 124 16t85 50.5t48.5 88t15.5 128.5q0 148 -65 214.5t-211 66.5
q-26 0 -62.5 -2t-71.5 -5v-226h177v-94h-177v-226q37 -6 68 -8.5t69 -2.5z" />
    <glyph glyph-name="Dcroat.sc" horiz-adv-x="733" 
d="M16 334h84v242q29 2 59.5 3.5t59 2.5t53.5 1.5t44 0.5q190 0 278.5 -71.5t88.5 -224.5q0 -78 -22.5 -134t-69.5 -91.5t-121.5 -52.5t-177.5 -17q-30 0 -59.5 1t-55 2.5t-45.5 3.5t-32 5v241h-84v88zM334 84q62 0 106 11.5t72 36t41 63t13 93.5q0 54 -13 93t-41.5 63.5
t-73 36t-107.5 11.5q-22 0 -53.5 -1.5t-63.5 -3.5v-153h150v-88h-150v-154q32 -5 60 -6.5t60 -1.5z" />
    <glyph glyph-name="Ddotbelow" unicode="&#x1e0c;" horiz-adv-x="790" 
d="M379 -191q-30 0 -45 13.5t-15 44.5q0 59 60 59q61 0 61 -59q0 -31 -14.5 -44.5t-46.5 -13.5zM304 -9q-34 0 -67 1t-61.5 3t-51 5t-35.5 6v733q31 2 64 3.5t65 3t60.5 2.5t49.5 1q213 0 312.5 -91.5t99.5 -287.5q0 -99 -25 -171t-78 -118t-135.5 -68t-197.5 -22zM345 87
q72 0 124 16t85 50.5t48.5 88t15.5 128.5q0 148 -65 214.5t-211 66.5q-26 0 -62.5 -2t-71.5 -5v-546q37 -6 68 -8.5t69 -2.5z" />
    <glyph glyph-name="dotbelow" horiz-adv-x="248" 
d="M123 -191q-30 0 -45 13.5t-15 44.5q0 59 60 59q61 0 61 -59q0 -31 -14.5 -44.5t-46.5 -13.5z" />
    <glyph glyph-name="Ddotbelow.sc" horiz-adv-x="717" 
d="M301 -7q-33 0 -65 1t-61 2.5t-52.5 3.5t-38.5 5v571q27 2 57 3.5t58.5 2.5t55 1.5t46.5 0.5q189 0 277.5 -71.5t88.5 -224.5q0 -152 -88.5 -223.5t-277.5 -71.5zM318 84q62 0 106.5 11.5t72.5 36t41 63.5t13 93q0 108 -55.5 156t-180.5 48q-23 0 -55 -1.5t-62 -3.5v-395
q32 -5 59 -6.5t61 -1.5zM346 -155q-55 0 -55 51q0 52 55 52q56 0 56 -52q0 -51 -56 -51z" />
    <glyph glyph-name="Delta" unicode="&#x2206;" horiz-adv-x="820" 
d="M340 740h140l315 -740h-770zM643 93l-233 547l-234 -547h467z" />
    <glyph glyph-name="E" unicode="E" horiz-adv-x="667" 
d="M89 740h519v-94h-400v-224h373v-95h-373v-233h409v-94h-528v740z" />
    <glyph glyph-name="E.sc" horiz-adv-x="609" 
d="M84 577h467v-86h-352v-161h327v-75h-327v-169h359v-86h-474v577z" />
    <glyph glyph-name="Eacute" unicode="&#xc9;" horiz-adv-x="667" 
d="M297 813l72 150h121l-105 -158zM89 740h519v-94h-400v-224h373v-95h-373v-233h409v-94h-528v740z" />
    <glyph glyph-name="Eacute.sc" horiz-adv-x="609" 
d="M84 577h467v-86h-352v-161h327v-75h-327v-169h359v-86h-474v577zM268 636l61 124h116l-93 -131z" />
    <glyph glyph-name="Ebreve" unicode="&#x114;" horiz-adv-x="667" 
d="M344 814q-54 0 -92 11.5t-63 32.5t-36.5 50t-11.5 64h83q0 -44 29 -69t91 -25q63 0 92 25t29 69h83q0 -70 -48.5 -114t-155.5 -44zM89 740h519v-94h-400v-224h373v-95h-373v-233h409v-94h-528v740z" />
    <glyph glyph-name="Ebreve.sc" horiz-adv-x="609" 
d="M314 635q-49 0 -84 10t-57 27.5t-32.5 41.5t-10.5 52h78q0 -35 25 -54t81 -19t81 19t25 54h78q0 -57 -43 -94t-141 -37zM84 577h467v-86h-352v-161h327v-75h-327v-169h359v-86h-474v577z" />
    <glyph glyph-name="Ecaron" unicode="&#x11a;" horiz-adv-x="667" 
d="M163 973l187 -77l186 77v-88l-188 -76l-185 76v88zM89 740h519v-94h-400v-224h373v-95h-373v-233h409v-94h-528v740z" />
    <glyph glyph-name="Ecaron.sc" horiz-adv-x="609" 
d="M84 577h467v-86h-352v-161h327v-75h-327v-169h359v-86h-474v577zM149 691v78l169 -60l169 60v-78l-171 -61z" />
    <glyph glyph-name="Ecircumflex" unicode="&#xca;" horiz-adv-x="667" 
d="M89 740h519v-94h-400v-224h373v-95h-373v-233h409v-94h-528v740zM171 896l186 77l188 -77v-87l-187 76l-187 -76v87z" />
    <glyph glyph-name="Ecircumflex.sc" horiz-adv-x="609" 
d="M84 577h467v-86h-352v-161h327v-75h-327v-169h359v-86h-474v577zM159 708l167 61l170 -61v-78l-169 60l-168 -60v78z" />
    <glyph glyph-name="Edblgrave" unicode="&#x204;" horiz-adv-x="667" 
d="M89 740h519v-94h-400v-224h373v-95h-373v-233h409v-94h-528v740zM214 800l-105 157h120l71 -145zM394 800l-106 157h120l72 -145z" />
    <glyph glyph-name="Edblgrave.sc" horiz-adv-x="609" 
d="M84 577h467v-86h-352v-161h327v-75h-327v-169h359v-86h-474v577zM98 756h115l61 -121l-83 -9zM262 756h115l62 -121l-83 -9z" />
    <glyph glyph-name="Edieresis" unicode="&#xcb;" horiz-adv-x="667" 
d="M210 817q-36 0 -53 16.5t-17 52.5t17 52.5t53 16.5q71 0 71 -69t-71 -69zM500 817q-37 0 -54 16.5t-17 52.5t17 52.5t54 16.5q70 0 70 -69t-70 -69zM89 740h519v-94h-400v-224h373v-95h-373v-233h409v-94h-528v740z" />
    <glyph glyph-name="Edieresis.sc" horiz-adv-x="609" 
d="M195 634q-34 0 -50.5 15t-16.5 48q0 63 67 63q35 0 50.5 -15.5t15.5 -47.5t-15.5 -47.5t-50.5 -15.5zM454 634q-35 0 -51 15t-16 48q0 63 67 63q65 0 65 -63t-65 -63zM84 577h467v-86h-352v-161h327v-75h-327v-169h359v-86h-474v577z" />
    <glyph glyph-name="Edotaccent" unicode="&#x116;" horiz-adv-x="667" 
d="M346 814q-36 0 -53.5 16t-17.5 52q0 37 17.5 53.5t53.5 16.5q71 0 71 -70q0 -68 -71 -68zM89 740h519v-94h-400v-224h373v-95h-373v-233h409v-94h-528v740z" />
    <glyph glyph-name="Edotaccent.sc" horiz-adv-x="609" 
d="M315 632q-35 0 -51 14.5t-16 48.5q0 33 16 48t51 15q66 0 66 -63t-66 -63zM84 577h467v-86h-352v-161h327v-75h-327v-169h359v-86h-474v577z" />
    <glyph glyph-name="Edotbelow" unicode="&#x1eb8;" horiz-adv-x="667" 
d="M89 740h519v-94h-400v-224h373v-95h-373v-233h409v-94h-528v740zM369 -191q-30 0 -45 13.5t-15 44.5q0 59 60 59q61 0 61 -59q0 -31 -14.5 -44.5t-46.5 -13.5z" />
    <glyph glyph-name="Edotbelow.sc" horiz-adv-x="609" 
d="M336 -155q-56 0 -56 51q0 52 56 52q55 0 55 -52q0 -51 -55 -51zM84 577h467v-86h-352v-161h327v-75h-327v-169h359v-86h-474v577z" />
    <glyph glyph-name="Egrave" unicode="&#xc8;" horiz-adv-x="667" 
d="M322 805l-105 158h122l71 -145zM89 740h519v-94h-400v-224h373v-95h-373v-233h409v-94h-528v740z" />
    <glyph glyph-name="Egrave.sc" horiz-adv-x="609" 
d="M84 577h467v-86h-352v-161h327v-75h-327v-169h359v-86h-474v577zM199 760h116l61 -121l-83 -10z" />
    <glyph glyph-name="Einvertedbreve" unicode="&#x206;" horiz-adv-x="667" 
d="M89 740h519v-94h-400v-224h373v-95h-373v-233h409v-94h-528v740zM471 819q0 44 -29 68.5t-92 24.5t-92 -24.5t-29 -68.5h-83q0 69 48.5 113t155.5 44t155.5 -43.5t48.5 -113.5h-83z" />
    <glyph glyph-name="Einvertedbreve.sc" horiz-adv-x="609" 
d="M135 639q0 28 10 52t32 41.5t57 27.5t84 10q98 0 141.5 -37t43.5 -94h-78q0 34 -25 53t-82 19q-56 0 -80.5 -19t-24.5 -53h-78zM84 577h467v-86h-352v-161h327v-75h-327v-169h359v-86h-474v577z" />
    <glyph glyph-name="Emacron" unicode="&#x112;" horiz-adv-x="667" 
d="M167 925h369v-83h-369v83zM89 740h519v-94h-400v-224h373v-95h-373v-233h409v-94h-528v740z" />
    <glyph glyph-name="Emacron.sc" horiz-adv-x="609" 
d="M84 577h467v-86h-352v-161h327v-75h-327v-169h359v-86h-474v577zM154 733h334v-76h-334v76z" />
    <glyph glyph-name="Eng" unicode="&#x14a;" horiz-adv-x="832" 
d="M554 -172q30 54 48 106t23 95l-355 449l-67 90h-7v-568h-107v740h94l382 -480l65 -89h8v569h107v-640q0 -32 -8.5 -70.5t-23 -78.5t-34 -79t-42.5 -70z" />
    <glyph glyph-name="Eng.sc" horiz-adv-x="741" 
d="M489 -134q51 91 62 152l-297 330l-61 72h-6v-420h-103v577h89l317 -352l59 -69h6v421h103v-492q0 -54 -25 -120t-66 -124z" />
    <glyph glyph-name="Eogonek" unicode="&#x118;" horiz-adv-x="667" 
d="M89 740h519v-94h-400v-224h373v-95h-373v-233h409v-110q-67 -32 -95.5 -57t-28.5 -51q0 -30 41 -30q14 0 37.5 3.5t44.5 8.5v-66q-16 -6 -37 -9t-44 -3q-122 0 -122 85q0 37 25 69t82 66h-431v740z" />
    <glyph glyph-name="Eogonek.sc" horiz-adv-x="609" 
d="M484 -172q-58 0 -84.5 17.5t-26.5 51.5q0 31 20.5 54.5t68.5 48.5h-378v577h467v-86h-352v-161h327v-75h-327v-169h359v-97q-62 -23 -86 -40.5t-24 -36.5q0 -13 9.5 -17.5t26.5 -4.5q14 0 36.5 2.5t37.5 6.5v-61q-17 -5 -36 -7.5t-38 -2.5z" />
    <glyph glyph-name="Eth" unicode="&#xd0;" horiz-adv-x="804" 
d="M6 418h97v321q31 2 64 3.5t65 3t60.5 2.5t49.5 1q213 0 312.5 -91.5t99.5 -287.5q0 -99 -25 -171t-78 -118t-135.5 -68t-197.5 -22q-34 0 -67 1t-61.5 3t-51 5t-35.5 6v318h-97v94zM359 87q72 0 124 16t85 50.5t48.5 88t15.5 128.5q0 148 -65 214.5t-211 66.5
q-26 0 -62.5 -2t-71.5 -5v-226h177v-94h-177v-226q37 -6 68 -8.5t69 -2.5z" />
    <glyph glyph-name="Eth.sc" horiz-adv-x="732" 
d="M14 330h84v246q29 2 59.5 3.5t59.5 2.5t54.5 1.5t44.5 0.5q189 0 277.5 -71.5t88.5 -224.5q0 -78 -22.5 -134t-70 -91.5t-121.5 -52.5t-177 -17q-61 0 -114.5 3.5t-78.5 8.5v243h-84v82zM333 84q62 0 106 11.5t72 36t41 63t13 93.5q0 54 -13 93t-41.5 63.5t-73 36
t-107.5 11.5q-22 0 -54 -1.5t-63 -3.5v-157h150v-82h-150v-156q32 -5 59.5 -6.5t60.5 -1.5z" />
    <glyph glyph-name="Etilde" unicode="&#x1ebc;" horiz-adv-x="667" 
d="M130 865q32 46 70 68t74 22q26 0 49.5 -6.5t46.5 -14t46 -13.5t48 -6q26 0 49.5 8.5t51.5 29.5l23 -31q-31 -45 -71 -67.5t-78 -22.5q-24 0 -47.5 6t-47 13.5t-47 13.5t-46.5 6q-24 0 -47.5 -7.5t-49.5 -28.5zM89 740h519v-94h-400v-224h373v-95h-373v-233h409v-94h-528
v740z" />
    <glyph glyph-name="Etilde.sc" horiz-adv-x="609" 
d="M120 675q29 41 63 61t67 20q23 0 44.5 -4.5t42.5 -10.5t41.5 -10.5t43.5 -4.5q22 0 43.5 6t46.5 22l21 -25q-29 -40 -65.5 -60.5t-69.5 -20.5q-22 0 -43.5 5t-43 10.5t-42.5 10.5t-42 5q-22 0 -42.5 -6t-43.5 -23zM84 577h467v-86h-352v-161h327v-75h-327v-169h359v-86
h-474v577z" />
    <glyph glyph-name="Euro" unicode="&#x20ac;" horiz-adv-x="691" 
d="M44 490h92q25 133 116 196t264 63q46 0 77.5 -4t54.5 -6l-35 -98q-10 2 -31 4t-41 2q-68 0 -117.5 -8t-83 -26.5t-54 -48.5t-29.5 -74h307l-17 -72h-299q-1 -11 -1 -23v-25v-26t1 -23h278l-17 -71h-251q10 -44 30 -74t54 -48.5t82.5 -27t114.5 -8.5q22 0 46 2t52 7v-102
q-18 -5 -47.5 -7t-64.5 -2q-177 1 -270 64.5t-118 195.5h-93v71h84q-1 11 -1 23v25v25t1 24h-84v72z" />
    <glyph glyph-name="Euro.tab" 
d="M10 490h88q24 135 110 197t249 62q45 0 75.5 -4t52.5 -6l-34 -98q-8 2 -29 4t-41 2q-60 0 -104.5 -8.5t-76 -27t-51.5 -48.5t-29 -73h286l-16 -72h-283q-1 -9 -1.5 -23t-0.5 -25t0.5 -25t1.5 -24h264l-16 -71h-235q19 -84 81 -121t179 -37q22 0 45.5 2t49.5 7v-102
q-18 -5 -46 -7t-63 -2q-167 1 -255.5 64t-112.5 196h-88v71h79q0 10 -0.5 24t-0.5 24v25.5t1 23.5h-79v72z" />
    <glyph glyph-name="F" unicode="F" horiz-adv-x="641" 
d="M89 740h519v-94h-400v-237h361v-94h-361v-315h-119v740z" />
    <glyph glyph-name="F.sc" horiz-adv-x="586" 
d="M84 577h467v-88h-352v-171h317v-79h-317v-239h-115v577z" />
    <glyph glyph-name="F_B.sc" horiz-adv-x="1222" 
d="M84 577h467v-88h-352v-171h317v-79h-317v-239h-115v577zM904 -8q-60 0 -120.5 3t-132.5 9v569q69 5 124.5 8t108.5 3q142 0 205.5 -37.5t63.5 -121.5q0 -50 -30.5 -83.5t-86.5 -44.5v-3q139 -24 139 -139q0 -84 -66 -123.5t-205 -39.5zM897 71q85 0 125 23t40 72
q0 48 -36 69.5t-113 21.5h-151v-180q20 -4 49 -5t86 -1zM902 328q75 0 107 20.5t32 68.5q0 49 -34.5 69t-119.5 20q-40 0 -70.5 -1t-54.5 -5v-172h140z" />
    <glyph glyph-name="F_F.sc" horiz-adv-x="1153" 
d="M84 577h467v-88h-352v-171h317v-79h-317v-239h-115v577zM651 577h467v-88h-352v-171h317v-79h-317v-239h-115v577z" />
    <glyph glyph-name="F_F_B.sc" horiz-adv-x="1788" 
d="M84 577h467v-88h-352v-171h317v-79h-317v-239h-115v577zM651 577h467v-88h-352v-171h317v-79h-317v-239h-115v577zM1471 -8q-60 0 -120.5 3t-132.5 9v569q69 5 124.5 8t108.5 3q142 0 205.5 -37.5t63.5 -121.5q0 -50 -30.5 -83.5t-86.5 -44.5v-3q139 -24 139 -139
q0 -84 -66 -123.5t-205 -39.5zM1464 71q85 0 125 23t40 72q0 48 -36 69.5t-113 21.5h-151v-180q20 -4 49 -5t86 -1zM1469 328q75 0 107 20.5t32 68.5q0 49 -34.5 69t-119.5 20q-40 0 -70.5 -1t-54.5 -5v-172h140z" />
    <glyph glyph-name="F_F_H.sc" horiz-adv-x="1888" 
d="M84 577h467v-88h-352v-171h317v-79h-317v-239h-115v577zM651 577h467v-88h-352v-171h317v-79h-317v-239h-115v577zM1218 577h115v-237h356v237h114v-577h-114v253h-356v-253h-115v577z" />
    <glyph glyph-name="H.sc" horiz-adv-x="754" 
d="M84 577h115v-237h356v237h114v-577h-114v253h-356v-253h-115v577z" />
    <glyph glyph-name="F_F_I.sc" horiz-adv-x="1417" 
d="M84 577h467v-88h-352v-171h317v-79h-317v-239h-115v577zM651 577h467v-88h-352v-171h317v-79h-317v-239h-115v577zM1218 577h115v-577h-115v577z" />
    <glyph glyph-name="I.sc" horiz-adv-x="283" 
d="M84 577h115v-577h-115v577z" />
    <glyph glyph-name="F_F_J.sc" horiz-adv-x="1424" 
d="M84 577h467v-88h-352v-171h317v-79h-317v-239h-115v577zM651 577h467v-88h-352v-171h317v-79h-317v-239h-115v577zM1161 -123q19 37 32 69.5t20.5 64t11 65.5t3.5 74v427h115v-434q0 -41 -5 -75.5t-17.5 -69.5t-33 -72.5t-50.5 -82.5z" />
    <glyph glyph-name="J.sc" horiz-adv-x="282" 
d="M19 -123q19 37 32 69.5t20.5 64t11 65.5t3.5 74v427h115v-434q0 -41 -5 -75.5t-17.5 -69.5t-33 -72.5t-50.5 -82.5z" />
    <glyph glyph-name="F_F_K.sc" horiz-adv-x="1793" 
d="M84 577h467v-88h-352v-171h317v-79h-317v-239h-115v577zM651 577h467v-88h-352v-171h317v-79h-317v-239h-115v577zM1218 577h115v-242h125l183 242h129l-198 -253l-35 -20v-6l38 -20l210 -278h-130l-186 248h-136v-248h-115v577z" />
    <glyph glyph-name="K.sc" horiz-adv-x="659" 
d="M84 577h115v-242h125l183 242h129l-198 -253l-35 -20v-6l38 -20l210 -278h-130l-186 248h-136v-248h-115v577z" />
    <glyph glyph-name="F_F_L.sc" horiz-adv-x="1668" 
d="M1218 577h115v-489h317v-88h-432v577zM84 577h467v-88h-352v-171h317v-79h-317v-239h-115v577zM651 577h467v-88h-352v-171h317v-79h-317v-239h-115v577z" />
    <glyph glyph-name="L.sc" horiz-adv-x="534" 
d="M84 577h115v-489h317v-88h-432v577z" />
    <glyph glyph-name="F_F_T.sc" horiz-adv-x="1715" 
d="M1361 489h-217v88h547v-88h-216v-489h-114v489zM84 577h467v-88h-352v-171h317v-79h-317v-239h-115v577zM651 577h467v-88h-352v-171h317v-79h-317v-239h-115v577z" />
    <glyph glyph-name="T.sc" horiz-adv-x="592" 
d="M239 489h-217v88h547v-88h-216v-489h-114v489z" />
    <glyph glyph-name="F_H.sc" horiz-adv-x="1320" 
d="M84 577h467v-88h-352v-171h317v-79h-317v-239h-115v577zM651 577h115v-237h356v237h114v-577h-114v253h-356v-253h-115v577z" />
    <glyph glyph-name="F_I.sc" horiz-adv-x="850" 
d="M84 577h467v-88h-352v-171h317v-79h-317v-239h-115v577zM651 577h115v-577h-115v577z" />
    <glyph glyph-name="F_J.sc" horiz-adv-x="857" 
d="M84 577h467v-88h-352v-171h317v-79h-317v-239h-115v577zM593 -123q19 37 32 69.5t20.5 64t11 65.5t3.5 74v427h115v-434q0 -41 -5 -75.5t-17.5 -69.5t-33 -72.5t-50.5 -82.5z" />
    <glyph glyph-name="F_K.sc" horiz-adv-x="1225" 
d="M84 577h467v-88h-352v-171h317v-79h-317v-239h-115v577zM651 577h115v-242h125l183 242h129l-198 -253l-35 -20v-6l38 -20l210 -278h-130l-186 248h-136v-248h-115v577z" />
    <glyph glyph-name="F_L.sc" horiz-adv-x="1102" 
d="M651 577h115v-489h317v-88h-432v577zM84 577h467v-88h-352v-171h317v-79h-317v-239h-115v577z" />
    <glyph glyph-name="F_T.sc" horiz-adv-x="1147" 
d="M795 489h-217v88h547v-88h-216v-489h-114v489zM84 577h467v-88h-352v-171h317v-79h-317v-239h-115v577z" />
    <glyph glyph-name="G" unicode="G" horiz-adv-x="711" 
d="M418 -10q-184 0 -276 94.5t-92 283.5q0 191 94.5 287.5t283.5 96.5q51 0 106 -6.5t105 -20.5v-98q-68 13 -114.5 19t-88.5 6q-70 0 -120 -16.5t-82 -51.5t-47 -88.5t-15 -126.5q0 -146 58.5 -213t187.5 -67q23 0 55.5 2.5t62.5 7.5v277h111v-347q-26 -9 -56 -16t-61 -12
t-60 -8t-52 -3z" />
    <glyph glyph-name="G.sc" horiz-adv-x="646" 
d="M378 -9q-328 0 -328 296q0 149 84 224.5t253 75.5q46 0 96 -5t93 -16v-91q-62 10 -103.5 14t-77.5 4q-62 0 -105.5 -12t-70.5 -36.5t-39.5 -63.5t-12.5 -93t11.5 -92t37 -62.5t66 -36t97.5 -11.5q8 0 21 0.5t27.5 2t28 3.5t22.5 4v197h107v-269q-23 -7 -50.5 -13
t-55.5 -10.5t-54 -7t-47 -2.5z" />
    <glyph glyph-name="Gacute" unicode="&#x1f4;" horiz-adv-x="711" 
d="M326 813l72 150h121l-105 -158zM418 -10q-184 0 -276 94.5t-92 283.5q0 191 94.5 287.5t283.5 96.5q51 0 106 -6.5t105 -20.5v-98q-68 13 -114.5 19t-88.5 6q-70 0 -120 -16.5t-82 -51.5t-47 -88.5t-15 -126.5q0 -146 58.5 -213t187.5 -67q23 0 55.5 2.5t62.5 7.5v277
h111v-347q-26 -9 -56 -16t-61 -12t-60 -8t-52 -3z" />
    <glyph glyph-name="Gacute.sc" horiz-adv-x="646" 
d="M378 -9q-328 0 -328 296q0 300 337 300q47 0 96.5 -5t92.5 -16v-93q-61 11 -103 15.5t-78 4.5q-61 0 -104 -11.5t-70.5 -36t-40.5 -63.5t-13 -94q0 -54 12 -92.5t37.5 -62.5t66 -35.5t96.5 -11.5q8 0 21 0.5t27.5 2t28 3.5t22.5 4v197h107v-269q-23 -7 -50 -13t-55 -10.5
t-54.5 -7t-47.5 -2.5zM293 636l60 124h117l-94 -131z" />
    <glyph glyph-name="Gbreve" unicode="&#x11e;" horiz-adv-x="711" 
d="M383 814q-54 0 -92 11.5t-63 32.5t-36.5 50t-11.5 64h83q0 -44 29 -69t91 -25q63 0 92 25t29 69h83q0 -70 -48.5 -114t-155.5 -44zM418 -10q-184 0 -276 94.5t-92 283.5q0 191 94.5 287.5t283.5 96.5q51 0 106 -6.5t105 -20.5v-98q-68 13 -114.5 19t-88.5 6
q-70 0 -120 -16.5t-82 -51.5t-47 -88.5t-15 -126.5q0 -146 58.5 -213t187.5 -67q23 0 55.5 2.5t62.5 7.5v277h111v-347q-26 -9 -56 -16t-61 -12t-60 -8t-52 -3z" />
    <glyph glyph-name="Gbreve.sc" horiz-adv-x="646" 
d="M378 -9q-328 0 -328 296q0 300 337 300q47 0 96.5 -5t92.5 -16v-93q-61 11 -103 15.5t-78 4.5q-61 0 -104 -11.5t-70.5 -36t-40.5 -63.5t-13 -94q0 -54 12 -92.5t37.5 -62.5t66 -35.5t96.5 -11.5q8 0 21 0.5t27.5 2t28 3.5t22.5 4v197h107v-269q-23 -7 -50 -13t-55 -10.5
t-54.5 -7t-47.5 -2.5zM348 635q-50 0 -84.5 10t-57 27.5t-32.5 41.5t-10 52h77q0 -35 25.5 -54t81.5 -19t80.5 19t24.5 54h78q0 -57 -42.5 -94t-140.5 -37z" />
    <glyph glyph-name="Gcircumflex" unicode="&#x11c;" horiz-adv-x="711" 
d="M418 -10q-184 0 -276 94.5t-92 283.5q0 191 94.5 287.5t283.5 96.5q51 0 106 -6.5t105 -20.5v-98q-68 13 -114.5 19t-88.5 6q-70 0 -120 -16.5t-82 -51.5t-47 -88.5t-15 -126.5q0 -146 58.5 -213t187.5 -67q23 0 55.5 2.5t62.5 7.5v277h111v-347q-26 -9 -56 -16t-61 -12
t-60 -8t-52 -3zM190 896l186 77l188 -77v-87l-187 76l-187 -76v87z" />
    <glyph glyph-name="Gcircumflex.sc" horiz-adv-x="646" 
d="M378 -9q-328 0 -328 296q0 300 337 300q47 0 96.5 -5t92.5 -16v-93q-61 11 -103 15.5t-78 4.5q-61 0 -104 -11.5t-70.5 -36t-40.5 -63.5t-13 -94q0 -54 12 -92.5t37.5 -62.5t66 -35.5t96.5 -11.5q8 0 21 0.5t27.5 2t28 3.5t22.5 4v197h107v-269q-23 -7 -50 -13t-55 -10.5
t-54.5 -7t-47.5 -2.5zM172 708l167 61l170 -61v-78l-168 60l-169 -60v78z" />
    <glyph glyph-name="Gcommaaccent" unicode="&#x122;" horiz-adv-x="711" 
d="M327 -70h121l-75 -150h-93zM418 -10q-184 0 -276 94.5t-92 283.5q0 191 94.5 287.5t283.5 96.5q51 0 106 -6.5t105 -20.5v-98q-68 13 -114.5 19t-88.5 6q-70 0 -120 -16.5t-82 -51.5t-47 -88.5t-15 -126.5q0 -146 58.5 -213t187.5 -67q23 0 55.5 2.5t62.5 7.5v277h111
v-347q-26 -9 -56 -16t-61 -12t-60 -8t-52 -3z" />
    <glyph glyph-name="commaaccent" unicode="&#xf6c3;" horiz-adv-x="268" 
d="M100 -70h121l-75 -150h-93z" />
    <glyph glyph-name="Gcommaaccent.sc" horiz-adv-x="646" 
d="M378 -9q-328 0 -328 296q0 300 337 300q47 0 96.5 -5t92.5 -16v-93q-61 11 -103 15.5t-78 4.5q-61 0 -104 -11.5t-70.5 -36t-40.5 -63.5t-13 -94q0 -54 12 -92.5t37.5 -62.5t66 -35.5t96.5 -11.5q8 0 21 0.5t27.5 2t28 3.5t22.5 4v197h107v-269q-23 -7 -50 -13t-55 -10.5
t-54.5 -7t-47.5 -2.5zM291 -55h116l-68 -117h-87z" />
    <glyph glyph-name="Gdotaccent" unicode="&#x120;" horiz-adv-x="711" 
d="M387 814q-36 0 -53.5 16t-17.5 52q0 37 17.5 53.5t53.5 16.5q71 0 71 -70q0 -68 -71 -68zM418 -10q-184 0 -276 94.5t-92 283.5q0 191 94.5 287.5t283.5 96.5q51 0 106 -6.5t105 -20.5v-98q-68 13 -114.5 19t-88.5 6q-70 0 -120 -16.5t-82 -51.5t-47 -88.5t-15 -126.5
q0 -146 58.5 -213t187.5 -67q23 0 55.5 2.5t62.5 7.5v277h111v-347q-26 -9 -56 -16t-61 -12t-60 -8t-52 -3z" />
    <glyph glyph-name="Gdotaccent.sc" horiz-adv-x="646" 
d="M378 -9q-328 0 -328 296q0 300 337 300q47 0 96.5 -5t92.5 -16v-93q-61 11 -103 15.5t-78 4.5q-61 0 -104 -11.5t-70.5 -36t-40.5 -63.5t-13 -94q0 -54 12 -92.5t37.5 -62.5t66 -35.5t96.5 -11.5q8 0 21 0.5t27.5 2t28 3.5t22.5 4v197h107v-269q-23 -7 -50 -13t-55 -10.5
t-54.5 -7t-47.5 -2.5zM350 632q-34 0 -50 14.5t-16 48.5q0 33 16 48t50 15q35 0 50.5 -15.5t15.5 -47.5t-15.5 -47.5t-50.5 -15.5z" />
    <glyph glyph-name="H" unicode="H" horiz-adv-x="830" 
d="M89 740h119v-313h414v313h119v-740h-119v333h-414v-333h-119v740z" />
    <glyph glyph-name="Hbar" unicode="&#x126;" horiz-adv-x="842" 
d="M9 607h85v133h119v-133h414v133h119v-133h87v-64h-87v-543h-119v333h-414v-333h-119v543h-85v64zM627 427v116h-414v-116h414z" />
    <glyph glyph-name="Hbar.sc" horiz-adv-x="763" 
d="M16 479h74v98h113v-98h357v98h114v-98h74v-57h-74v-422h-114v244h-357v-244h-113v422h-74v57zM560 332v90h-357v-90h357z" />
    <glyph glyph-name="Hcircumflex" unicode="&#x124;" horiz-adv-x="830" 
d="M89 740h119v-313h414v313h119v-740h-119v333h-414v-333h-119v740zM224 896l186 77l188 -77v-87l-187 76l-187 -76v87z" />
    <glyph glyph-name="Hcircumflex.sc" horiz-adv-x="754" 
d="M84 577h115v-237h356v237h114v-577h-114v253h-356v-253h-115v577zM205 708l168 61l170 -61v-78l-169 60l-169 -60v78z" />
    <glyph glyph-name="Hdotbelow" unicode="&#x1e24;" horiz-adv-x="830" 
d="M89 740h119v-313h414v313h119v-740h-119v333h-414v-333h-119v740zM420 -191q-30 0 -45 13.5t-15 44.5q0 59 60 59q61 0 61 -59q0 -31 -14.5 -44.5t-46.5 -13.5z" />
    <glyph glyph-name="Hdotbelow.sc" horiz-adv-x="754" 
d="M84 577h115v-237h356v237h114v-577h-114v253h-356v-253h-115v577zM381 -155q-54 0 -54 51q0 52 54 52q29 0 42 -12.5t13 -39.5q0 -26 -13 -38.5t-42 -12.5z" />
    <glyph glyph-name="I" unicode="I" horiz-adv-x="297" 
d="M89 740h119v-740h-119v740z" />
    <glyph glyph-name="IJ" unicode="&#x132;" horiz-adv-x="592" 
d="M89 740h119v-740h-119v740zM310 -159q22 48 37 89t24 81.5t13 83.5t4 95v550h119v-558q0 -51 -6 -95t-19.5 -87.5t-36 -90.5t-55.5 -104z" />
    <glyph glyph-name="J" unicode="J" horiz-adv-x="296" 
d="M13 -159q22 48 37 89t24 81.5t13 83.5t4 95v550h119v-558q0 -51 -6 -95t-19.5 -87.5t-36 -90.5t-55.5 -104z" />
    <glyph glyph-name="Iacute" unicode="&#xcd;" horiz-adv-x="297" 
d="M89 740h119v-740h-119v740zM100 813l72 150h121l-105 -158z" />
    <glyph glyph-name="Iacute.sc" horiz-adv-x="283" 
d="M84 577h115v-577h-115v577zM95 636l62 124h115l-93 -131z" />
    <glyph glyph-name="Ibreve" unicode="&#x12c;" horiz-adv-x="297" 
d="M89 740h119v-740h-119v740zM147 814q-54 0 -92 11.5t-63 32.5t-36.5 50t-11.5 64h83q0 -44 29 -69t91 -25q63 0 92 25t29 69h83q0 -70 -48.5 -114t-155.5 -44z" />
    <glyph glyph-name="Ibreve.sc" horiz-adv-x="283" 
d="M84 577h115v-577h-115v577zM141 635q-49 0 -84 10t-57 27.5t-32.5 41.5t-10.5 52h78q0 -35 25 -54t81 -19t81 19t25 54h78q0 -57 -43 -94t-141 -37z" />
    <glyph glyph-name="Icircumflex" unicode="&#xce;" horiz-adv-x="297" 
d="M89 740h119v-740h-119v740zM-37 896l186 77l188 -77v-87l-187 76l-187 -76v87z" />
    <glyph glyph-name="Icircumflex.sc" horiz-adv-x="283" 
d="M84 577h115v-577h-115v577zM-25 708l167 61l169 -61v-78l-168 60l-168 -60v78z" />
    <glyph glyph-name="Idblgrave" unicode="&#x208;" horiz-adv-x="297" 
d="M89 740h119v-740h-119v740zM24 800l-105 157h120l71 -145zM204 800l-106 157h120l72 -145z" />
    <glyph glyph-name="Idblgrave.sc" horiz-adv-x="283" 
d="M84 577h115v-577h-115v577zM27 626l-94 130h114l62 -121zM191 626l-94 130h115l61 -121z" />
    <glyph glyph-name="Idieresis" unicode="&#xcf;" horiz-adv-x="297" 
d="M89 740h119v-740h-119v740zM6 817q-36 0 -53 16.5t-17 52.5t17 52.5t53 16.5q71 0 71 -69t-71 -69zM296 817q-37 0 -54 16.5t-17 52.5t17 52.5t54 16.5q70 0 70 -69t-70 -69z" />
    <glyph glyph-name="Idieresis.sc" horiz-adv-x="283" 
d="M84 577h115v-577h-115v577zM15 634q-35 0 -51 15t-16 48q0 63 67 63q66 0 66 -63t-66 -63zM273 634q-34 0 -50 15t-16 48q0 63 66 63t66 -63t-66 -63z" />
    <glyph glyph-name="Idotaccent" unicode="&#x130;" horiz-adv-x="297" 
d="M89 740h119v-740h-119v740zM149 814q-36 0 -53.5 16t-17.5 52q0 37 17.5 53.5t53.5 16.5q71 0 71 -70q0 -68 -71 -68z" />
    <glyph glyph-name="Idotaccent.sc" horiz-adv-x="283" 
d="M84 577h115v-577h-115v577zM142 632q-35 0 -50.5 14.5t-15.5 48.5q0 33 15.5 48t50.5 15t50.5 -15.5t15.5 -47.5t-15.5 -47.5t-50.5 -15.5z" />
    <glyph glyph-name="Idotbelow" unicode="&#x1eca;" horiz-adv-x="297" 
d="M89 740h119v-740h-119v740zM148 -191q-30 0 -45 13.5t-15 44.5q0 59 60 59q61 0 61 -59q0 -31 -14.5 -44.5t-46.5 -13.5z" />
    <glyph glyph-name="Idotbelow.sc" horiz-adv-x="283" 
d="M84 577h115v-577h-115v577zM142 -155q-54 0 -54 51q0 52 54 52q29 0 42 -12.5t13 -39.5q0 -26 -13 -38.5t-42 -12.5z" />
    <glyph glyph-name="Igrave" unicode="&#xcc;" horiz-adv-x="297" 
d="M89 740h119v-740h-119v740zM116 805l-105 158h122l71 -145z" />
    <glyph glyph-name="Igrave.sc" horiz-adv-x="283" 
d="M84 577h115v-577h-115v577zM112 629l-95 131h117l61 -121z" />
    <glyph glyph-name="Iinvertedbreve" unicode="&#x20a;" horiz-adv-x="297" 
d="M89 740h119v-740h-119v740zM271 819q0 44 -29 68.5t-92 24.5t-92 -24.5t-29 -68.5h-83q0 69 48.5 113t155.5 44t155.5 -43.5t48.5 -113.5h-83z" />
    <glyph glyph-name="Iinvertedbreve.sc" horiz-adv-x="283" 
d="M84 577h115v-577h-115v577zM249 639q0 34 -24.5 53t-80.5 19q-57 0 -82 -19t-25 -53h-78q0 28 10.5 52t32.5 41.5t57 27.5t85 10q98 0 140.5 -37t42.5 -94h-78z" />
    <glyph glyph-name="Imacron" unicode="&#x12a;" horiz-adv-x="297" 
d="M89 740h119v-740h-119v740zM-33 925h369v-83h-369v83z" />
    <glyph glyph-name="Imacron.sc" horiz-adv-x="283" 
d="M84 577h115v-577h-115v577zM-22 733h335v-76h-335v76z" />
    <glyph glyph-name="Iogonek" unicode="&#x12e;" horiz-adv-x="297" 
d="M89 740h119v-756q-67 -32 -95.5 -57t-28.5 -51q0 -30 41 -30q14 0 37.5 3.5t44.5 8.5v-66q-16 -6 -37 -9t-44 -3q-122 0 -122 85q0 37 25 69t82 66h-22v740z" />
    <glyph glyph-name="Iogonek.sc" horiz-adv-x="283" 
d="M84 577h115v-588q-63 -23 -86.5 -40t-23.5 -37q0 -13 9 -17.5t26 -4.5q14 0 36.5 2.5t37.5 6.5v-61q-17 -5 -36 -7.5t-39 -2.5q-54 0 -82 18t-28 51q0 30 20.5 54t68.5 49h-18v577z" />
    <glyph glyph-name="Itilde" unicode="&#x128;" horiz-adv-x="297" 
d="M89 740h119v-740h-119v740zM-71 865q32 46 70 68t74 22q26 0 49.5 -6.5t46.5 -14t46 -13.5t48 -6q26 0 49.5 8.5t51.5 29.5l23 -31q-31 -45 -71 -67.5t-78 -22.5q-24 0 -47.5 6t-47 13.5t-47 13.5t-46.5 6q-24 0 -47.5 -7.5t-49.5 -28.5z" />
    <glyph glyph-name="Itilde.sc" horiz-adv-x="283" 
d="M84 577h115v-577h-115v577zM-57 675q29 41 63 61t67 20q23 0 44.5 -4.5t42.5 -10.5t41.5 -10.5t43.5 -4.5t44 6t46 22l20 -25q-29 -40 -64.5 -60.5t-69.5 -20.5q-22 0 -43.5 5t-43 10.5t-42.5 10.5t-42 5q-22 0 -42.5 -6t-44.5 -23z" />
    <glyph glyph-name="Jcircumflex" unicode="&#x134;" horiz-adv-x="296" 
d="M13 -159q22 48 37 89t24 81.5t13 83.5t4 95v550h119v-558q0 -51 -6 -95t-19.5 -87.5t-36 -90.5t-55.5 -104zM-34 896l186 77l188 -77v-87l-187 76l-187 -76v87z" />
    <glyph glyph-name="Jcircumflex.sc" horiz-adv-x="282" 
d="M18 -123q19 37 32 69.5t21 64t11.5 65.5t3.5 74v427h114v-434q0 -41 -5 -75.5t-17.5 -69.5t-33 -72.5t-50.5 -82.5zM-24 708l168 61l170 -61v-78l-169 60l-169 -60v78z" />
    <glyph glyph-name="K" unicode="K" horiz-adv-x="723" 
d="M89 740h119v-317h147l214 317h134l-228 -327l-38 -25v-8l41 -25l242 -355h-134l-219 328h-159v-328h-119v740z" />
    <glyph glyph-name="Kcommaaccent" unicode="&#x136;" horiz-adv-x="723" 
d="M303 -70h121l-75 -150h-93zM89 740h119v-317h147l214 317h134l-228 -327l-38 -25v-8l41 -25l242 -355h-134l-219 328h-159v-328h-119v740z" />
    <glyph glyph-name="Kcommaaccent.sc" horiz-adv-x="659" 
d="M84 577h115v-242h125l183 242h129l-198 -253l-35 -20v-6l38 -20l210 -278h-130l-186 248h-136v-248h-115v577zM290 -55h117l-68 -117h-88z" />
    <glyph glyph-name="L" unicode="L" horiz-adv-x="582" 
d="M89 740h119v-647h360v-93h-479v740z" />
    <glyph glyph-name="Lacute" unicode="&#x139;" horiz-adv-x="582" 
d="M103 813l72 150h121l-105 -158zM89 740h119v-647h360v-93h-479v740z" />
    <glyph glyph-name="Lacute.sc" horiz-adv-x="535" 
d="M84 577h115v-489h317v-88h-432v577zM99 636l62 124h116l-94 -131z" />
    <glyph glyph-name="Lcaron" unicode="&#x13d;" horiz-adv-x="584" 
d="M418 768h95l-34 -228h-61v228zM89 740h119v-647h360v-93h-479v740z" />
    <glyph glyph-name="caron.alt" horiz-adv-x="233" 
d="M64 808h95l-34 -228h-61v228z" />
    <glyph glyph-name="Lcaron.sc" horiz-adv-x="535" 
d="M84 577h115v-489h317v-88h-432v577zM377 607h90l-31 -178h-59v178z" />
    <glyph glyph-name="Lcommaaccent" unicode="&#x13b;" horiz-adv-x="582" 
d="M262 -70h121l-75 -150h-93zM89 740h119v-647h360v-93h-479v740z" />
    <glyph glyph-name="Lcommaaccent.sc" horiz-adv-x="534" 
d="M84 577h115v-489h317v-88h-432v577zM233 -55h116l-68 -117h-88z" />
    <glyph glyph-name="Ldot" unicode="&#x13f;" horiz-adv-x="591" 
d="M89 740h119v-647h360v-93h-479v740zM483 315q-37 0 -54 16.5t-17 52.5t17 52.5t54 16.5q36 0 53.5 -16.5t17.5 -52.5q0 -69 -71 -69z" />
    <glyph glyph-name="periodcentered" unicode="&#xb7;" horiz-adv-x="264" 
d="M132 301q-37 0 -54 16.5t-17 52.5t17 52.5t54 16.5q36 0 53.5 -16.5t17.5 -52.5q0 -69 -71 -69z" />
    <glyph glyph-name="Ldot.sc" horiz-adv-x="542" 
d="M84 577h115v-489h317v-88h-432v577zM440 241q-34 0 -50 15t-16 48t16 48t50 15q35 0 50.5 -15.5t15.5 -47.5t-15.5 -47.5t-50.5 -15.5z" />
    <glyph glyph-name="Lslash" unicode="&#x141;" horiz-adv-x="603" 
d="M15 318l94 50v372h119v-308l170 92v-91l-170 -93v-247h360v-93h-479v276l-94 -51v93z" />
    <glyph glyph-name="Lslash.sc" horiz-adv-x="552" 
d="M21 261l81 40v276h113v-233l149 74v-84l-149 -74v-172h318v-88h-431v216l-81 -40v85z" />
    <glyph glyph-name="M" unicode="M" horiz-adv-x="995" 
d="M89 740h162l176 -408l67 -174h7l67 174l176 408h162v-740h-107v605h-7l-93 -239l-151 -337h-101l-151 337l-94 239h-6v-605h-107v740z" />
    <glyph glyph-name="M.sc" horiz-adv-x="899" 
d="M84 577h149l152 -296l60 -134h8l61 134l152 296h148v-577h-102v455h-6l-87 -192l-123 -241h-93l-124 241l-86 192h-6v-455h-103v577z" />
    <glyph glyph-name="N" unicode="N" horiz-adv-x="833" 
d="M89 740h97l382 -480l64 -89h7v569h106v-740h-98l-380 478l-65 90h-7v-568h-106v740z" />
    <glyph glyph-name="N.sc" horiz-adv-x="742" 
d="M84 577h89l317 -352l59 -69h6v421h103v-577h-90l-314 348l-61 72h-6v-420h-103v577z" />
    <glyph glyph-name="A" unicode="A" horiz-adv-x="742" 
d="M5 8l276 732h180l276 -732v-8h-118l-77 205h-343l-76 -205h-118v8zM510 302l-82 215l-52 142h-11l-51 -143l-82 -214h278z" />
    <glyph glyph-name="Nacute" unicode="&#x143;" horiz-adv-x="833" 
d="M353 813l72 150h121l-105 -158zM89 740h97l382 -480l64 -89h7v569h106v-740h-98l-380 478l-65 90h-7v-568h-106v740z" />
    <glyph glyph-name="Nacute.sc" horiz-adv-x="742" 
d="M84 577h89l317 -352l59 -69h6v421h103v-577h-90l-314 348l-61 72h-6v-420h-103v577zM312 636l61 124h116l-94 -131z" />
    <glyph glyph-name="Ncaron" unicode="&#x147;" horiz-adv-x="833" 
d="M231 973l187 -77l186 77v-88l-188 -76l-185 76v88zM89 740h97l382 -480l64 -89h7v569h106v-740h-98l-380 478l-65 90h-7v-568h-106v740z" />
    <glyph glyph-name="Ncaron.sc" horiz-adv-x="742" 
d="M84 577h89l317 -352l59 -69h6v421h103v-577h-90l-314 348l-61 72h-6v-420h-103v577zM203 691v78l169 -60l169 60v-78l-171 -61z" />
    <glyph glyph-name="Ncommaaccent" unicode="&#x145;" horiz-adv-x="833" 
d="M368 -70h121l-75 -150h-93zM89 740h97l382 -480l64 -89h7v569h106v-740h-98l-380 478l-65 90h-7v-568h-106v740z" />
    <glyph glyph-name="Ncommaaccent.sc" horiz-adv-x="742" 
d="M84 577h89l317 -352l59 -69h6v421h103v-577h-90l-314 348l-61 72h-6v-420h-103v577zM322 -55h117l-69 -117h-87z" />
    <glyph glyph-name="Ndotaccent" unicode="&#x1e44;" horiz-adv-x="833" 
d="M418 814q-36 0 -53.5 16t-17.5 52q0 37 17.5 53.5t53.5 16.5q71 0 71 -70q0 -68 -71 -68zM89 740h97l382 -480l64 -89h7v569h106v-740h-98l-380 478l-65 90h-7v-568h-106v740z" />
    <glyph glyph-name="Ndotaccent.sc" horiz-adv-x="742" 
d="M84 577h89l317 -352l59 -69h6v421h103v-577h-90l-314 348l-61 72h-6v-420h-103v577zM373 632q-35 0 -50.5 14.5t-15.5 48.5q0 33 15.5 48t50.5 15q66 0 66 -63t-66 -63z" />
    <glyph glyph-name="Ntilde" unicode="&#xd1;" horiz-adv-x="833" 
d="M197 865q32 46 70 68t74 22q26 0 49.5 -6.5t46.5 -14t46 -13.5t48 -6q26 0 49.5 8.5t51.5 29.5l23 -31q-31 -45 -71 -67.5t-78 -22.5q-24 0 -47.5 6t-47 13.5t-47 13.5t-46.5 6q-24 0 -47.5 -7.5t-49.5 -28.5zM89 740h97l382 -480l64 -89h7v569h106v-740h-98l-380 478
l-65 90h-7v-568h-106v740z" />
    <glyph glyph-name="Ntilde.sc" horiz-adv-x="742" 
d="M173 675q29 41 63.5 61t67.5 20q23 0 44.5 -4.5t42.5 -10.5t41.5 -10.5t43.5 -4.5q22 0 43 6t46 22l20 -25q-29 -40 -64.5 -60.5t-69.5 -20.5q-22 0 -43.5 5t-43 10.5t-42.5 10.5t-42 5q-22 0 -42.5 -6t-43.5 -23zM84 577h89l317 -352l59 -69h6v421h103v-577h-90
l-314 348l-61 72h-6v-420h-103v577z" />
    <glyph glyph-name="O" unicode="O" horiz-adv-x="805" 
d="M403 -10q-170 0 -261.5 96.5t-91.5 282.5t91.5 283.5t261.5 97.5q168 0 260 -97.5t92 -283.5t-92 -282.5t-260 -96.5zM403 88q118 0 174.5 68t56.5 213q0 146 -57 214.5t-174 68.5q-118 0 -174.5 -68t-56.5 -215q0 -145 56.5 -213t174.5 -68z" />
    <glyph glyph-name="O.sc" horiz-adv-x="729" 
d="M365 -8q-152 0 -234 75t-82 221q0 145 82 221t234 76q150 0 232 -76t82 -221t-82 -220.5t-232 -75.5zM365 83q105 0 152 49.5t47 155.5t-47.5 156t-151.5 50q-105 0 -152 -50t-47 -156q0 -107 46.5 -156t152.5 -49z" />
    <glyph glyph-name="OE" unicode="&#x152;" horiz-adv-x="1084" 
d="M405 -10q-170 0 -263 97t-93 282q0 93 24 164t69.5 119t111.5 73t151 25q34 0 61.5 -2t54.5 -8h502v-94h-383v-224h356v-95h-356v-233h392v-94h-511q-27 -5 -55.5 -7.5t-60.5 -2.5zM405 88q35 0 63.5 1.5t52.5 8.5v544q-25 6 -53 8t-63 2q-119 0 -176.5 -68t-57.5 -215
q0 -145 57.5 -213t176.5 -68z" />
    <glyph glyph-name="OE.sc" horiz-adv-x="983" 
d="M366 -8q-152 0 -234 75t-82 221q0 145 82 221t234 76q32 0 56 -1.5t49 -6.5h454v-86h-340v-161h315v-75h-315v-169h347v-86h-461q-24 -4 -50 -6t-55 -2zM366 83q32 0 57.5 1.5t47.5 6.5v395q-22 5 -47 6.5t-58 1.5q-102 0 -151 -48.5t-49 -157.5q0 -110 48.5 -157.5
t151.5 -47.5z" />
    <glyph glyph-name="Oacute" unicode="&#xd3;" horiz-adv-x="805" 
d="M353 813l72 150h121l-105 -158zM403 -10q-170 0 -261.5 96.5t-91.5 282.5t91.5 283.5t261.5 97.5q168 0 260 -97.5t92 -283.5t-92 -282.5t-260 -96.5zM403 88q118 0 174.5 68t56.5 213q0 146 -57 214.5t-174 68.5q-118 0 -174.5 -68t-56.5 -215q0 -145 56.5 -213
t174.5 -68z" />
    <glyph glyph-name="Oacute.sc" horiz-adv-x="729" 
d="M365 -8q-151 0 -233 75t-82 221q0 145 81.5 221t233.5 76q150 0 232.5 -76t82.5 -221t-82.5 -220.5t-232.5 -75.5zM365 83q105 0 152 49.5t47 155.5t-47.5 156t-151.5 50q-105 0 -152 -50t-47 -156q0 -107 47 -156t152 -49zM319 636l61 124h116l-94 -131z" />
    <glyph glyph-name="Obreve" unicode="&#x14e;" horiz-adv-x="805" 
d="M400 814q-54 0 -92 11.5t-63 32.5t-36.5 50t-11.5 64h83q0 -44 29 -69t91 -25q63 0 92 25t29 69h83q0 -70 -48.5 -114t-155.5 -44zM403 -10q-170 0 -261.5 96.5t-91.5 282.5t91.5 283.5t261.5 97.5q168 0 260 -97.5t92 -283.5t-92 -282.5t-260 -96.5zM403 88
q118 0 174.5 68t56.5 213q0 146 -57 214.5t-174 68.5q-118 0 -174.5 -68t-56.5 -215q0 -145 56.5 -213t174.5 -68z" />
    <glyph glyph-name="Obreve.sc" horiz-adv-x="729" 
d="M365 -8q-151 0 -233 75t-82 221q0 145 81.5 221t233.5 76q150 0 232.5 -76t82.5 -221t-82.5 -220.5t-232.5 -75.5zM365 83q105 0 152 49.5t47 155.5t-47.5 156t-151.5 50q-105 0 -152 -50t-47 -156q0 -107 47 -156t152 -49zM364 635q-90 0 -137.5 34t-47.5 97h78
q0 -73 107 -73q105 0 105 73h77q0 -64 -46.5 -97.5t-135.5 -33.5z" />
    <glyph glyph-name="Ocircumflex" unicode="&#xd4;" horiz-adv-x="805" 
d="M403 -10q-170 0 -261.5 96.5t-91.5 282.5t91.5 283.5t261.5 97.5q168 0 260 -97.5t92 -283.5t-92 -282.5t-260 -96.5zM403 88q118 0 174.5 68t56.5 213q0 146 -57 214.5t-174 68.5q-118 0 -174.5 -68t-56.5 -215q0 -145 56.5 -213t174.5 -68zM214 896l186 77l188 -77v-87
l-187 76l-187 -76v87z" />
    <glyph glyph-name="Ocircumflex.sc" horiz-adv-x="729" 
d="M365 -8q-151 0 -233 75t-82 221q0 145 81.5 221t233.5 76q150 0 232.5 -76t82.5 -221t-82.5 -220.5t-232.5 -75.5zM365 83q105 0 152 49.5t47 155.5t-47.5 156t-151.5 50q-105 0 -152 -50t-47 -156q0 -107 47 -156t152 -49zM195 708l167 61l170 -61v-78l-168 60l-169 -60
v78z" />
    <glyph glyph-name="Odblgrave" unicode="&#x20c;" horiz-adv-x="805" 
d="M403 -10q-170 0 -261.5 96.5t-91.5 282.5t91.5 283.5t261.5 97.5q168 0 260 -97.5t92 -283.5t-92 -282.5t-260 -96.5zM403 88q118 0 174.5 68t56.5 213q0 146 -57 214.5t-174 68.5q-118 0 -174.5 -68t-56.5 -215q0 -145 56.5 -213t174.5 -68zM267 800l-105 157h120
l71 -145zM447 800l-106 157h120l72 -145z" />
    <glyph glyph-name="Odblgrave.sc" horiz-adv-x="729" 
d="M365 -8q-151 0 -233 75t-82 221q0 145 81.5 221t233.5 76q150 0 232.5 -76t82.5 -221t-82.5 -220.5t-232.5 -75.5zM365 83q105 0 152 49.5t47 155.5t-47.5 156t-151.5 50q-105 0 -152 -50t-47 -156q0 -107 47 -156t152 -49zM238 626l-94 130h116l61 -121zM403 626
l-95 130h115l62 -121z" />
    <glyph glyph-name="Odieresis" unicode="&#xd6;" horiz-adv-x="805" 
d="M253 817q-36 0 -53 16.5t-17 52.5t17 52.5t53 16.5q71 0 71 -69t-71 -69zM543 817q-37 0 -54 16.5t-17 52.5t17 52.5t54 16.5q70 0 70 -69t-70 -69zM403 -10q-170 0 -261.5 96.5t-91.5 282.5t91.5 283.5t261.5 97.5q168 0 260 -97.5t92 -283.5t-92 -282.5t-260 -96.5z
M403 88q118 0 174.5 68t56.5 213q0 146 -57 214.5t-174 68.5q-118 0 -174.5 -68t-56.5 -215q0 -145 56.5 -213t174.5 -68z" />
    <glyph glyph-name="Odieresis.sc" horiz-adv-x="729" 
d="M365 -8q-151 0 -233 75t-82 221q0 145 81.5 221t233.5 76q150 0 232.5 -76t82.5 -221t-82.5 -220.5t-232.5 -75.5zM365 83q105 0 152 49.5t47 155.5t-47.5 156t-151.5 50q-105 0 -152 -50t-47 -156q0 -107 47 -156t152 -49zM231 634q-34 0 -50 14.5t-16 48.5q0 33 16 48
t50 15q32 0 49 -15t17 -48q0 -34 -16.5 -48.5t-49.5 -14.5zM489 634q-34 0 -49.5 14.5t-15.5 48.5q0 33 16 48t49 15t49.5 -15t16.5 -48q0 -34 -16 -48.5t-50 -14.5z" />
    <glyph glyph-name="Odotbelow" unicode="&#x1ecc;" horiz-adv-x="805" 
d="M404 -191q-30 0 -45 13.5t-15 44.5q0 59 60 59q61 0 61 -59q0 -31 -14.5 -44.5t-46.5 -13.5zM403 -10q-170 0 -261.5 96.5t-91.5 282.5t91.5 283.5t261.5 97.5q168 0 260 -97.5t92 -283.5t-92 -282.5t-260 -96.5zM403 88q118 0 174.5 68t56.5 213q0 146 -57 214.5
t-174 68.5q-118 0 -174.5 -68t-56.5 -215q0 -145 56.5 -213t174.5 -68z" />
    <glyph glyph-name="Odotbelow.sc" horiz-adv-x="729" 
d="M365 -8q-152 0 -234 75.5t-82 220.5t82 221t234 76q150 0 232 -76t82 -221t-82 -220.5t-232 -75.5zM365 83q103 0 151 48t48 157t-49 157.5t-150 48.5q-102 0 -150.5 -48.5t-48.5 -157.5t48 -157t151 -48zM366 -155q-54 0 -54 51q0 52 54 52q56 0 56 -52q0 -51 -56 -51z
" />
    <glyph glyph-name="Ograve" unicode="&#xd2;" horiz-adv-x="805" 
d="M353 805l-105 158h122l71 -145zM403 -10q-170 0 -261.5 96.5t-91.5 282.5t91.5 283.5t261.5 97.5q168 0 260 -97.5t92 -283.5t-92 -282.5t-260 -96.5zM403 88q118 0 174.5 68t56.5 213q0 146 -57 214.5t-174 68.5q-118 0 -174.5 -68t-56.5 -215q0 -145 56.5 -213
t174.5 -68z" />
    <glyph glyph-name="Ograve.sc" horiz-adv-x="729" 
d="M365 -8q-152 0 -234 75.5t-82 220.5t82 221t234 76q150 0 232 -76t82 -221t-82 -220.5t-232 -75.5zM365 83q103 0 151 48t48 157t-49 157.5t-150 48.5q-102 0 -150.5 -48.5t-48.5 -157.5t48 -157t151 -48zM317 629l-95 131h116l62 -121z" />
    <glyph glyph-name="Ohungarumlaut" unicode="&#x150;" horiz-adv-x="805" 
d="M403 -10q-170 0 -261.5 96.5t-91.5 282.5t91.5 283.5t261.5 97.5q168 0 260 -97.5t92 -283.5t-92 -282.5t-260 -96.5zM403 88q118 0 174.5 68t56.5 213q0 146 -57 214.5t-174 68.5q-118 0 -174.5 -68t-56.5 -215q0 -145 56.5 -213t174.5 -68zM256 812l70 145h120
l-105 -157zM435 812l72 145h120l-105 -157z" />
    <glyph glyph-name="hungarumlaut.cap" horiz-adv-x="577" 
d="M136 812l70 145h120l-105 -157zM315 812l72 145h120l-105 -157z" />
    <glyph glyph-name="Ohungarumlaut.sc" horiz-adv-x="729" 
d="M365 -8q-152 0 -234 75.5t-82 220.5t82 221t234 76q150 0 232 -76t82 -221t-82 -220.5t-232 -75.5zM365 83q103 0 151 48t48 157t-49 157.5t-150 48.5q-102 0 -150.5 -48.5t-48.5 -157.5t48 -157t151 -48zM227 635l62 121h115l-95 -130zM391 635l62 121h114l-93 -130z
" />
    <glyph glyph-name="Oinvertedbreve" unicode="&#x20e;" horiz-adv-x="805" 
d="M403 -10q-170 0 -261.5 96.5t-91.5 282.5t91.5 283.5t261.5 97.5q168 0 260 -97.5t92 -283.5t-92 -282.5t-260 -96.5zM403 88q118 0 174.5 68t56.5 213q0 146 -57 214.5t-174 68.5q-118 0 -174.5 -68t-56.5 -215q0 -145 56.5 -213t174.5 -68zM522 819q0 44 -29 68.5
t-92 24.5t-92 -24.5t-29 -68.5h-83q0 69 48.5 113t155.5 44t155.5 -43.5t48.5 -113.5h-83z" />
    <glyph glyph-name="Oinvertedbreve.sc" horiz-adv-x="729" 
d="M365 -8q-152 0 -234 75.5t-82 220.5t82 221t234 76q150 0 232 -76t82 -221t-82 -220.5t-232 -75.5zM365 83q103 0 151 48t48 157t-49 157.5t-150 48.5q-102 0 -150.5 -48.5t-48.5 -157.5t48 -157t151 -48zM469 639q0 34 -25 53t-80 19q-57 0 -82 -19t-25 -53h-78
q0 28 10.5 52t32.5 41.5t57 27.5t85 10q49 0 83.5 -10t56.5 -27t32 -41.5t10 -52.5h-77z" />
    <glyph glyph-name="Omacron" unicode="&#x14c;" horiz-adv-x="805" 
d="M218 925h369v-83h-369v83zM403 -10q-170 0 -261.5 96.5t-91.5 282.5t91.5 283.5t261.5 97.5q168 0 260 -97.5t92 -283.5t-92 -282.5t-260 -96.5zM403 88q118 0 174.5 68t56.5 213q0 146 -57 214.5t-174 68.5q-118 0 -174.5 -68t-56.5 -215q0 -145 56.5 -213t174.5 -68z
" />
    <glyph glyph-name="Omacron.sc" horiz-adv-x="729" 
d="M365 -8q-152 0 -234 75.5t-82 220.5t82 221t234 76q150 0 232 -76t82 -221t-82 -220.5t-232 -75.5zM365 83q103 0 151 48t48 157t-49 157.5t-150 48.5q-102 0 -150.5 -48.5t-48.5 -157.5t48 -157t151 -48zM197 733h334v-76h-334v76z" />
    <glyph glyph-name="Omega" unicode="&#x2126;" horiz-adv-x="817" 
d="M54 88l200 -6q-90 55 -139.5 141t-49.5 192q0 76 24.5 137.5t69.5 105.5t108.5 68t141.5 24t141.5 -24t108.5 -68t69.5 -105.5t24.5 -137.5q0 -106 -50 -192t-141 -141l202 6v-88h-300v74q91 59 135 138.5t44 189.5q0 57 -16.5 103.5t-47 79t-73.5 50t-97 17.5t-97 -17.5
t-73 -50t-46 -79t-16 -103.5q0 -74 20.5 -129.5t48.5 -95.5t58 -65t49 -38v-74h-299v88z" />
    <glyph glyph-name="Oogonek" unicode="&#x1ea;" horiz-adv-x="805" 
d="M399 -208q-122 0 -122 85q0 32 17.5 59.5t58.5 55.5q-146 14 -224.5 109.5t-78.5 267.5q0 186 91.5 283.5t261.5 97.5q168 0 260 -97.5t92 -283.5q0 -163 -71.5 -257.5t-202.5 -115.5q-67 -32 -95.5 -57t-28.5 -51q0 -30 41 -30q14 0 37.5 3.5t44.5 8.5v-66
q-16 -6 -37 -9t-44 -3zM403 88q118 0 174.5 68t56.5 213q0 146 -57 214.5t-174 68.5q-118 0 -174.5 -68t-56.5 -215q0 -145 56.5 -213t174.5 -68z" />
    <glyph glyph-name="Oogonek.sc" horiz-adv-x="729" 
d="M362 -163q-54 0 -82.5 17.5t-28.5 50.5q0 50 66 90q-128 10 -197.5 84.5t-69.5 208.5q0 145 81.5 221t233.5 76q150 0 232.5 -76t82.5 -221q0 -71 -19 -122.5t-52 -86.5t-77.5 -55t-95.5 -26q-62 -24 -85.5 -40.5t-23.5 -35.5q0 -15 9 -19.5t26 -4.5q15 0 37 3t38 6v-61
q-17 -5 -36 -7t-39 -2zM365 83q103 0 151 48t48 157t-48.5 157.5t-150.5 48.5t-150.5 -48.5t-48.5 -157.5t48 -157t151 -48z" />
    <glyph glyph-name="Oslash" unicode="&#xd8;" horiz-adv-x="805" 
d="M127 105q-38 48 -57.5 113.5t-19.5 150.5q0 186 91.5 283.5t261.5 97.5q136 0 222 -65l47 55h94l-89 -104q78 -98 78 -267q0 -186 -91.5 -282.5t-260.5 -96.5q-137 0 -225 65l-47 -55h-94zM403 88q118 0 175 68t57 213q0 110 -35 178l-352 -411q57 -48 155 -48zM172 369
q0 -110 32 -174l351 409q-56 48 -152 48q-118 0 -174.5 -68t-56.5 -215z" />
    <glyph glyph-name="Oslash.sc" horiz-adv-x="729" 
d="M118 82q-68 74 -68 206q0 145 81.5 221t233.5 76q119 0 196 -51l41 43h87l-79 -80q70 -76 70 -209q0 -145 -82 -220.5t-233 -75.5q-122 0 -198 52l-41 -44h-88zM365 83q103 0 151 48t48 157q0 82 -35 132l-284 -303q48 -34 120 -34zM166 288q0 -80 33 -130l284 302
q-46 34 -118 34q-101 0 -150 -48.5t-49 -157.5z" />
    <glyph glyph-name="Oslashacute" unicode="&#x1fe;" horiz-adv-x="805" 
d="M127 105q-38 48 -57.5 113.5t-19.5 150.5q0 186 91.5 283.5t261.5 97.5q136 0 222 -65l47 55h94l-89 -104q78 -98 78 -267q0 -186 -91.5 -282.5t-260.5 -96.5q-137 0 -225 65l-47 -55h-94zM403 88q118 0 175 68t57 213q0 110 -35 178l-352 -411q57 -48 155 -48zM172 369
q0 -110 32 -174l351 409q-56 48 -152 48q-118 0 -174.5 -68t-56.5 -215zM350 813l72 150h121l-105 -158z" />
    <glyph glyph-name="Oslashacute.sc" horiz-adv-x="729" 
d="M118 82q-68 74 -68 206q0 145 81.5 221t233.5 76q119 0 196 -51l41 43h87l-79 -80q70 -76 70 -209q0 -145 -82 -220.5t-233 -75.5q-122 0 -198 52l-41 -44h-88zM365 83q103 0 151 48t48 157q0 82 -35 132l-284 -303q48 -34 120 -34zM315 636l61 124h117l-94 -131z
M166 288q0 -80 33 -130l284 302q-46 34 -118 34q-101 0 -150 -48.5t-49 -157.5z" />
    <glyph glyph-name="Otilde" unicode="&#xd5;" horiz-adv-x="805" 
d="M182 865q32 46 70 68t74 22q26 0 49.5 -6.5t46.5 -14t46 -13.5t48 -6q26 0 49.5 8.5t51.5 29.5l23 -31q-31 -45 -71 -67.5t-78 -22.5q-24 0 -47.5 6t-47 13.5t-47 13.5t-46.5 6q-24 0 -47.5 -7.5t-49.5 -28.5zM403 -10q-170 0 -261.5 96.5t-91.5 282.5t91.5 283.5
t261.5 97.5q168 0 260 -97.5t92 -283.5t-92 -282.5t-260 -96.5zM403 88q118 0 174.5 68t56.5 213q0 146 -57 214.5t-174 68.5q-118 0 -174.5 -68t-56.5 -215q0 -145 56.5 -213t174.5 -68z" />
    <glyph glyph-name="Otilde.sc" horiz-adv-x="729" 
d="M365 -8q-152 0 -234 75.5t-82 220.5t82 221t234 76q150 0 232 -76t82 -221t-82 -220.5t-232 -75.5zM365 83q103 0 151 48t48 157t-49 157.5t-150 48.5q-102 0 -150.5 -48.5t-48.5 -157.5t48 -157t151 -48zM164 675q30 41 64.5 61t66.5 20q24 0 45 -4.5t42 -10.5t42 -10.5
t44 -4.5q22 0 42.5 6t46.5 22l20 -25q-29 -40 -64.5 -60.5t-70.5 -20.5q-21 0 -42.5 5t-42.5 10.5t-42.5 10.5t-42.5 5t-42 -6t-44 -23z" />
    <glyph glyph-name="P" unicode="P" horiz-adv-x="701" 
d="M89 735q109 15 206 15q98 0 168.5 -15t116 -47t67 -81.5t21.5 -118.5q0 -134 -89 -198t-276 -64q-21 0 -44 1t-51 3v-230h-119v735zM321 321q63 0 106 9t69.5 29t38.5 51.5t12 77.5q0 45 -12 76.5t-39 52t-70.5 29.5t-105.5 9q-29 0 -60.5 -2t-51.5 -5v-317q8 -2 21 -3.5
t28.5 -3t32 -2.5t31.5 -1z" />
    <glyph glyph-name="P.sc" horiz-adv-x="639" 
d="M84 573q99 12 186 12q175 0 254.5 -49.5t79.5 -157.5q0 -104 -80.5 -154t-246.5 -50q-14 0 -35 1t-44 3v-178h-114v573zM300 257q52 0 88 6.5t58.5 20.5t32 37.5t9.5 56.5q0 64 -43.5 92t-149.5 28q-22 0 -48 -1.5t-49 -4.5v-228q16 -3 45 -5t57 -2z" />
    <glyph glyph-name="Q" unicode="Q" horiz-adv-x="803" 
d="M719 -136q-194 36 -323.5 78.5t-207 101t-109.5 137.5t-32 188q0 90 24 161t69.5 119.5t111 74.5t149.5 26t149.5 -25.5t111 -74.5t69.5 -120t24 -161q0 -83 -20.5 -148t-59.5 -110t-95.5 -68.5t-127.5 -23.5h-11t-12 1v-8q57 -11 98.5 -19t75.5 -13t64.5 -8.5t66.5 -6.5
zM401 88q232 0 232 281q0 283 -232 283t-232 -283q0 -281 232 -281z" />
    <glyph glyph-name="Q.sc" horiz-adv-x="728" 
d="M648 -118q-171 30 -285.5 65t-184.5 82.5t-99.5 110t-29.5 148.5q0 70 21.5 125t62 93t99 58.5t133.5 20.5q74 0 132.5 -20.5t99 -58.5t62 -93t21.5 -125q0 -266 -288 -266v-6q54 -9 91 -15.5t66.5 -10.5t55 -7t55.5 -5zM365 84q103 0 151 50.5t48 153.5t-48.5 154.5
t-150.5 51.5q-200 0 -200 -206q0 -204 200 -204z" />
    <glyph glyph-name="R" unicode="R" horiz-adv-x="721" 
d="M394 266q-21 -2 -44 -3t-47 -1q-17 0 -44 2t-51 4v-268h-119v735q109 15 206 15q98 0 168.5 -14t116 -43.5t67 -75.5t21.5 -110q0 -169 -166 -221l197 -286h-135zM321 357q62 0 105 8t70 26t39 46.5t12 69.5q0 40 -12.5 68t-39.5 46t-70.5 26t-104.5 8q-28 0 -60 -2
t-52 -5v-282q13 -4 44 -6.5t69 -2.5z" />
    <glyph glyph-name="R.sc" horiz-adv-x="658" 
d="M358 202q-17 -2 -34.5 -3t-36.5 -1q-20 0 -41.5 2t-47.5 5v-205h-114v573q102 12 186 12q175 0 254.5 -46t79.5 -148q0 -66 -34.5 -107.5t-106.5 -62.5l170 -221h-132zM294 281q55 0 92.5 5.5t60.5 18.5t33 33.5t10 50.5q0 60 -45 85.5t-150 25.5q-23 0 -51.5 -1.5
t-45.5 -4.5v-207q4 -2 15 -3t24.5 -1.5t28.5 -1t28 -0.5z" />
    <glyph glyph-name="Racute" unicode="&#x154;" horiz-adv-x="721" 
d="M394 266q-21 -2 -44 -3t-47 -1q-17 0 -44 2t-51 4v-268h-119v735q109 15 206 15q98 0 168.5 -14t116 -43.5t67 -75.5t21.5 -110q0 -169 -166 -221l197 -286h-135zM321 357q62 0 105 8t70 26t39 46.5t12 69.5q0 40 -12.5 68t-39.5 46t-70.5 26t-104.5 8q-28 0 -60 -2
t-52 -5v-282q13 -4 44 -6.5t69 -2.5zM304 813l72 150h121l-105 -158z" />
    <glyph glyph-name="Racute.sc" horiz-adv-x="658" 
d="M84 573q102 12 186 12q175 0 254.5 -46t79.5 -148q0 -66 -34.5 -107.5t-106.5 -62.5l170 -221h-132l-143 202q-17 -2 -34.5 -3t-36.5 -1q-20 0 -41.5 2t-47.5 5v-205h-114v573zM294 281q55 0 92.5 5.5t60.5 18.5t33 33.5t10 50.5q0 60 -45 85.5t-150 25.5
q-23 0 -51.5 -1.5t-45.5 -4.5v-207q4 -2 15 -3t24.5 -1.5t28.5 -1t28 -0.5zM274 636l62 124h116l-94 -131z" />
    <glyph glyph-name="Rcaron" unicode="&#x158;" horiz-adv-x="721" 
d="M170 973l187 -77l186 77v-88l-188 -76l-185 76v88zM394 266q-21 -2 -44 -3t-47 -1q-17 0 -44 2t-51 4v-268h-119v735q109 15 206 15q98 0 168.5 -14t116 -43.5t67 -75.5t21.5 -110q0 -169 -166 -221l197 -286h-135zM321 357q62 0 105 8t70 26t39 46.5t12 69.5
q0 40 -12.5 68t-39.5 46t-70.5 26t-104.5 8q-28 0 -60 -2t-52 -5v-282q13 -4 44 -6.5t69 -2.5z" />
    <glyph glyph-name="Rcaron.sc" horiz-adv-x="658" 
d="M84 573q102 12 186 12q175 0 254.5 -46t79.5 -148q0 -66 -34.5 -107.5t-106.5 -62.5l170 -221h-132l-143 202q-17 -2 -34.5 -3t-36.5 -1q-20 0 -41.5 2t-47.5 5v-205h-114v573zM294 281q55 0 92.5 5.5t60.5 18.5t33 33.5t10 50.5q0 60 -45 85.5t-150 25.5
q-23 0 -51.5 -1.5t-45.5 -4.5v-207q4 -2 15 -3t24.5 -1.5t28.5 -1t28 -0.5zM155 691v78l169 -60l169 60v-78l-170 -61z" />
    <glyph glyph-name="Rcommaaccent" unicode="&#x156;" horiz-adv-x="721" 
d="M313 -70h121l-75 -150h-93zM394 266q-21 -2 -44 -3t-47 -1q-17 0 -44 2t-51 4v-268h-119v735q109 15 206 15q98 0 168.5 -14t116 -43.5t67 -75.5t21.5 -110q0 -169 -166 -221l197 -286h-135zM321 357q62 0 105 8t70 26t39 46.5t12 69.5q0 40 -12.5 68t-39.5 46t-70.5 26
t-104.5 8q-28 0 -60 -2t-52 -5v-282q13 -4 44 -6.5t69 -2.5z" />
    <glyph glyph-name="Rcommaaccent.sc" horiz-adv-x="658" 
d="M358 202q-17 -2 -34.5 -3t-36.5 -1q-20 0 -41.5 2t-47.5 5v-205h-114v573q102 12 186 12q175 0 254.5 -46t79.5 -148q0 -66 -34.5 -107.5t-106.5 -62.5l170 -221h-132zM281 -55h117l-69 -117h-88zM294 281q55 0 92.5 5.5t60.5 18.5t33 33.5t10 50.5q0 60 -45 85.5
t-150 25.5q-23 0 -51.5 -1.5t-45.5 -4.5v-207q4 -2 15 -3t24.5 -1.5t28.5 -1t28 -0.5z" />
    <glyph glyph-name="Rdblgrave" unicode="&#x210;" horiz-adv-x="721" 
d="M394 266q-21 -2 -44 -3t-47 -1q-17 0 -44 2t-51 4v-268h-119v735q109 15 206 15q98 0 168.5 -14t116 -43.5t67 -75.5t21.5 -110q0 -169 -166 -221l197 -286h-135zM321 357q62 0 105 8t70 26t39 46.5t12 69.5q0 40 -12.5 68t-39.5 46t-70.5 26t-104.5 8q-28 0 -60 -2
t-52 -5v-282q13 -4 44 -6.5t69 -2.5zM227 800l-105 157h120l71 -145zM407 800l-106 157h120l72 -145z" />
    <glyph glyph-name="Rdblgrave.sc" horiz-adv-x="658" 
d="M84 573q102 12 186 12q175 0 254.5 -46t79.5 -148q0 -66 -34.5 -107.5t-106.5 -62.5l170 -221h-132l-143 202q-17 -2 -34.5 -3t-36.5 -1q-20 0 -41.5 2t-47.5 5v-205h-114v573zM294 281q55 0 92.5 5.5t60.5 18.5t33 33.5t10 50.5q0 60 -45 85.5t-150 25.5
q-23 0 -51.5 -1.5t-45.5 -4.5v-207q4 -2 15 -3t24.5 -1.5t28.5 -1t28 -0.5zM116 756h115l62 -121l-83 -9zM281 756h114l62 -121l-83 -9z" />
    <glyph glyph-name="Rdotbelow" unicode="&#x1e5a;" horiz-adv-x="721" 
d="M394 266q-21 -2 -44 -3t-47 -1q-17 0 -44 2t-51 4v-268h-119v735q109 15 206 15q98 0 168.5 -14t116 -43.5t67 -75.5t21.5 -110q0 -169 -166 -221l197 -286h-135zM321 357q62 0 105 8t70 26t39 46.5t12 69.5q0 40 -12.5 68t-39.5 46t-70.5 26t-104.5 8q-28 0 -60 -2
t-52 -5v-282q13 -4 44 -6.5t69 -2.5zM354 -191q-30 0 -45 13.5t-15 44.5q0 59 60 59q61 0 61 -59q0 -31 -14.5 -44.5t-46.5 -13.5z" />
    <glyph glyph-name="Rdotbelow.sc" horiz-adv-x="658" 
d="M84 573q102 12 186 12q175 0 254.5 -46t79.5 -148q0 -66 -34.5 -107.5t-106.5 -62.5l170 -221h-132l-143 202q-17 -2 -34.5 -3t-36.5 -1q-20 0 -41.5 2t-47.5 5v-205h-114v573zM294 281q55 0 92.5 5.5t60.5 18.5t33 33.5t10 50.5q0 60 -45 85.5t-150 25.5
q-23 0 -51.5 -1.5t-45.5 -4.5v-207q4 -2 15 -3t24.5 -1.5t28.5 -1t28 -0.5zM320 -155q-54 0 -54 51q0 52 54 52q30 0 43 -12.5t13 -39.5q0 -26 -13 -38.5t-43 -12.5z" />
    <glyph glyph-name="Rinvertedbreve" unicode="&#x212;" horiz-adv-x="721" 
d="M394 266q-21 -2 -44 -3t-47 -1q-17 0 -44 2t-51 4v-268h-119v735q109 15 206 15q98 0 168.5 -14t116 -43.5t67 -75.5t21.5 -110q0 -169 -166 -221l197 -286h-135zM321 357q62 0 105 8t70 26t39 46.5t12 69.5q0 40 -12.5 68t-39.5 46t-70.5 26t-104.5 8q-28 0 -60 -2
t-52 -5v-282q13 -4 44 -6.5t69 -2.5zM478 819q0 44 -29 68.5t-92 24.5t-92 -24.5t-29 -68.5h-83q0 69 48.5 113t155.5 44t155.5 -43.5t48.5 -113.5h-83z" />
    <glyph glyph-name="Rinvertedbreve.sc" horiz-adv-x="658" 
d="M84 573q102 12 186 12q175 0 254.5 -46t79.5 -148q0 -66 -34.5 -107.5t-106.5 -62.5l170 -221h-132l-143 202q-17 -2 -34.5 -3t-36.5 -1q-20 0 -41.5 2t-47.5 5v-205h-114v573zM141 639q0 28 10.5 52t32.5 41.5t57 27.5t85 10q98 0 140.5 -37t42.5 -94h-78q0 34 -24.5 53
t-80.5 19q-57 0 -82 -19t-25 -53h-78zM294 281q55 0 92.5 5.5t60.5 18.5t33 33.5t10 50.5q0 60 -45 85.5t-150 25.5q-23 0 -51.5 -1.5t-45.5 -4.5v-207q4 -2 15 -3t24.5 -1.5t28.5 -1t28 -0.5z" />
    <glyph glyph-name="S" unicode="S" horiz-adv-x="635" 
d="M304 -11q-27 0 -59 2t-66 6t-68.5 9.5t-66.5 12.5v98q151 -32 254 -32q175 0 175 107q0 32 -12.5 53.5t-35 36t-53 23.5t-66.5 16q-67 13 -114.5 32.5t-77.5 46.5t-44 63t-14 83q0 48 19.5 86.5t56.5 66t88.5 42t116.5 14.5q46 0 97.5 -6.5t122.5 -20.5v-98
q-50 14 -106 21.5t-102 7.5q-79 0 -123 -29.5t-44 -80.5q0 -26 8.5 -45t28 -34.5t51 -27.5t78.5 -23q55 -13 101 -29t79 -40.5t51.5 -60.5t18.5 -88q0 -105 -74 -158.5t-220 -53.5z" />
    <glyph glyph-name="S.sc" horiz-adv-x="583" 
d="M280 -9q-24 0 -52.5 1.5t-59.5 4.5t-62 7.5t-60 9.5v93q66 -12 123.5 -18.5t104.5 -6.5q72 0 111 19.5t39 56.5q0 22 -10.5 36.5t-29.5 24.5t-45 16.5t-57 12.5q-60 9 -103 23.5t-70 35t-39.5 48.5t-12.5 66q0 39 17.5 69.5t50.5 52.5t79.5 33.5t104.5 11.5q42 0 88 -5
t111 -17v-90q-45 11 -95 16.5t-92 5.5q-71 0 -108 -20.5t-37 -56.5q0 -35 33 -55t111 -35q49 -7 90 -19t71 -31.5t46.5 -48t16.5 -70.5q0 -85 -66.5 -128t-197.5 -43z" />
    <glyph glyph-name="Sacute" unicode="&#x15a;" horiz-adv-x="635" 
d="M304 -11q-27 0 -59 2t-66 6t-68.5 9.5t-66.5 12.5v98q151 -32 254 -32q175 0 175 107q0 32 -12.5 53.5t-35 36t-53 23.5t-66.5 16q-67 13 -114.5 32.5t-77.5 46.5t-44 63t-14 83q0 48 19.5 86.5t56.5 66t88.5 42t116.5 14.5q46 0 97.5 -6.5t122.5 -20.5v-98
q-50 14 -106 21.5t-102 7.5q-79 0 -123 -29.5t-44 -80.5q0 -26 8.5 -45t28 -34.5t51 -27.5t78.5 -23q55 -13 101 -29t79 -40.5t51.5 -60.5t18.5 -88q0 -105 -74 -158.5t-220 -53.5zM268 813l72 150h121l-105 -158z" />
    <glyph glyph-name="Sacute.sc" horiz-adv-x="583" 
d="M280 -9q-24 0 -52.5 1.5t-59.5 4.5t-62 7.5t-60 9.5v93q66 -12 123.5 -18.5t104.5 -6.5q72 0 111 19.5t39 56.5q0 22 -10.5 36.5t-29.5 24.5t-45 16.5t-57 12.5q-60 9 -103 23.5t-70 35t-39.5 48.5t-12.5 66q0 39 17.5 69.5t50.5 52.5t79.5 33.5t104.5 11.5q42 0 88 -5
t111 -17v-90q-45 11 -95 16.5t-92 5.5q-71 0 -108 -20.5t-37 -56.5q0 -35 33 -55t111 -35q49 -7 90 -19t71 -31.5t46.5 -48t16.5 -70.5q0 -85 -66.5 -128t-197.5 -43zM244 636l62 124h115l-93 -131z" />
    <glyph glyph-name="Scaron" unicode="&#x160;" horiz-adv-x="635" 
d="M304 -11q-27 0 -59 2t-66 6t-68.5 9.5t-66.5 12.5v98q151 -32 254 -32q175 0 175 107q0 32 -12.5 53.5t-35 36t-53 23.5t-66.5 16q-67 13 -114.5 32.5t-77.5 46.5t-44 63t-14 83q0 48 19.5 86.5t56.5 66t88.5 42t116.5 14.5q46 0 97.5 -6.5t122.5 -20.5v-98
q-50 14 -106 21.5t-102 7.5q-79 0 -123 -29.5t-44 -80.5q0 -26 8.5 -45t28 -34.5t51 -27.5t78.5 -23q55 -13 101 -29t79 -40.5t51.5 -60.5t18.5 -88q0 -105 -74 -158.5t-220 -53.5zM136 973l187 -77l186 77v-88l-188 -76l-185 76v88z" />
    <glyph glyph-name="Scaron.sc" horiz-adv-x="583" 
d="M280 -9q-24 0 -52.5 1.5t-59.5 4.5t-62 7.5t-60 9.5v93q66 -12 123.5 -18.5t104.5 -6.5q72 0 111 19.5t39 56.5q0 22 -10.5 36.5t-29.5 24.5t-45 16.5t-57 12.5q-60 9 -103 23.5t-70 35t-39.5 48.5t-12.5 66q0 39 17.5 69.5t50.5 52.5t79.5 33.5t104.5 11.5q42 0 88 -5
t111 -17v-90q-45 11 -95 16.5t-92 5.5q-71 0 -108 -20.5t-37 -56.5q0 -35 33 -55t111 -35q49 -7 90 -19t71 -31.5t46.5 -48t16.5 -70.5q0 -85 -66.5 -128t-197.5 -43zM128 769l168 -60l169 60v-78l-170 -61l-167 61v78z" />
    <glyph glyph-name="Schwa" unicode="&#x18f;" horiz-adv-x="741" 
d="M45 329q0 23 1.5 45t5.5 46h523q-3 63 -17.5 106t-41.5 69.5t-69 38.5t-101 12q-53 0 -119 -8t-146 -28l-6 98q28 10 63.5 17.5t73.5 13t75 8.5t67 3q336 0 336 -368q0 -188 -85 -290t-248 -102q-148 0 -230 85.5t-82 253.5zM357 86q55 0 94.5 14t66 44t40.5 77t17 114
h-417q-5 -120 40.5 -184.5t158.5 -64.5z" />
    <glyph glyph-name="Schwa.sc" horiz-adv-x="661" 
d="M47 252q0 45 8 79h432q-2 43 -13.5 73.5t-34.5 50t-58 28.5t-84 9q-26 0 -55 -2t-58.5 -5.5t-57 -8.5t-51.5 -11l-5 88q22 7 50.5 13.5t59.5 10.5t63 6.5t62 2.5q155 0 230.5 -71.5t75.5 -217.5q0 -149 -76 -227t-222 -78q-127 0 -196.5 68t-69.5 192zM317 82
q85 0 127 44.5t45 137.5h-331q-1 -5 -1 -9.5v-9.5q0 -78 41 -120.5t119 -42.5z" />
    <glyph glyph-name="Scircumflex" unicode="&#x15c;" horiz-adv-x="635" 
d="M304 -11q-27 0 -59 2t-66 6t-68.5 9.5t-66.5 12.5v98q151 -32 254 -32q175 0 175 107q0 32 -12.5 53.5t-35 36t-53 23.5t-66.5 16q-67 13 -114.5 32.5t-77.5 46.5t-44 63t-14 83q0 48 19.5 86.5t56.5 66t88.5 42t116.5 14.5q46 0 97.5 -6.5t122.5 -20.5v-98
q-50 14 -106 21.5t-102 7.5q-79 0 -123 -29.5t-44 -80.5q0 -26 8.5 -45t28 -34.5t51 -27.5t78.5 -23q55 -13 101 -29t79 -40.5t51.5 -60.5t18.5 -88q0 -105 -74 -158.5t-220 -53.5zM139 896l186 77l188 -77v-87l-187 76l-187 -76v87z" />
    <glyph glyph-name="Scircumflex.sc" horiz-adv-x="583" 
d="M280 -9q-24 0 -52.5 1.5t-59.5 4.5t-62 7.5t-60 9.5v93q66 -12 123.5 -18.5t104.5 -6.5q72 0 111 19.5t39 56.5q0 22 -10.5 36.5t-29.5 24.5t-45 16.5t-57 12.5q-60 9 -103 23.5t-70 35t-39.5 48.5t-12.5 66q0 39 17.5 69.5t50.5 52.5t79.5 33.5t104.5 11.5q42 0 88 -5
t111 -17v-90q-45 11 -95 16.5t-92 5.5q-71 0 -108 -20.5t-37 -56.5q0 -35 33 -55t111 -35q49 -7 90 -19t71 -31.5t46.5 -48t16.5 -70.5q0 -85 -66.5 -128t-197.5 -43zM131 708l167 61l170 -61v-78l-168 60l-169 -60v78z" />
    <glyph glyph-name="Sdotbelow" unicode="&#x1e62;" horiz-adv-x="635" 
d="M304 -11q-27 0 -59 2t-66 6t-68.5 9.5t-66.5 12.5v98q151 -32 254 -32q175 0 175 107q0 32 -12.5 53.5t-35 36t-53 23.5t-66.5 16q-67 13 -114.5 32.5t-77.5 46.5t-44 63t-14 83q0 48 19.5 86.5t56.5 66t88.5 42t116.5 14.5q46 0 97.5 -6.5t122.5 -20.5v-98
q-50 14 -106 21.5t-102 7.5q-79 0 -123 -29.5t-44 -80.5q0 -26 8.5 -45t28 -34.5t51 -27.5t78.5 -23q55 -13 101 -29t79 -40.5t51.5 -60.5t18.5 -88q0 -105 -74 -158.5t-220 -53.5zM308 -191q-30 0 -45 13.5t-15 44.5q0 59 60 59q61 0 61 -59q0 -31 -14.5 -44.5t-46.5 -13.5
z" />
    <glyph glyph-name="Sdotbelow.sc" horiz-adv-x="583" 
d="M280 -9q-24 0 -52.5 1.5t-59.5 4.5t-62 7.5t-60 9.5v93q66 -12 123.5 -18.5t104.5 -6.5q72 0 111 19.5t39 56.5q0 22 -10.5 36.5t-29.5 24.5t-45 16.5t-57 12.5q-60 9 -103 23.5t-70 35t-39.5 48.5t-12.5 66q0 39 17.5 69.5t50.5 52.5t79.5 33.5t104.5 11.5q42 0 88 -5
t111 -17v-90q-45 11 -95 16.5t-92 5.5q-71 0 -108 -20.5t-37 -56.5q0 -35 33 -55t111 -35q49 -7 90 -19t71 -31.5t46.5 -48t16.5 -70.5q0 -85 -66.5 -128t-197.5 -43zM285 -155q-56 0 -56 51q0 52 56 52q54 0 54 -52q0 -51 -54 -51z" />
    <glyph glyph-name="T" unicode="T" horiz-adv-x="652" 
d="M266 646h-247v94h615v-94h-248v-646h-120v646z" />
    <glyph glyph-name="Tbar" unicode="&#x166;" horiz-adv-x="664" 
d="M125 415h145v231h-247v94h615v-94h-248v-231h160v-74h-160v-341h-120v341h-145v74z" />
    <glyph glyph-name="Tbar.sc" horiz-adv-x="601" 
d="M114 326h129v163h-217v88h547v-88h-216v-163h132v-67h-132v-259h-114v259h-129v67z" />
    <glyph glyph-name="Tcaron" unicode="&#x164;" horiz-adv-x="652" 
d="M140 973l187 -77l186 77v-88l-188 -76l-185 76v88zM266 646h-247v94h615v-94h-248v-646h-120v646z" />
    <glyph glyph-name="Tcaron.sc" horiz-adv-x="592" 
d="M239 489h-217v88h547v-88h-216v-489h-114v489zM127 769l170 -60l168 60v-78l-170 -61l-168 61v78z" />
    <glyph glyph-name="Tdotbelow" unicode="&#x1e6c;" horiz-adv-x="652" 
d="M327 -191q-30 0 -45 13.5t-15 44.5q0 59 60 59q61 0 61 -59q0 -31 -14.5 -44.5t-46.5 -13.5zM266 646h-247v94h615v-94h-248v-646h-120v646z" />
    <glyph glyph-name="Tdotbelow.sc" horiz-adv-x="592" 
d="M239 489h-217v88h547v-88h-216v-489h-114v489zM297 -155q-55 0 -55 51q0 52 55 52q29 0 42 -12.5t13 -39.5q0 -26 -13 -38.5t-42 -12.5z" />
    <glyph glyph-name="Thorn" unicode="&#xde;" horiz-adv-x="705" 
d="M89 741h119v-120q48 3 94 3q96 0 165 -15t113.5 -46t66 -79t21.5 -114t-20.5 -114t-64.5 -79t-112 -45.5t-163 -14.5q-46 0 -100 3v-120h-119v741zM314 218q68 0 113 7t72 24.5t38.5 47t11.5 73.5q0 43 -12 72.5t-40.5 47t-74.5 25t-115 7.5h-24t-28 -1t-27 -2t-20 -2
v-292q4 -2 17 -3t29 -2t32.5 -1.5t27.5 -0.5z" />
    <glyph glyph-name="Thorn.sc" horiz-adv-x="642" 
d="M84 578h115v-86q17 3 37 3.5t35 0.5q175 0 254 -49t79 -157q0 -105 -80.5 -155t-246.5 -50q-14 0 -35 1.5t-43 3.5v-90h-115v578zM301 169q52 0 88 6.5t58.5 21t32 37.5t9.5 56q0 64 -43.5 91t-150.5 27q-22 0 -47.5 -1t-48.5 -3v-228q15 -2 44.5 -4.5t57.5 -2.5z" />
    <glyph glyph-name="U" unicode="U" horiz-adv-x="812" 
d="M406 -10q-87 0 -149 18.5t-101 57t-57 98t-18 141.5v436h119v-437q0 -115 51 -165.5t155 -50.5q103 0 154.5 50.5t51.5 165.5v437h120v-436q0 -82 -18 -141.5t-57.5 -98t-101.5 -57t-149 -18.5z" />
    <glyph glyph-name="U.sc" horiz-adv-x="737" 
d="M369 -8q-76 0 -131 14t-91 44t-53 77t-17 114v338h114v-342q0 -84 47 -119t131 -35q41 0 74 8.5t56 26.5t35 47.5t12 71.5v342h114v-338q0 -67 -17 -114t-52.5 -77t-90.5 -44t-131 -14z" />
    <glyph glyph-name="Uacute" unicode="&#xda;" horiz-adv-x="812" 
d="M345 813l72 150h121l-105 -158zM406 -10q-87 0 -149 18.5t-101 57t-57 98t-18 141.5v436h119v-437q0 -115 51 -165.5t155 -50.5q103 0 154.5 50.5t51.5 165.5v437h120v-436q0 -82 -18 -141.5t-57.5 -98t-101.5 -57t-149 -18.5z" />
    <glyph glyph-name="Uacute.sc" horiz-adv-x="737" 
d="M369 -8q-79 0 -134.5 14.5t-90.5 45.5t-51 77.5t-16 111.5v338h114v-342q0 -79 44 -116.5t134 -37.5q89 0 133 37.5t44 116.5v342h114v-338q0 -65 -16 -111.5t-51 -77.5t-90 -45.5t-134 -14.5zM310 636l62 124h116l-94 -131z" />
    <glyph glyph-name="Ubreve" unicode="&#x16c;" horiz-adv-x="812" 
d="M403 814q-54 0 -92 11.5t-63 32.5t-36.5 50t-11.5 64h83q0 -44 29 -69t91 -25q63 0 92 25t29 69h83q0 -70 -48.5 -114t-155.5 -44zM406 -10q-87 0 -149 18.5t-101 57t-57 98t-18 141.5v436h119v-437q0 -115 51 -165.5t155 -50.5q103 0 154.5 50.5t51.5 165.5v437h120
v-436q0 -82 -18 -141.5t-57.5 -98t-101.5 -57t-149 -18.5z" />
    <glyph glyph-name="Ubreve.sc" horiz-adv-x="737" 
d="M369 -8q-79 0 -134.5 14.5t-90.5 45.5t-51 77.5t-16 111.5v338h114v-342q0 -79 44 -116.5t134 -37.5q89 0 133 37.5t44 116.5v342h114v-338q0 -65 -16 -111.5t-51 -77.5t-90 -45.5t-134 -14.5zM366 635q-49 0 -84 10t-57 27.5t-32 41.5t-10 52h78q0 -35 25 -54t80 -19
q57 0 81.5 19t24.5 54h78q0 -57 -43 -94t-141 -37z" />
    <glyph glyph-name="Ucircumflex" unicode="&#xdb;" horiz-adv-x="812" 
d="M406 -10q-87 0 -149 18.5t-101 57t-57 98t-18 141.5v436h119v-437q0 -115 51 -165.5t155 -50.5q103 0 154.5 50.5t51.5 165.5v437h120v-436q0 -82 -18 -141.5t-57.5 -98t-101.5 -57t-149 -18.5zM215 896l186 77l188 -77v-87l-187 76l-187 -76v87z" />
    <glyph glyph-name="Ucircumflex.sc" horiz-adv-x="737" 
d="M369 -8q-79 0 -134.5 14.5t-90.5 45.5t-51 77.5t-16 111.5v338h114v-342q0 -79 44 -116.5t134 -37.5q89 0 133 37.5t44 116.5v342h114v-338q0 -65 -16 -111.5t-51 -77.5t-90 -45.5t-134 -14.5zM197 708l166 61l172 -61v-78l-170 60l-168 -60v78z" />
    <glyph glyph-name="Udblgrave" unicode="&#x214;" horiz-adv-x="812" 
d="M406 -10q-87 0 -149 18.5t-101 57t-57 98t-18 141.5v436h119v-437q0 -115 51 -165.5t155 -50.5q103 0 154.5 50.5t51.5 165.5v437h120v-436q0 -82 -18 -141.5t-57.5 -98t-101.5 -57t-149 -18.5zM269 800l-105 157h120l71 -145zM449 800l-106 157h120l72 -145z" />
    <glyph glyph-name="Udblgrave.sc" horiz-adv-x="737" 
d="M369 -8q-79 0 -134.5 14.5t-90.5 45.5t-51 77.5t-16 111.5v338h114v-342q0 -79 44 -116.5t134 -37.5q89 0 133 37.5t44 116.5v342h114v-338q0 -65 -16 -111.5t-51 -77.5t-90 -45.5t-134 -14.5zM242 626l-95 130h116l61 -121zM405 626l-94 130h116l61 -121z" />
    <glyph glyph-name="Udieresis" unicode="&#xdc;" horiz-adv-x="812" 
d="M258 817q-36 0 -53 16.5t-17 52.5t17 52.5t53 16.5q71 0 71 -69t-71 -69zM548 817q-37 0 -54 16.5t-17 52.5t17 52.5t54 16.5q70 0 70 -69t-70 -69zM406 -10q-87 0 -149 18.5t-101 57t-57 98t-18 141.5v436h119v-437q0 -115 51 -165.5t155 -50.5q103 0 154.5 50.5
t51.5 165.5v437h120v-436q0 -82 -18 -141.5t-57.5 -98t-101.5 -57t-149 -18.5z" />
    <glyph glyph-name="Udieresis.sc" horiz-adv-x="737" 
d="M369 -8q-79 0 -134.5 14.5t-90.5 45.5t-51 77.5t-16 111.5v338h114v-342q0 -79 44 -116.5t134 -37.5q89 0 133 37.5t44 116.5v342h114v-338q0 -65 -16 -111.5t-51 -77.5t-90 -45.5t-134 -14.5zM237 634q-35 0 -51 15t-16 48q0 63 67 63q66 0 66 -63t-66 -63zM495 634
q-35 0 -50.5 15t-15.5 48q0 32 15.5 47.5t50.5 15.5t50.5 -15.5t15.5 -47.5t-15.5 -47.5t-50.5 -15.5z" />
    <glyph glyph-name="Udotbelow" unicode="&#x1ee4;" horiz-adv-x="812" 
d="M406 -10q-87 0 -149 18.5t-101 57t-57 98t-18 141.5v436h119v-437q0 -115 51 -165.5t155 -50.5q103 0 154.5 50.5t51.5 165.5v437h120v-436q0 -82 -18 -141.5t-57.5 -98t-101.5 -57t-149 -18.5zM400 -191q-30 0 -45 13.5t-15 44.5q0 59 60 59q61 0 61 -59
q0 -31 -14.5 -44.5t-46.5 -13.5z" />
    <glyph glyph-name="Udotbelow.sc" horiz-adv-x="737" 
d="M369 -8q-79 0 -134.5 14.5t-90.5 45.5t-51 77.5t-16 111.5v338h114v-342q0 -79 44 -116.5t134 -37.5q89 0 133 37.5t44 116.5v342h114v-338q0 -65 -16 -111.5t-51 -77.5t-90 -45.5t-134 -14.5zM363 -155q-55 0 -55 51q0 52 55 52q29 0 42 -12.5t13 -39.5q0 -26 -13 -38.5
t-42 -12.5z" />
    <glyph glyph-name="Ugrave" unicode="&#xd9;" horiz-adv-x="812" 
d="M360 805l-105 158h122l71 -145zM406 -10q-87 0 -149 18.5t-101 57t-57 98t-18 141.5v436h119v-437q0 -115 51 -165.5t155 -50.5q103 0 154.5 50.5t51.5 165.5v437h120v-436q0 -82 -18 -141.5t-57.5 -98t-101.5 -57t-149 -18.5z" />
    <glyph glyph-name="Ugrave.sc" horiz-adv-x="737" 
d="M369 -8q-79 0 -134.5 14.5t-90.5 45.5t-51 77.5t-16 111.5v338h114v-342q0 -79 44 -116.5t134 -37.5q89 0 133 37.5t44 116.5v342h114v-338q0 -65 -16 -111.5t-51 -77.5t-90 -45.5t-134 -14.5zM325 629l-95 131h117l61 -121z" />
    <glyph glyph-name="Uhungarumlaut" unicode="&#x170;" horiz-adv-x="812" 
d="M406 -10q-87 0 -149 18.5t-101 57t-57 98t-18 141.5v436h119v-437q0 -115 51 -165.5t155 -50.5q103 0 154.5 50.5t51.5 165.5v437h120v-436q0 -82 -18 -141.5t-57.5 -98t-101.5 -57t-149 -18.5zM265 812l70 145h120l-105 -157zM444 812l72 145h120l-105 -157z" />
    <glyph glyph-name="Uhungarumlaut.sc" horiz-adv-x="737" 
d="M369 -8q-79 0 -134.5 14.5t-90.5 45.5t-51 77.5t-16 111.5v338h114v-342q0 -79 44 -116.5t134 -37.5q89 0 133 37.5t44 116.5v342h114v-338q0 -65 -16 -111.5t-51 -77.5t-90 -45.5t-134 -14.5zM238 635l61 121h116l-95 -130zM402 635l61 121h116l-94 -130z" />
    <glyph glyph-name="Uinvertedbreve" unicode="&#x216;" horiz-adv-x="812" 
d="M406 -10q-87 0 -149 18.5t-101 57t-57 98t-18 141.5v436h119v-437q0 -115 51 -165.5t155 -50.5q103 0 154.5 50.5t51.5 165.5v437h120v-436q0 -82 -18 -141.5t-57.5 -98t-101.5 -57t-149 -18.5zM521 819q0 44 -29 68.5t-92 24.5t-92 -24.5t-29 -68.5h-83q0 69 48.5 113
t155.5 44t155.5 -43.5t48.5 -113.5h-83z" />
    <glyph glyph-name="Uinvertedbreve.sc" horiz-adv-x="737" 
d="M369 -8q-79 0 -134.5 14.5t-90.5 45.5t-51 77.5t-16 111.5v338h114v-342q0 -79 44 -116.5t134 -37.5q89 0 133 37.5t44 116.5v342h114v-338q0 -65 -16 -111.5t-51 -77.5t-90 -45.5t-134 -14.5zM469 639q0 34 -25 53t-82 19q-55 0 -80.5 -19t-25.5 -53h-77q0 28 10 52
t32 41.5t57 27.5t84 10q98 0 141.5 -37t43.5 -94h-78z" />
    <glyph glyph-name="Umacron" unicode="&#x16a;" horiz-adv-x="812" 
d="M217 925h369v-83h-369v83zM406 -10q-87 0 -149 18.5t-101 57t-57 98t-18 141.5v436h119v-437q0 -115 51 -165.5t155 -50.5q103 0 154.5 50.5t51.5 165.5v437h120v-436q0 -82 -18 -141.5t-57.5 -98t-101.5 -57t-149 -18.5z" />
    <glyph glyph-name="Umacron.sc" horiz-adv-x="737" 
d="M369 -8q-79 0 -134.5 14.5t-90.5 45.5t-51 77.5t-16 111.5v338h114v-342q0 -79 44 -116.5t134 -37.5q89 0 133 37.5t44 116.5v342h114v-338q0 -65 -16 -111.5t-51 -77.5t-90 -45.5t-134 -14.5zM198 733h334v-76h-334v76z" />
    <glyph glyph-name="Uogonek" unicode="&#x172;" horiz-adv-x="812" 
d="M397 -210q-122 0 -122 85q0 32 18 60t60 57q-73 5 -124.5 26.5t-84.5 59.5t-48 94.5t-15 132.5v436h119v-437q0 -115 51 -165.5t155 -50.5q103 0 154.5 50.5t51.5 165.5v437h120v-436q0 -146 -59.5 -222t-194.5 -89q-66 -32 -94.5 -57t-28.5 -51q0 -30 41 -30
q14 0 37.5 3.5t44.5 8.5v-66q-16 -6 -37 -9t-44 -3z" />
    <glyph glyph-name="Uogonek.sc" horiz-adv-x="737" 
d="M361 -167q-55 0 -83 18t-28 51q0 25 16.5 48.5t52.5 43.5q-130 8 -186 67.5t-56 179.5v338h114v-342q0 -79 44 -116.5t134 -37.5q89 0 133 37.5t44 116.5v342h114v-338q0 -58 -12.5 -101.5t-40 -74t-70.5 -48t-104 -22.5q-62 -24 -85 -41t-23 -35q0 -15 9.5 -19t26.5 -4
q14 0 36 2.5t38 5.5v-61q-17 -5 -36.5 -7.5t-37.5 -2.5z" />
    <glyph glyph-name="Uring" unicode="&#x16e;" horiz-adv-x="812" 
d="M406 -10q-87 0 -149 18.5t-101 57t-57 98t-18 141.5v436h119v-437q0 -115 51 -165.5t155 -50.5q103 0 154.5 50.5t51.5 165.5v437h120v-436q0 -82 -18 -141.5t-57.5 -98t-101.5 -57t-149 -18.5zM404 795q-28 0 -52 8t-42 23t-28 35t-10 44q0 25 10 45.5t28 35.5t42 23.5
t52 8.5t52 -8.5t41.5 -23.5t27.5 -35.5t10 -45.5q0 -24 -10 -44t-27.5 -35t-41.5 -23t-52 -8zM404 844q74 0 74 61q0 63 -74 63q-75 0 -75 -63q0 -61 75 -61z" />
    <glyph glyph-name="Uring.sc" horiz-adv-x="737" 
d="M369 -8q-79 0 -134.5 14.5t-90.5 45.5t-51 77.5t-16 111.5v338h114v-342q0 -79 44 -116.5t134 -37.5q89 0 133 37.5t44 116.5v342h114v-338q0 -65 -16 -111.5t-51 -77.5t-90 -45.5t-134 -14.5zM367 619q-51 0 -84.5 24t-33.5 63q0 19 9 35.5t25 28.5t37.5 18.5t46.5 6.5
t46 -6.5t37 -18.5t25 -28.5t9 -35.5q0 -39 -33.5 -63t-83.5 -24zM367 660q64 0 64 46q0 47 -64 47q-66 0 -66 -47q0 -46 66 -46z" />
    <glyph glyph-name="Utilde" unicode="&#x168;" horiz-adv-x="812" 
d="M183 865q32 46 70 68t74 22q26 0 49.5 -6.5t46.5 -14t46 -13.5t48 -6q26 0 49.5 8.5t51.5 29.5l23 -31q-31 -45 -71 -67.5t-78 -22.5q-24 0 -47.5 6t-47 13.5t-47 13.5t-46.5 6q-24 0 -47.5 -7.5t-49.5 -28.5zM406 -10q-87 0 -149 18.5t-101 57t-57 98t-18 141.5v436h119
v-437q0 -115 51 -165.5t155 -50.5q103 0 154.5 50.5t51.5 165.5v437h120v-436q0 -82 -18 -141.5t-57.5 -98t-101.5 -57t-149 -18.5z" />
    <glyph glyph-name="Utilde.sc" horiz-adv-x="737" 
d="M369 -8q-79 0 -134.5 14.5t-90.5 45.5t-51 77.5t-16 111.5v338h114v-342q0 -79 44 -116.5t134 -37.5q89 0 133 37.5t44 116.5v342h114v-338q0 -65 -16 -111.5t-51 -77.5t-90 -45.5t-134 -14.5zM167 675q29 41 63.5 61t67.5 20q23 0 44.5 -4.5t42 -10.5t41.5 -10.5
t44 -4.5q22 0 43 6t46 22l20 -25q-29 -40 -64.5 -60.5t-69.5 -20.5q-22 0 -43.5 5t-42.5 10.5t-42.5 10.5t-42.5 5q-22 0 -42.5 -6t-43.5 -23z" />
    <glyph glyph-name="V" unicode="V" horiz-adv-x="735" 
d="M6 740h128l178 -476l52 -149h9l51 149l180 476h126l-282 -740h-160z" />
    <glyph glyph-name="V.sc" horiz-adv-x="666" 
d="M10 577h125l153 -366l44 -118h4l44 118l152 366h125l-248 -577h-152z" />
    <glyph glyph-name="W" unicode="W" horiz-adv-x="1087" 
d="M19 740h125l124 -480l33 -145h9l36 145l137 480h121l136 -480l38 -145h8l33 145l124 480h126l-204 -740h-161l-126 440l-31 152h-7l-31 -153l-125 -439h-162z" />
    <glyph glyph-name="W.sc" horiz-adv-x="977" 
d="M21 577h122l104 -358l28 -113h8l33 113l116 358h113l115 -358l33 -113h8l28 113l105 358h122l-177 -577h-156l-100 311l-32 130h-6l-31 -132l-101 -309h-155z" />
    <glyph glyph-name="Wacute" unicode="&#x1e82;" horiz-adv-x="1087" 
d="M494 813l72 150h121l-105 -158zM19 740h125l124 -480l33 -145h9l36 145l137 480h121l136 -480l38 -145h8l33 145l124 480h126l-204 -740h-161l-126 440l-31 152h-7l-31 -153l-125 -439h-162z" />
    <glyph glyph-name="Wacute.sc" horiz-adv-x="977" 
d="M21 577h122l104 -358l28 -113h8l33 113l116 358h113l115 -358l33 -113h8l28 113l105 358h122l-177 -577h-156l-100 311l-32 130h-6l-31 -132l-101 -309h-155zM441 636l62 124h116l-94 -131z" />
    <glyph glyph-name="Wcircumflex" unicode="&#x174;" horiz-adv-x="1087" 
d="M19 740h125l124 -480l33 -145h9l36 145l137 480h121l136 -480l38 -145h8l33 145l124 480h126l-204 -740h-161l-126 440l-31 152h-7l-31 -153l-125 -439h-162zM357 896l186 77l188 -77v-87l-187 76l-187 -76v87z" />
    <glyph glyph-name="Wcircumflex.sc" horiz-adv-x="977" 
d="M21 577h122l104 -358l28 -113h8l33 113l116 358h113l115 -358l33 -113h8l28 113l105 358h122l-177 -577h-156l-100 311l-32 130h-6l-31 -132l-101 -309h-155zM319 708l169 61l170 -61v-78l-169 60l-170 -60v78z" />
    <glyph glyph-name="Wdieresis" unicode="&#x1e84;" horiz-adv-x="1087" 
d="M399 817q-36 0 -53 16.5t-17 52.5t17 52.5t53 16.5q71 0 71 -69t-71 -69zM689 817q-37 0 -54 16.5t-17 52.5t17 52.5t54 16.5q70 0 70 -69t-70 -69zM19 740h125l124 -480l33 -145h9l36 145l137 480h121l136 -480l38 -145h8l33 145l124 480h126l-204 -740h-161l-126 440
l-31 152h-7l-31 -153l-125 -439h-162z" />
    <glyph glyph-name="Wdieresis.sc" horiz-adv-x="977" 
d="M21 577h122l104 -358l28 -113h8l33 113l116 358h113l115 -358l33 -113h8l28 113l105 358h122l-177 -577h-156l-100 311l-32 130h-6l-31 -132l-101 -309h-155zM359 634q-35 0 -50.5 15t-15.5 48q0 32 15.5 47.5t50.5 15.5t50.5 -15.5t15.5 -47.5t-15.5 -47.5t-50.5 -15.5z
M617 634q-34 0 -49.5 15t-15.5 48q0 63 65 63q35 0 50.5 -15.5t15.5 -47.5t-15.5 -47.5t-50.5 -15.5z" />
    <glyph glyph-name="Wgrave" unicode="&#x1e80;" horiz-adv-x="1087" 
d="M493 805l-105 158h122l71 -145zM19 740h125l124 -480l33 -145h9l36 145l137 480h121l136 -480l38 -145h8l33 145l124 480h126l-204 -740h-161l-126 440l-31 152h-7l-31 -153l-125 -439h-162z" />
    <glyph glyph-name="Wgrave.sc" horiz-adv-x="977" 
d="M21 577h122l104 -358l28 -113h8l33 113l116 358h113l115 -358l33 -113h8l28 113l105 358h122l-177 -577h-156l-100 311l-32 130h-6l-31 -132l-101 -309h-155zM439 629l-94 131h117l62 -121z" />
    <glyph glyph-name="X" unicode="X" horiz-adv-x="726" 
d="M287 385l-270 355h136l183 -249l22 -36h10l20 36l186 249h136l-275 -362l293 -378h-135l-206 276l-18 32h-10l-18 -32l-205 -276h-137z" />
    <glyph glyph-name="X.sc" horiz-adv-x="659" 
d="M245 301l-224 276h136l154 -188l17 -30h6l17 30l151 188h136l-229 -282l245 -295h-136l-170 211l-15 26h-6l-15 -26l-170 -211h-136z" />
    <glyph glyph-name="Y" unicode="Y" horiz-adv-x="687" 
d="M285 243l-284 497h128l176 -316l33 -73h10l33 73l176 316h128l-281 -494v-246h-119v243z" />
    <glyph glyph-name="Y.sc" horiz-adv-x="620" 
d="M251 189l-245 388h125l148 -240l28 -57h6l27 57l147 240h125l-242 -388v-189h-119v189z" />
    <glyph glyph-name="Yacute" unicode="&#xdd;" horiz-adv-x="687" 
d="M285 243l-284 497h128l176 -316l33 -73h10l33 73l176 316h128l-281 -494v-246h-119v243zM296 813l72 150h121l-105 -158z" />
    <glyph glyph-name="Yacute.sc" horiz-adv-x="620" 
d="M251 189l-245 388h125l148 -240l28 -57h6l27 57l147 240h125l-242 -388v-189h-119v189zM266 636l60 124h117l-94 -131z" />
    <glyph glyph-name="Ycircumflex" unicode="&#x176;" horiz-adv-x="687" 
d="M285 243l-284 497h128l176 -316l33 -73h10l33 73l176 316h128l-281 -494v-246h-119v243zM155 896l186 77l188 -77v-87l-187 76l-187 -76v87z" />
    <glyph glyph-name="Ycircumflex.sc" horiz-adv-x="620" 
d="M251 189l-245 388h125l148 -240l28 -57h6l27 57l147 240h125l-242 -388v-189h-119v189zM139 708l168 61l170 -61v-78l-169 60l-169 -60v78z" />
    <glyph glyph-name="Ydieresis" unicode="&#x178;" horiz-adv-x="687" 
d="M285 243l-284 497h128l176 -316l33 -73h10l33 73l176 316h128l-281 -494v-246h-119v243zM198 817q-36 0 -53 16.5t-17 52.5t17 52.5t53 16.5q71 0 71 -69t-71 -69zM488 817q-37 0 -54 16.5t-17 52.5t17 52.5t54 16.5q70 0 70 -69t-70 -69z" />
    <glyph glyph-name="Ydieresis.sc" horiz-adv-x="620" 
d="M179 634q-35 0 -50.5 15t-15.5 48q0 32 15.5 47.5t50.5 15.5q67 0 67 -63t-67 -63zM438 634q-35 0 -50.5 15t-15.5 48q0 32 15.5 47.5t50.5 15.5q66 0 66 -63t-66 -63zM251 189l-245 388h125l148 -240l28 -57h6l27 57l147 240h125l-242 -388v-189h-119v189z" />
    <glyph glyph-name="Ygrave" unicode="&#x1ef2;" horiz-adv-x="687" 
d="M285 243l-284 497h128l176 -316l33 -73h10l33 73l176 316h128l-281 -494v-246h-119v243zM298 805l-105 158h122l71 -145z" />
    <glyph glyph-name="Ygrave.sc" horiz-adv-x="620" 
d="M251 189l-245 388h125l148 -240l28 -57h6l27 57l147 240h125l-242 -388v-189h-119v189zM171 760h117l61 -121l-83 -10z" />
    <glyph glyph-name="Ytilde" unicode="&#x1ef8;" horiz-adv-x="687" 
d="M285 243l-284 497h128l176 -316l33 -73h10l33 73l176 316h128l-281 -494v-246h-119v243zM121 865q32 46 70 68t74 22q26 0 49.5 -6.5t46.5 -14t46 -13.5t48 -6q26 0 49.5 8.5t51.5 29.5l23 -31q-31 -45 -71 -67.5t-78 -22.5q-24 0 -47.5 6t-47 13.5t-47 13.5t-46.5 6
q-24 0 -47.5 -7.5t-49.5 -28.5z" />
    <glyph glyph-name="Ytilde.sc" horiz-adv-x="620" 
d="M251 189l-245 388h125l148 -240l28 -57h6l27 57l147 240h125l-242 -388v-189h-119v189zM108 675q29 41 63.5 61t67.5 20q23 0 44.5 -4.5t42.5 -10.5t41.5 -10.5t43.5 -4.5q22 0 43 6t46 22l21 -25q-29 -40 -65 -60.5t-70 -20.5q-22 0 -43.5 5t-42.5 10.5t-42 10.5t-42 5
q-22 0 -42.5 -6t-43.5 -23z" />
    <glyph glyph-name="Z" unicode="Z" horiz-adv-x="642" 
d="M34 84l412 553v6h-397v97h545v-81l-410 -556v-6h424v-97h-574v84z" />
    <glyph glyph-name="Z.sc" horiz-adv-x="589" 
d="M40 80l352 404v5h-342v88h490v-75l-354 -409v-5h365v-88h-511v80z" />
    <glyph glyph-name="Zacute" unicode="&#x179;" horiz-adv-x="642" 
d="M34 84l412 553v6h-397v97h545v-81l-410 -556v-6h424v-97h-574v84zM283 813l72 150h121l-105 -158z" />
    <glyph glyph-name="Zacute.sc" horiz-adv-x="590" 
d="M40 80l352 404v5h-342v88h490v-75l-354 -409v-5h365v-88h-511v80zM258 636l62 124h116l-94 -131z" />
    <glyph glyph-name="Zcaron" unicode="&#x17d;" horiz-adv-x="642" 
d="M136 973l187 -77l186 77v-88l-188 -76l-185 76v88zM34 84l412 553v6h-397v97h545v-81l-410 -556v-6h424v-97h-574v84z" />
    <glyph glyph-name="Zcaron.sc" horiz-adv-x="590" 
d="M40 80l352 404v5h-342v88h490v-75l-354 -409v-5h365v-88h-511v80zM126 769l169 -60l169 60v-78l-170 -61l-168 61v78z" />
    <glyph glyph-name="Zdotaccent" unicode="&#x17b;" horiz-adv-x="642" 
d="M324 814q-36 0 -53.5 16t-17.5 52q0 37 17.5 53.5t53.5 16.5q71 0 71 -70q0 -68 -71 -68zM34 84l412 553v6h-397v97h545v-81l-410 -556v-6h424v-97h-574v84z" />
    <glyph glyph-name="Zdotaccent.sc" horiz-adv-x="590" 
d="M40 80l352 404v5h-342v88h490v-75l-354 -409v-5h365v-88h-511v80zM296 632q-34 0 -50 14.5t-16 48.5q0 33 16 48t50 15q35 0 50.5 -15.5t15.5 -47.5t-15.5 -47.5t-50.5 -15.5z" />
    <glyph glyph-name="Zdotbelow" unicode="&#x1e92;" horiz-adv-x="642" 
d="M34 84l412 553v6h-397v97h545v-81l-410 -556v-6h424v-97h-574v84zM313 -191q-30 0 -45 13.5t-15 44.5q0 59 60 59q61 0 61 -59q0 -31 -14.5 -44.5t-46.5 -13.5z" />
    <glyph glyph-name="Zdotbelow.sc" horiz-adv-x="590" 
d="M40 80l352 404v5h-342v88h490v-75l-354 -409v-5h365v-88h-511v80zM288 -155q-56 0 -56 51q0 52 56 52q55 0 55 -52q0 -51 -55 -51z" />
    <glyph glyph-name="a" unicode="a" horiz-adv-x="578" 
d="M193 -5q-76 0 -114.5 37t-38.5 108q0 81 50 122t161 49l139 11v24q0 33 -6 54.5t-21 35t-41.5 19t-68.5 5.5q-74 0 -172 -19l-9 85q59 11 107.5 15.5t96.5 4.5q118 0 174.5 -44.5t56.5 -137.5v-364h-95l-12 68h-7q-52 -38 -102 -55.5t-98 -17.5zM240 80q35 0 73.5 13.5
t76.5 39.5v123l-102 -9q-36 -3 -61 -9.5t-40 -18t-21.5 -28t-6.5 -39.5q0 -38 19.5 -55t61.5 -17z" />
    <glyph glyph-name="aacute" unicode="&#xe1;" horiz-adv-x="578" 
d="M193 -5q-76 0 -114.5 37t-38.5 108q0 81 50 122t161 49l139 11v24q0 33 -6 54.5t-21 35t-41.5 19t-68.5 5.5q-74 0 -172 -19l-9 85q59 11 107.5 15.5t96.5 4.5q118 0 174.5 -44.5t56.5 -137.5v-364h-95l-12 68h-7q-52 -38 -102 -55.5t-98 -17.5zM240 80q35 0 73.5 13.5
t76.5 39.5v123l-102 -9q-36 -3 -61 -9.5t-40 -18t-21.5 -28t-6.5 -39.5q0 -38 19.5 -55t61.5 -17zM246 616l68 186h121l-106 -193z" />
    <glyph glyph-name="acute" unicode="&#xb4;" horiz-adv-x="273" 
d="M46 616l68 186h121l-106 -193z" />
    <glyph glyph-name="abreve" unicode="&#x103;" horiz-adv-x="578" 
d="M193 -5q-76 0 -114.5 37t-38.5 108q0 81 50 122t161 49l139 11v24q0 33 -6 54.5t-21 35t-41.5 19t-68.5 5.5q-74 0 -172 -19l-9 85q59 11 107.5 15.5t96.5 4.5q118 0 174.5 -44.5t56.5 -137.5v-364h-95l-12 68h-7q-52 -38 -102 -55.5t-98 -17.5zM240 80q35 0 73.5 13.5
t76.5 39.5v123l-102 -9q-36 -3 -61 -9.5t-40 -18t-21.5 -28t-6.5 -39.5q0 -38 19.5 -55t61.5 -17zM290 617q-56 0 -94.5 12t-63 33.5t-35.5 51.5t-11 66h82q0 -54 29.5 -78t92.5 -24t92.5 24t29.5 78h83q0 -36 -11 -66t-35.5 -51.5t-63.5 -33.5t-95 -12z" />
    <glyph glyph-name="breve" unicode="&#x2d8;" horiz-adv-x="519" 
d="M258 617q-56 0 -94.5 12t-63 33.5t-35.5 51.5t-11 66h82q0 -54 29.5 -78t92.5 -24t92.5 24t29.5 78h83q0 -36 -11 -66t-35.5 -51.5t-63.5 -33.5t-95 -12z" />
    <glyph glyph-name="acircumflex" unicode="&#xe2;" horiz-adv-x="578" 
d="M193 -5q-76 0 -114.5 37t-38.5 108q0 81 50 122t161 49l139 11v24q0 33 -6 54.5t-21 35t-41.5 19t-68.5 5.5q-74 0 -172 -19l-9 85q59 11 107.5 15.5t96.5 4.5q118 0 174.5 -44.5t56.5 -137.5v-364h-95l-12 68h-7q-52 -38 -102 -55.5t-98 -17.5zM240 80q35 0 73.5 13.5
t76.5 39.5v123l-102 -9q-36 -3 -61 -9.5t-40 -18t-21.5 -28t-6.5 -39.5q0 -38 19.5 -55t61.5 -17zM105 710l185 77l188 -77v-86l-187 76l-186 -76v86z" />
    <glyph glyph-name="circumflex" unicode="&#x2c6;" horiz-adv-x="498" 
d="M60 710l185 77l188 -77v-86l-187 76l-186 -76v86z" />
    <glyph glyph-name="adblgrave" unicode="&#x201;" horiz-adv-x="578" 
d="M193 -5q-76 0 -114.5 37t-38.5 108q0 81 50 122t161 49l139 11v24q0 33 -6 54.5t-21 35t-41.5 19t-68.5 5.5q-74 0 -172 -19l-9 85q59 11 107.5 15.5t96.5 4.5q118 0 174.5 -44.5t56.5 -137.5v-364h-95l-12 68h-7q-52 -38 -102 -55.5t-98 -17.5zM240 80q35 0 73.5 13.5
t76.5 39.5v123l-102 -9q-36 -3 -61 -9.5t-40 -18t-21.5 -28t-6.5 -39.5q0 -38 19.5 -55t61.5 -17zM155 614l-108 194h123l68 -184zM361 614l-108 194h123l68 -184z" />
    <glyph glyph-name="uni030F" unicode="&#x30f;" horiz-adv-x="485" 
d="M139 614l-108 194h123l68 -184zM345 614l-108 194h123l68 -184z" />
    <glyph glyph-name="adieresis" unicode="&#xe4;" horiz-adv-x="578" 
d="M193 -5q-76 0 -114.5 37t-38.5 108q0 81 50 122t161 49l139 11v24q0 33 -6 54.5t-21 35t-41.5 19t-68.5 5.5q-74 0 -172 -19l-9 85q59 11 107.5 15.5t96.5 4.5q118 0 174.5 -44.5t56.5 -137.5v-364h-95l-12 68h-7q-52 -38 -102 -55.5t-98 -17.5zM240 80q35 0 73.5 13.5
t76.5 39.5v123l-102 -9q-36 -3 -61 -9.5t-40 -18t-21.5 -28t-6.5 -39.5q0 -38 19.5 -55t61.5 -17zM160 646q-63 0 -63 64q0 61 63 61q64 0 64 -61q0 -64 -64 -64zM424 646q-63 0 -63 64q0 61 63 61q64 0 64 -61q0 -64 -64 -64z" />
    <glyph glyph-name="dieresis" unicode="&#xa8;" horiz-adv-x="525" 
d="M124 646q-63 0 -63 64q0 61 63 61q64 0 64 -61q0 -64 -64 -64zM388 646q-63 0 -63 64q0 61 63 61q64 0 64 -61q0 -64 -64 -64z" />
    <glyph glyph-name="ae" unicode="&#xe6;" horiz-adv-x="938" 
d="M667 -12q-154 0 -217 95l-6 1q-79 -49 -139 -69t-113 -20q-75 0 -113 37t-38 109q0 79 50.5 120t159.5 49l140 10v35q0 30 -7 50t-23 32t-43.5 17t-67.5 5q-37 0 -77.5 -4t-90.5 -14l-10 85q59 11 107 15.5t99 4.5q75 0 120.5 -22t65.5 -65h7q30 42 78 64.5t115 22.5
q112 0 170 -60.5t58 -177.5q0 -50 -7 -74h-375q4 -81 44 -117.5t125 -36.5q46 0 96.5 6.5t92.5 19.5l5 -86q-47 -15 -101.5 -23.5t-104.5 -8.5zM241 78q34 0 73 13.5t77 39.5v127l-103 -9q-72 -7 -100 -29.5t-28 -67.5q0 -38 19.5 -56t61.5 -18zM787 298q-2 88 -31.5 125.5
t-95.5 37.5q-73 0 -109.5 -39.5t-41.5 -123.5h278z" />
    <glyph glyph-name="aeacute" unicode="&#x1fd;" horiz-adv-x="938" 
d="M433 616l68 186h121l-106 -193zM667 -12q-154 0 -217 95l-6 1q-79 -49 -139 -69t-113 -20q-75 0 -113 37t-38 109q0 79 50.5 120t159.5 49l140 10v35q0 30 -7 50t-23 32t-43.5 17t-67.5 5q-37 0 -77.5 -4t-90.5 -14l-10 85q59 11 107 15.5t99 4.5q75 0 120.5 -22
t65.5 -65h7q30 42 78 64.5t115 22.5q112 0 170 -60.5t58 -177.5q0 -50 -7 -74h-375q4 -81 44 -117.5t125 -36.5q46 0 96.5 6.5t92.5 19.5l5 -86q-47 -15 -101.5 -23.5t-104.5 -8.5zM241 78q34 0 73 13.5t77 39.5v127l-103 -9q-72 -7 -100 -29.5t-28 -67.5q0 -38 19.5 -56
t61.5 -18zM787 298q-2 88 -31.5 125.5t-95.5 37.5q-73 0 -109.5 -39.5t-41.5 -123.5h278z" />
    <glyph glyph-name="agrave" unicode="&#xe0;" horiz-adv-x="578" 
d="M193 -5q-76 0 -114.5 37t-38.5 108q0 81 50 122t161 49l139 11v24q0 33 -6 54.5t-21 35t-41.5 19t-68.5 5.5q-74 0 -172 -19l-9 85q59 11 107.5 15.5t96.5 4.5q118 0 174.5 -44.5t56.5 -137.5v-364h-95l-12 68h-7q-52 -38 -102 -55.5t-98 -17.5zM240 80q35 0 73.5 13.5
t76.5 39.5v123l-102 -9q-36 -3 -61 -9.5t-40 -18t-21.5 -28t-6.5 -39.5q0 -38 19.5 -55t61.5 -17zM250 614l-107 194h126l68 -184z" />
    <glyph glyph-name="grave" unicode="`" horiz-adv-x="282" 
d="M139 614l-107 194h126l68 -184z" />
    <glyph glyph-name="ainvertedbreve" unicode="&#x203;" horiz-adv-x="578" 
d="M193 -5q-76 0 -114.5 37t-38.5 108q0 81 50 122t161 49l139 11v24q0 33 -6 54.5t-21 35t-41.5 19t-68.5 5.5q-74 0 -172 -19l-9 85q59 11 107.5 15.5t96.5 4.5q118 0 174.5 -44.5t56.5 -137.5v-364h-95l-12 68h-7q-52 -38 -102 -55.5t-98 -17.5zM240 80q35 0 73.5 13.5
t76.5 39.5v123l-102 -9q-36 -3 -61 -9.5t-40 -18t-21.5 -28t-6.5 -39.5q0 -38 19.5 -55t61.5 -17zM87 627q0 36 11 66t35.5 51.5t63.5 33.5t95 12q55 0 94 -12t64 -33.5t36 -51.5t11 -66h-84q0 54 -29 78t-92 24t-92.5 -24t-29.5 -78h-83z" />
    <glyph glyph-name="uni0311" unicode="&#x311;" horiz-adv-x="520" 
d="M50 627q0 36 11 66t35.5 51.5t63.5 33.5t95 12q55 0 94 -12t64 -33.5t36 -51.5t11 -66h-84q0 54 -29 78t-92 24t-92.5 -24t-29.5 -78h-83v0z" />
    <glyph glyph-name="amacron" unicode="&#x101;" horiz-adv-x="578" 
d="M193 -5q-76 0 -114.5 37t-38.5 108q0 81 50 122t161 49l139 11v24q0 33 -6 54.5t-21 35t-41.5 19t-68.5 5.5q-74 0 -172 -19l-9 85q59 11 107.5 15.5t96.5 4.5q118 0 174.5 -44.5t56.5 -137.5v-364h-95l-12 68h-7q-52 -38 -102 -55.5t-98 -17.5zM240 80q35 0 73.5 13.5
t76.5 39.5v123l-102 -9q-36 -3 -61 -9.5t-40 -18t-21.5 -28t-6.5 -39.5q0 -38 19.5 -55t61.5 -17zM111 731h370v-82h-370v82z" />
    <glyph glyph-name="macron" unicode="&#xaf;" horiz-adv-x="521" 
d="M64 731h370v-82h-370v82z" />
    <glyph glyph-name="ampersand" unicode="&#x26;" horiz-adv-x="792" 
d="M354 -11q-70 0 -126 15t-95.5 43.5t-60.5 68.5t-21 90q0 69 37 119t107 75q-34 37 -48.5 74t-14.5 82q0 94 68 145.5t193 51.5q89 0 201 -34l2 -6l-17 -75h-9q-94 32 -166 32q-151 0 -151 -120q0 -31 12.5 -59.5t39.5 -56t70 -56t103 -59.5l111 -58q6 37 6 81v83h109v-82
q0 -73 -17 -133l92 -47v-10l-46 -77h-9l-79 43q-43 -64 -116 -97t-175 -33zM424 240q-50 27 -89 51.5t-71 47.5q-91 -38 -91 -127q0 -65 50 -103t138 -38q141 0 196 96z" />
    <glyph glyph-name="ampersand.sc" horiz-adv-x="720" 
d="M320 -8q-62 0 -112 12t-85 34t-54 53t-19 70q0 54 32.5 93.5t95.5 58.5q-32 29 -45 58t-13 61q0 73 61.5 114t173.5 41q81 0 180 -25l3 -5l-16 -71h-8q-41 12 -78.5 18.5t-68.5 6.5q-130 0 -130 -84q0 -43 46 -82t150 -87l88 -41q5 14 7 36.5t2 41.5v41h104v-68
q0 -56 -13 -96l82 -38v-9l-44 -73h-8l-80 39q-76 -99 -251 -99zM327 67q114 0 159 67l-103 51q-43 22 -75 40t-57 37q-42 -15 -63 -38t-21 -58q0 -45 43 -72t117 -27z" />
    <glyph glyph-name="aogonek" unicode="&#x105;" horiz-adv-x="578" 
d="M425 -220q-122 0 -122 85q0 37 26 69t83 66l-12 68h-7q-52 -38 -102 -55.5t-98 -17.5q-76 0 -114.5 37t-38.5 108q0 81 50 122t161 49l139 11v24q0 33 -6 54.5t-21 35t-41.5 19t-68.5 5.5q-74 0 -172 -19l-9 85q59 11 107.5 15.5t96.5 4.5q118 0 174.5 -44.5t56.5 -137.5
v-380q-67 -32 -95.5 -57t-28.5 -51q0 -30 41 -30q14 0 37.5 3.5t44.5 8.5v-66q-16 -6 -37 -9t-44 -3zM240 80q35 0 73.5 13.5t76.5 39.5v123l-102 -9q-36 -3 -61 -9.5t-40 -18t-21.5 -28t-6.5 -39.5q0 -38 19.5 -55t61.5 -17z" />
    <glyph glyph-name="apostrophe" unicode="&#x2bc;" horiz-adv-x="233" 
d="M171 808v-4l-37 -224h-62v228h99z" />
    <glyph glyph-name="approxequal" unicode="&#x2248;" horiz-adv-x="539" 
d="M71 481q27 10 55 21t61 11q23 0 43.5 -5.5t40.5 -12.5t40.5 -12.5t43.5 -5.5q33 0 60 8.5t54 21.5v-70q-26 -12 -53.5 -24t-60.5 -12q-23 0 -43.5 6t-40.5 12.5t-40.5 12.5t-43.5 6q-33 0 -61 -8.5t-55 -21.5v73zM71 277q27 11 55 21t61 10q23 0 43.5 -5.5t40.5 -12
t40.5 -12t43.5 -5.5q33 0 60 8t54 22v-71q-26 -11 -53.5 -22.5t-60.5 -11.5q-23 0 -43.5 5.5t-40.5 12t-40.5 12t-43.5 5.5q-33 0 -61 -7.5t-55 -21.5v73z" />
    <glyph glyph-name="aring" unicode="&#xe5;" horiz-adv-x="578" 
d="M193 -5q-76 0 -114.5 37t-38.5 108q0 81 50 122t161 49l139 11v24q0 33 -6 54.5t-21 35t-41.5 19t-68.5 5.5q-74 0 -172 -19l-9 85q59 11 107.5 15.5t96.5 4.5q118 0 174.5 -44.5t56.5 -137.5v-364h-95l-12 68h-7q-52 -38 -102 -55.5t-98 -17.5zM240 80q35 0 73.5 13.5
t76.5 39.5v123l-102 -9q-36 -3 -61 -9.5t-40 -18t-21.5 -28t-6.5 -39.5q0 -38 19.5 -55t61.5 -17zM290 595q-28 0 -52.5 8t-42.5 23t-28 35t-10 44q0 25 10 45.5t28 35.5t42.5 23.5t52.5 8.5t52 -8.5t41.5 -23.5t27.5 -35.5t10 -45.5q0 -24 -10 -44t-27.5 -35t-41.5 -23
t-52 -8zM290 644q73 0 73 61q0 63 -73 63q-75 0 -75 -63q0 -61 75 -61z" />
    <glyph glyph-name="ring" unicode="&#x2da;" horiz-adv-x="366" 
d="M182 595q-28 0 -52.5 8t-42.5 23t-28 35t-10 44q0 25 10 45.5t28 35.5t42.5 23.5t52.5 8.5t52 -8.5t41.5 -23.5t27.5 -35.5t10 -45.5q0 -24 -10 -44t-27.5 -35t-41.5 -23t-52 -8zM182 644q73 0 73 61q0 63 -73 63q-75 0 -75 -63q0 -61 75 -61z" />
    <glyph glyph-name="aringacute" unicode="&#x1fb;" horiz-adv-x="578" 
d="M193 -5q-76 0 -114.5 37t-38.5 108q0 81 50 122t161 49l139 11v24q0 33 -6 54.5t-21 35t-41.5 19t-68.5 5.5q-74 0 -172 -19l-9 85q59 11 107.5 15.5t96.5 4.5q118 0 174.5 -44.5t56.5 -137.5v-364h-95l-12 68h-7q-52 -38 -102 -55.5t-98 -17.5zM289 595q-28 0 -52.5 8
t-42.5 23t-28 35t-10 44q0 46 33.5 76.5t84.5 35.5l58 159h121l-96 -174q29 -14 46 -39.5t17 -57.5q0 -24 -10 -44t-27.5 -35t-41.5 -23t-52 -8zM240 80q35 0 73.5 13.5t76.5 39.5v123l-102 -9q-36 -3 -61 -9.5t-40 -18t-21.5 -28t-6.5 -39.5q0 -38 19.5 -55t61.5 -17z
M289 644q73 0 73 61q0 63 -73 63q-75 0 -75 -63q0 -61 75 -61z" />
    <glyph glyph-name="arrowdown" unicode="&#x2193;" horiz-adv-x="663" 
d="M27 364l61 61l201 -217l-3 520h91l-4 -520l202 217l61 -61l-290 -289h-29z" />
    <glyph glyph-name="arrowleft" unicode="&#x2190;" horiz-adv-x="733" 
d="M30 391v29l288 290l62 -60l-217 -202l520 3v-91l-520 4l217 -202l-62 -61z" />
    <glyph glyph-name="arrowright" unicode="&#x2192;" horiz-adv-x="733" 
d="M354 162l216 202l-519 -4v91l519 -3l-216 202l61 60l289 -290v-29l-289 -290z" />
    <glyph glyph-name="arrowup" unicode="&#x2191;" horiz-adv-x="663" 
d="M290 595l-202 -217l-60 62l289 288h30l290 -288l-62 -62l-201 217l3 -520h-90z" />
    <glyph glyph-name="asciicircum" unicode="^" horiz-adv-x="532" 
d="M214 789h104l170 -308h-86l-134 228h-4l-133 -228h-87z" />
    <glyph glyph-name="asciitilde" unicode="~" horiz-adv-x="700" 
d="M58 280q30 32 54 53t45.5 34t42.5 18t45 5q33 0 59 -12t50 -26t47 -26t50 -12q36 0 70 19t55 51l66 -39q-14 -21 -33 -43.5t-42.5 -40.5t-50 -29.5t-55.5 -11.5q-35 0 -63 12t-52 26t-45.5 26t-45.5 12q-34 0 -65 -16.5t-70 -54.5z" />
    <glyph glyph-name="asterisk" unicode="*" horiz-adv-x="503" 
d="M102 478l47 65l77 74l-106 13l-75 24l21 66l76 -24l94 -51l-19 107v79h70v-79l-20 -106l94 50l75 24l22 -66l-75 -24l-106 -13l77 -74l47 -65l-56 -40l-46 63l-48 100l-47 -100l-46 -63z" />
    <glyph glyph-name="at" unicode="@" horiz-adv-x="919" 
d="M446 -133q-92 0 -165.5 27t-124.5 78t-78.5 123.5t-27.5 164.5q0 96 29.5 172t84 129.5t133 82t177.5 28.5q92 0 164 -24.5t122 -72t76 -115.5t26 -155q0 -122 -50 -187t-144 -65q-30 0 -51.5 8.5t-35 22t-20.5 28.5t-8 29h-5q-13 -18 -32 -33.5t-41.5 -26.5t-47.5 -17
t-49 -6q-64 0 -102 44.5t-38 130.5q0 57 18.5 104t52 81.5t81 53.5t105.5 19q35 0 75 -8.5t80 -24.5l-40 -209l-5.5 -33t-2.5 -28q0 -35 16 -51.5t53 -16.5q55 0 85 47t30 138q0 143 -80 219t-232 76q-81 0 -145.5 -23.5t-110 -67.5t-69.5 -107t-24 -142q0 -75 22 -134.5
t63 -101t101 -63t135 -21.5q43 0 94.5 8.5t110.5 25.5l22 -70q-66 -18 -123 -27.5t-104 -9.5zM393 123q27 0 52 10.5t45.5 28.5t34.5 43.5t19 55.5l28 155q-22 6 -41 9.5t-35 3.5q-40 0 -73.5 -15t-58 -41t-38.5 -62t-14 -78q0 -54 21 -82t60 -28z" />
    <glyph glyph-name="atilde" unicode="&#xe3;" horiz-adv-x="578" 
d="M193 -5q-76 0 -114.5 37t-38.5 108q0 81 50 122t161 49l139 11v24q0 33 -6 54.5t-21 35t-41.5 19t-68.5 5.5q-74 0 -172 -19l-9 85q59 11 107.5 15.5t96.5 4.5q118 0 174.5 -44.5t56.5 -137.5v-364h-95l-12 68h-7q-52 -38 -102 -55.5t-98 -17.5zM240 80q35 0 73.5 13.5
t76.5 39.5v123l-102 -9q-36 -3 -61 -9.5t-40 -18t-21.5 -28t-6.5 -39.5q0 -38 19.5 -55t61.5 -17zM64 677q32 47 69.5 69t73.5 22q26 0 50 -6.5t46.5 -14t45.5 -13.5t48 -6q26 0 50 8.5t51 28.5l24 -30q-32 -45 -71.5 -68t-77.5 -23q-24 0 -47.5 6.5t-47 14t-47 14
t-47.5 6.5t-47 -8.5t-49 -28.5z" />
    <glyph glyph-name="tilde" unicode="&#x2dc;" horiz-adv-x="541" 
d="M37 677q32 47 69.5 69t73.5 22q26 0 50 -6.5t46.5 -14t45.5 -13.5t48 -6q26 0 50 8.5t51 28.5l24 -30q-32 -45 -71.5 -68t-77.5 -23q-24 0 -47.5 6.5t-47 14t-47 14t-47.5 6.5t-47 -8.5t-49 -28.5z" />
    <glyph glyph-name="b" unicode="b" horiz-adv-x="660" 
d="M322 -11q-50 0 -107.5 4.5t-139.5 18.5v796h117v-329q63 71 180 71q118 0 180 -67t62 -207q0 -73 -21 -127t-59.5 -89.5t-92.5 -53t-119 -17.5zM320 73q45 0 78.5 10t55 33.5t32 61t10.5 91.5q0 52 -8.5 88t-27.5 58t-48 32t-70 10q-31 0 -58 -7.5t-47.5 -21t-32.5 -33
t-12 -44.5v-268q23 -4 56.5 -7t71.5 -3z" />
    <glyph glyph-name="backslash" unicode="\" horiz-adv-x="437" 
d="M30 740h102l274 -860h-102z" />
    <glyph glyph-name="bar" unicode="|" horiz-adv-x="289" 
d="M200 808v-1028h-110v1028h110z" />
    <glyph glyph-name="bar.tab" horiz-adv-x="298" 
d="M204 808v-1028h-111v1028h111z" />
    <glyph glyph-name="braceleft" unicode="{" horiz-adv-x="365" 
d="M36 402q71 0 71 99v240q0 69 25 98t85 29q9 0 26 -0.5t34 -1.5t31 -1.5t19 -1.5v-76h-79q-24 0 -34.5 -10t-10.5 -32v-269q0 -47 -21.5 -81t-59.5 -41q38 -5 59.5 -38.5t21.5 -80.5v-272q0 -22 10.5 -32t34.5 -10h79v-76q-5 -1 -18.5 -2t-30.5 -1.5t-33.5 -1t-25.5 -0.5
q-60 0 -86 29t-26 98v243q0 98 -71 98v94z" />
    <glyph glyph-name="braceleft.sc" horiz-adv-x="350" 
d="M45 320q60 0 60 75v182q0 54 22.5 77t74.5 23q8 0 22.5 -0.5t29.5 -1t27.5 -1t16.5 -1.5v-71h-64q-37 0 -37 -32v-199q0 -37 -19.5 -63.5t-51.5 -31.5q32 -4 51.5 -30t19.5 -62v-202q0 -33 37 -33h64v-70q-4 -1 -16.5 -1.5t-27.5 -1t-29.5 -1t-22.5 -0.5q-52 0 -74.5 23
t-22.5 77v184q0 74 -60 74v87z" />
    <glyph glyph-name="braceright" unicode="}" horiz-adv-x="365" 
d="M329 308q-70 0 -70 -98v-243q0 -69 -26 -98t-86 -29q-9 0 -25.5 0.5t-33.5 1t-31.5 1.5t-18.5 2v76h79q24 0 34.5 10t10.5 32v272q0 47 21.5 80.5t59.5 38.5q-38 7 -59.5 41t-21.5 81v269q0 22 -10.5 32t-34.5 10h-79v76q4 1 18.5 1.5t31.5 1.5t34 1.5t26 0.5
q60 0 85.5 -29t25.5 -98v-240q0 -99 70 -99v-94z" />
    <glyph glyph-name="braceright.sc" horiz-adv-x="349" 
d="M305 233q-60 0 -60 -74v-184q0 -54 -22.5 -77t-75.5 -23q-8 0 -22.5 0.5t-29.5 1t-27 1t-16 1.5v70h65q37 0 37 33v202q0 36 18.5 62t51.5 30q-33 5 -51.5 31.5t-18.5 63.5v199q0 32 -37 32h-65v71q4 1 16 1.5t27 1l30 1t23 0.5q53 0 75 -23t22 -77v-182q0 -75 60 -75
v-87z" />
    <glyph glyph-name="bracketleft" unicode="[" horiz-adv-x="347" 
d="M90 868h225v-81h-132v-866h132v-81h-225v1028z" />
    <glyph glyph-name="bracketleft.sc" horiz-adv-x="349" 
d="M98 677h204v-75h-115v-652h115v-75h-204v802z" />
    <glyph glyph-name="bracketright" unicode="]" horiz-adv-x="346" 
d="M32 -160v81h132v866h-132v81h225v-1028h-225z" />
    <glyph glyph-name="bracketright.sc" horiz-adv-x="348" 
d="M46 -125v75h116v652h-116v75h204v-802h-204z" />
    <glyph glyph-name="brokenbar" unicode="&#xa6;" horiz-adv-x="291" 
d="M91 203h110v-423h-110v423zM91 808h110v-423h-110v423z" />
    <glyph glyph-name="bullet" unicode="&#x2022;" horiz-adv-x="359" 
d="M180 275q-43 0 -70 22.5t-27 72.5t27 72.5t70 22.5q42 0 69 -22.5t27 -72.5t-27 -72.5t-69 -22.5z" />
    <glyph glyph-name="c" unicode="c" horiz-adv-x="519" 
d="M320 -9q-273 0 -273 278q0 280 273 280q39 0 80.5 -4t73.5 -12v-95q-35 6 -71 9.5t-71 3.5q-88 0 -128.5 -43.5t-40.5 -137.5q0 -96 39 -138.5t128 -42.5q43 0 75.5 2.5t68.5 9.5v-94q-28 -8 -70 -12t-84 -4z" />
    <glyph glyph-name="cacute" unicode="&#x107;" horiz-adv-x="519" 
d="M261 616l68 186h121l-106 -193zM320 -9q-273 0 -273 278q0 280 273 280q39 0 80.5 -4t73.5 -12v-95q-35 6 -71 9.5t-71 3.5q-88 0 -128.5 -43.5t-40.5 -137.5q0 -96 39 -138.5t128 -42.5q43 0 75.5 2.5t68.5 9.5v-94q-28 -8 -70 -12t-84 -4z" />
    <glyph glyph-name="caron" unicode="&#x2c7;" horiz-adv-x="466" 
d="M45 775l186 -76l187 76v-86l-187 -76l-186 76v86z" />
    <glyph glyph-name="ccaron" unicode="&#x10d;" horiz-adv-x="519" 
d="M108 775l186 -76l187 76v-86l-187 -76l-186 76v86zM320 -9q-273 0 -273 278q0 280 273 280q39 0 80.5 -4t73.5 -12v-95q-35 6 -71 9.5t-71 3.5q-88 0 -128.5 -43.5t-40.5 -137.5q0 -96 39 -138.5t128 -42.5q43 0 75.5 2.5t68.5 9.5v-94q-28 -8 -70 -12t-84 -4z" />
    <glyph glyph-name="ccedilla" unicode="&#xe7;" horiz-adv-x="519" 
d="M262 -220q-21 0 -48 3.5t-52 8.5v74q17 -5 36.5 -8.5t40.5 -3.5q37 0 52 12t15 39q0 18 -8.5 39t-29.5 50q-221 24 -221 275q0 280 273 280q39 0 80.5 -4t73.5 -12v-95q-35 6 -71 9.5t-71 3.5q-88 0 -128.5 -43.5t-40.5 -137.5q0 -96 39 -138.5t128 -42.5q43 0 75.5 2.5
t68.5 9.5v-94q-23 -6 -56.5 -10t-68.5 -5q23 -34 31.5 -54.5t8.5 -43.5q0 -54 -33.5 -84t-93.5 -30z" />
    <glyph glyph-name="ccircumflex" unicode="&#x109;" horiz-adv-x="519" 
d="M112 710l185 77l188 -77v-86l-187 76l-186 -76v86zM320 -9q-273 0 -273 278q0 280 273 280q39 0 80.5 -4t73.5 -12v-95q-35 6 -71 9.5t-71 3.5q-88 0 -128.5 -43.5t-40.5 -137.5q0 -96 39 -138.5t128 -42.5q43 0 75.5 2.5t68.5 9.5v-94q-28 -8 -70 -12t-84 -4z" />
    <glyph glyph-name="cdotaccent" unicode="&#x10b;" horiz-adv-x="519" 
d="M320 -9q-273 0 -273 278q0 280 273 280q39 0 80.5 -4t73.5 -12v-95q-35 6 -71 9.5t-71 3.5q-88 0 -128.5 -43.5t-40.5 -137.5q0 -96 39 -138.5t128 -42.5q43 0 75.5 2.5t68.5 9.5v-94q-28 -8 -70 -12t-84 -4zM296 640q-37 0 -54 16.5t-17 53.5q0 68 71 68t71 -68
q0 -70 -71 -70z" />
    <glyph glyph-name="dotaccent" unicode="&#x2d9;" horiz-adv-x="274" 
d="M132 640q-37 0 -54 16.5t-17 53.5q0 68 71 68t71 -68q0 -70 -71 -70z" />
    <glyph glyph-name="cent" unicode="&#xa2;" horiz-adv-x="537" 
d="M281 -7q-233 18 -233 276q0 259 233 278v113h77v-112q31 -2 61.5 -6t55.5 -9v-95q-35 6 -71 9.5t-71 3.5q-88 0 -128.5 -43.5t-40.5 -137.5q0 -96 39 -138.5t128 -42.5q43 0 75.5 2.5t68.5 9.5v-94q-22 -6 -53 -9.5t-64 -5.5v-112h-77v113z" />
    <glyph glyph-name="cent.tab" 
d="M310 -7q-248 20 -248 276q0 258 248 278v113h80v-112q32 -2 65.5 -5.5t58.5 -9.5v-95q-37 6 -74.5 9.5t-74.5 3.5q-95 0 -139.5 -43.5t-44.5 -137.5q0 -96 43 -138.5t139 -42.5q45 0 79 2.5t72 9.5v-94q-21 -6 -54.5 -9.5t-69.5 -5.5v-112h-80v113z" />
    <glyph glyph-name="colon" unicode=":" horiz-adv-x="270" 
d="M135 -5q-32 0 -51.5 17t-19.5 50q0 35 19.5 51t51.5 16t52 -16.5t20 -50.5q0 -33 -20 -50t-52 -17zM135 411q-32 0 -51.5 17t-19.5 50q0 35 19.5 51t51.5 16t52 -16.5t20 -50.5q0 -33 -20 -50t-52 -17z" />
    <glyph glyph-name="period" unicode="." horiz-adv-x="260" 
d="M130 -5q-32 0 -51.5 17t-19.5 50q0 35 19.5 51t51.5 16t52 -16.5t20 -50.5q0 -33 -20 -50t-52 -17z" />
    <glyph glyph-name="colon.tab" horiz-adv-x="298" 
d="M148 -5q-32 0 -52 17t-20 50q0 35 20 51t52 16t52 -16.5t20 -50.5q0 -33 -20 -50t-52 -17zM148 411q-32 0 -52 17t-20 51t20 50t52 16t52 -16.5t20 -49.5q0 -34 -20 -51t-52 -17z" />
    <glyph glyph-name="colonmonetary" unicode="&#x20a1;" horiz-adv-x="642" 
d="M411 -10q-32 0 -60 3t-54 8l-16 -53h-74l23 75q-179 80 -179 345q0 192 89 288t266 96q11 0 25 -0.5t24 -1.5l18 58h73l-20 -66q15 -2 30.5 -4.5t32.5 -4.5v-99q-28 5 -50.5 8t-42.5 5l-169 -549q37 -9 84 -9q18 0 42.5 1.5t49.5 4.5t48 7t38 8v-98q-20 -5 -43 -9t-47 -7
t-46.5 -4.5t-41.5 -1.5zM173 369q0 -92 21.5 -151.5t67.5 -91.5l163 526h-7q-128 0 -186.5 -67.5t-58.5 -215.5z" />
    <glyph glyph-name="comma" unicode="," horiz-adv-x="261" 
d="M34 -145l45 271h119l-75 -281z" />
    <glyph glyph-name="comma.tab" horiz-adv-x="298" 
d="M60 -145l47 271h121l-79 -281z" />
    <glyph glyph-name="copyright" unicode="&#xa9;" horiz-adv-x="844" 
d="M437 163q-88 0 -136.5 50.5t-48.5 153.5t48.5 154.5t136.5 51.5q23 0 45.5 -2.5t42.5 -7.5v-63q-22 4 -42.5 6.5t-37.5 2.5q-119 0 -119 -141q0 -73 30.5 -106.5t87.5 -33.5q35 0 82 9v-63q-39 -11 -89 -11zM422 -11q-84 0 -152.5 27.5t-117 77.5t-75 120t-26.5 156
q0 85 26.5 155.5t75 120.5t117 77.5t152.5 27.5t152.5 -27.5t117 -77.5t75 -120.5t26.5 -155.5q0 -86 -26.5 -156t-75 -120t-117 -77.5t-152.5 -27.5zM422 51q70 0 127 23t96.5 64.5t61 100.5t21.5 131t-21.5 131t-61 101t-96.5 65t-127 23q-71 0 -127.5 -23t-96.5 -65
t-61.5 -101t-21.5 -131t21.5 -131t61.5 -100.5t96.5 -64.5t127.5 -23z" />
    <glyph glyph-name="currency" unicode="&#xa4;" horiz-adv-x="649" 
d="M60 157l55 53l46 34q-50 50 -50 126t50 124l-46 36l-55 53l51 51l54 -55l39 -54q49 27 120 27q35 0 65 -7t55 -20l39 54l55 55l51 -51l-55 -53l-49 -36q24 -23 37.5 -54.5t13.5 -69.5q0 -77 -50 -125l48 -35l55 -53l-51 -51l-55 55l-39 53q-25 -13 -54.5 -20t-64.5 -7
t-65.5 7t-55.5 20l-39 -53l-54 -55zM187 370q0 -57 37.5 -87.5t100.5 -30.5q62 0 98.5 30t36.5 88q0 55 -36 86t-99 31t-100.5 -30t-37.5 -87z" />
    <glyph glyph-name="currency.ss01" horiz-adv-x="710" 
d="M369 -10q-17 0 -34 0.5t-34 0.5v-141h-94v146l-56 4t-58 5v730l114 9v146h94v-142q12 1 24 1h24q14 0 27.5 -0.5t27.5 -1.5v143h95v-155q80 -19 116 -64.5t36 -123.5q0 -65 -34.5 -109t-97.5 -58v-4q78 -15 117.5 -60.5t39.5 -118.5q0 -159 -177 -196v-151h-95v141
q-9 -1 -17.5 -1h-17.5zM362 77q101 0 148.5 31.5t47.5 98.5q0 66 -43.5 97t-134.5 31h-172v-250q12 -2 26 -3.5t32 -2.5t41.5 -1.5t54.5 -0.5zM371 416q88 0 125.5 28t37.5 96q0 34 -9.5 57t-31 37.5t-56 21t-83.5 6.5q-47 0 -82 -1.5t-64 -6.5v-238h163z" />
    <glyph glyph-name="d" unicode="d" horiz-adv-x="661" 
d="M288 -10q-118 0 -180 66.5t-62 207.5q0 73 21 126.5t59.5 89t92.5 53t119 17.5q37 0 70.5 -3.5t59.5 -5.5v267h117v-808h-101l-10 70h-8q-56 -80 -178 -80zM318 80q31 0 58.5 7.5t47.5 22.5t32 36t12 48v259q-26 4 -60.5 7.5t-72.5 3.5q-44 0 -76 -10t-53 -33t-31.5 -60
t-10.5 -91q0 -53 8.5 -89t27.5 -58.5t48 -32.5t70 -10z" />
    <glyph glyph-name="dagger" unicode="&#x2020;" horiz-adv-x="588" 
d="M244 265v80l21 163l-171 -14h-61v86h61l171 -14l-22 163v79h101v-79l-21 -163l171 14h61v-86h-61l-171 14l21 -163v-80l-21 -200h-57z" />
    <glyph glyph-name="daggerdbl" unicode="&#x2021;" horiz-adv-x="638" 
d="M269 -119l20 163l-170 -14h-61v86h61l170 -14l-21 163v81l21 162l-170 -14h-61v86h61l170 -14l-21 163v79h100v-79l-21 -163l171 14h61v-86h-61l-171 14l22 -163v-80l-22 -163l171 14h61v-86h-61l-171 14l22 -163v-80h-100v80z" />
    <glyph glyph-name="dcaron" unicode="&#x10f;" horiz-adv-x="661" 
d="M653 808h95l-34 -228h-61v228zM288 -10q-118 0 -180 66.5t-62 207.5q0 73 21 126.5t59.5 89t92.5 53t119 17.5q37 0 70.5 -3.5t59.5 -5.5v267h117v-808h-101l-10 70h-8q-56 -80 -178 -80zM318 80q31 0 58.5 7.5t47.5 22.5t32 36t12 48v259q-26 4 -60.5 7.5t-72.5 3.5
q-44 0 -76 -10t-53 -33t-31.5 -60t-10.5 -91q0 -53 8.5 -89t27.5 -58.5t48 -32.5t70 -10z" />
    <glyph glyph-name="dcroat" unicode="&#x111;" horiz-adv-x="661" 
d="M273 709h195v99h117v-99h80v-71h-80v-638h-101l-10 70h-8q-56 -80 -178 -80q-118 0 -180 66.5t-62 207.5q0 73 21 126.5t59.5 89t92.5 53t119 17.5q37 0 70.5 -3.5t59.5 -5.5v97h-195v71zM318 80q31 0 58.5 7.5t47.5 22.5t32 36t12 48v259q-26 4 -60.5 7.5t-72.5 3.5
q-44 0 -76 -10t-53 -33t-31.5 -60t-10.5 -91q0 -53 8.5 -89t27.5 -58.5t48 -32.5t70 -10z" />
    <glyph glyph-name="ddotbelow" unicode="&#x1e0d;" horiz-adv-x="661" 
d="M328 -191q-30 0 -45 13.5t-15 44.5q0 59 60 59q61 0 61 -59q0 -31 -14.5 -44.5t-46.5 -13.5zM288 -10q-118 0 -180 66.5t-62 207.5q0 73 21 126.5t59.5 89t92.5 53t119 17.5q37 0 70.5 -3.5t59.5 -5.5v267h117v-808h-101l-10 70h-8q-56 -80 -178 -80zM318 80
q31 0 58.5 7.5t47.5 22.5t32 36t12 48v259q-26 4 -60.5 7.5t-72.5 3.5q-44 0 -76 -10t-53 -33t-31.5 -60t-10.5 -91q0 -53 8.5 -89t27.5 -58.5t48 -32.5t70 -10z" />
    <glyph glyph-name="degree" unicode="&#xb0;" horiz-adv-x="496" 
d="M248 376q-44 0 -81.5 14.5t-65.5 39t-43.5 58.5t-15.5 73t15.5 72.5t43.5 58.5t65.5 39t81.5 14t81.5 -14t65 -39t43 -58.5t15.5 -72.5t-15.5 -73t-43 -58.5t-65 -39t-81.5 -14.5zM248 444q57 0 91.5 33t34.5 84t-34.5 84t-91.5 33t-91.5 -33t-34.5 -84t34.5 -84
t91.5 -33z" />
    <glyph glyph-name="degree.tab" 
d="M297 376q-47 0 -87 14.5t-69 39t-46 58.5t-17 73t17 72.5t46 58.5t69 39t87 14t87 -14t69.5 -39t46.5 -58.5t17 -72.5t-17 -73t-46.5 -58.5t-69.5 -39t-87 -14.5zM297 444q61 0 98.5 33t37.5 84t-37.5 84t-98.5 33q-60 0 -97.5 -33t-37.5 -84t37.5 -84t97.5 -33z" />
    <glyph glyph-name="divide" unicode="&#xf7;" horiz-adv-x="531" 
d="M268 148q-23 0 -38 13.5t-15 40.5q0 26 15 39.5t38 13.5q24 0 39 -13.5t15 -39.5q0 -27 -15 -40.5t-39 -13.5zM61 408h410v-76h-410v76zM268 480q-23 0 -38 13.5t-15 39.5q0 27 15 41t38 14q24 0 39 -14.5t15 -40.5t-15 -39.5t-39 -13.5z" />
    <glyph glyph-name="divide.tab" 
d="M301 148q-26 0 -42 13.5t-16 40.5q0 26 16 39.5t42 13.5t42.5 -13.5t16.5 -39.5q0 -27 -16.5 -40.5t-42.5 -13.5zM62 408h472v-76h-472v76zM301 480q-26 0 -42 13.5t-16 39.5q0 27 16 41t42 14t42.5 -14.5t16.5 -40.5t-16.5 -39.5t-42.5 -13.5z" />
    <glyph glyph-name="dollar" unicode="$" horiz-adv-x="637" 
d="M272 -10q-52 2 -112 9.5t-114 19.5v98q151 -32 254 -32q175 0 175 107q0 32 -12.5 53.5t-35 36t-53 23.5t-66.5 16q-67 13 -114.5 32.5t-77.5 46.5t-44 63t-14 83q0 81 53.5 133.5t148.5 68.5v142h114v-136q38 -2 82.5 -8.5t102.5 -17.5v-98q-50 14 -106 21.5t-102 7.5
q-79 0 -123 -29.5t-44 -80.5q0 -26 8.5 -45t28 -34.5t51 -27.5t78.5 -23q55 -13 101 -29t79 -40.5t51.5 -60.5t18.5 -88q0 -90 -54.5 -141.5t-160.5 -65.5v-144h-113v140z" />
    <glyph glyph-name="dollar.tab" 
d="M250 -9q-54 2 -110.5 9t-108.5 19v98q72 -16 135 -24t112 -8q169 0 169 107q0 32 -12 53t-34 35t-51.5 23.5t-63.5 17.5q-65 13 -111.5 32.5t-76 46.5t-43 63t-13.5 83q0 81 53 133.5t144 67.5v143h113v-136q36 -2 81 -8.5t99 -17.5v-98q-49 14 -103.5 21.5t-99.5 7.5
q-77 0 -120 -29.5t-43 -80.5q0 -26 8.5 -45t27.5 -34.5t50 -27.5t76 -23q54 -12 99 -28t77 -40.5t49.5 -61t17.5 -88.5q0 -89 -53 -141t-156 -65v-145h-112v141z" />
    <glyph glyph-name="dotlessi" unicode="&#x131;" horiz-adv-x="270" 
d="M76 540h118v-540h-118v540z" />
    <glyph glyph-name="dotlessj" unicode="&#x237;" horiz-adv-x="267" 
d="M15 -200q16 39 28 75.5t19.5 77t11 86.5t3.5 105v33.5v63v80t-0.5 85t-1 77t-0.5 57.5h117v-457q-5 -85 -27.5 -160t-62.5 -143z" />
    <glyph glyph-name="e" unicode="e" horiz-adv-x="591" 
d="M320 -9q-273 0 -273 274q0 138 68.5 211t199.5 73q230 0 230 -241q0 -23 -1.5 -41.5t-6.5 -32.5h-374q3 -41 14.5 -70t32 -47t51.5 -26t74 -8q44 0 94 7t92 19l5 -86q-46 -15 -100.5 -23.5t-105.5 -8.5zM311 464q-70 0 -106.5 -38.5t-41.5 -120.5h276q-3 86 -32.5 122.5
t-95.5 36.5z" />
    <glyph glyph-name="eacute" unicode="&#xe9;" horiz-adv-x="591" 
d="M276 616l68 186h121l-106 -193zM320 -9q-273 0 -273 274q0 138 68.5 211t199.5 73q230 0 230 -241q0 -23 -1.5 -41.5t-6.5 -32.5h-374q3 -41 14.5 -70t32 -47t51.5 -26t74 -8q44 0 94 7t92 19l5 -86q-46 -15 -100.5 -23.5t-105.5 -8.5zM311 464q-70 0 -106.5 -38.5
t-41.5 -120.5h276q-3 86 -32.5 122.5t-95.5 36.5z" />
    <glyph glyph-name="ebreve" unicode="&#x115;" horiz-adv-x="591" 
d="M320 -9q-273 0 -273 274q0 138 68.5 211t199.5 73q230 0 230 -241q0 -23 -1.5 -41.5t-6.5 -32.5h-374q3 -41 14.5 -70t32 -47t51.5 -26t74 -8q44 0 94 7t92 19l5 -86q-46 -15 -100.5 -23.5t-105.5 -8.5zM311 464q-70 0 -106.5 -38.5t-41.5 -120.5h276q-3 86 -32.5 122.5
t-95.5 36.5zM306 617q-56 0 -94.5 12t-63 33.5t-35.5 51.5t-11 66h82q0 -54 29.5 -78t92.5 -24t92.5 24t29.5 78h83q0 -36 -11 -66t-35.5 -51.5t-63.5 -33.5t-95 -12z" />
    <glyph glyph-name="ecaron" unicode="&#x11b;" horiz-adv-x="591" 
d="M124 775l186 -76l187 76v-86l-187 -76l-186 76v86zM320 -9q-273 0 -273 274q0 138 68.5 211t199.5 73q230 0 230 -241q0 -23 -1.5 -41.5t-6.5 -32.5h-374q3 -41 14.5 -70t32 -47t51.5 -26t74 -8q44 0 94 7t92 19l5 -86q-46 -15 -100.5 -23.5t-105.5 -8.5zM311 464
q-70 0 -106.5 -38.5t-41.5 -120.5h276q-3 86 -32.5 122.5t-95.5 36.5z" />
    <glyph glyph-name="ecircumflex" unicode="&#xea;" horiz-adv-x="591" 
d="M124 710l185 77l188 -77v-86l-187 76l-186 -76v86zM320 -9q-273 0 -273 274q0 138 68.5 211t199.5 73q230 0 230 -241q0 -23 -1.5 -41.5t-6.5 -32.5h-374q3 -41 14.5 -70t32 -47t51.5 -26t74 -8q44 0 94 7t92 19l5 -86q-46 -15 -100.5 -23.5t-105.5 -8.5zM311 464
q-70 0 -106.5 -38.5t-41.5 -120.5h276q-3 86 -32.5 122.5t-95.5 36.5z" />
    <glyph glyph-name="edblgrave" unicode="&#x205;" horiz-adv-x="591" 
d="M160 614l-108 194h123l68 -184zM366 614l-108 194h123l68 -184zM320 -9q-273 0 -273 274q0 138 68.5 211t199.5 73q230 0 230 -241q0 -23 -1.5 -41.5t-6.5 -32.5h-374q3 -41 14.5 -70t32 -47t51.5 -26t74 -8q44 0 94 7t92 19l5 -86q-46 -15 -100.5 -23.5t-105.5 -8.5z
M311 464q-70 0 -106.5 -38.5t-41.5 -120.5h276q-3 86 -32.5 122.5t-95.5 36.5z" />
    <glyph glyph-name="edieresis" unicode="&#xeb;" horiz-adv-x="591" 
d="M173 646q-63 0 -63 64q0 61 63 61q64 0 64 -61q0 -64 -64 -64zM437 646q-63 0 -63 64q0 61 63 61q64 0 64 -61q0 -64 -64 -64zM320 -9q-273 0 -273 274q0 138 68.5 211t199.5 73q230 0 230 -241q0 -23 -1.5 -41.5t-6.5 -32.5h-374q3 -41 14.5 -70t32 -47t51.5 -26t74 -8
q44 0 94 7t92 19l5 -86q-46 -15 -100.5 -23.5t-105.5 -8.5zM311 464q-70 0 -106.5 -38.5t-41.5 -120.5h276q-3 86 -32.5 122.5t-95.5 36.5z" />
    <glyph glyph-name="edotaccent" unicode="&#x117;" horiz-adv-x="591" 
d="M320 -9q-273 0 -273 274q0 138 68.5 211t199.5 73q230 0 230 -241q0 -23 -1.5 -41.5t-6.5 -32.5h-374q3 -41 14.5 -70t32 -47t51.5 -26t74 -8q44 0 94 7t92 19l5 -86q-46 -15 -100.5 -23.5t-105.5 -8.5zM311 464q-70 0 -106.5 -38.5t-41.5 -120.5h276q-3 86 -32.5 122.5
t-95.5 36.5zM312 640q-37 0 -54 16.5t-17 53.5q0 68 71 68t71 -68q0 -70 -71 -70z" />
    <glyph glyph-name="edotbelow" unicode="&#x1eb9;" horiz-adv-x="591" 
d="M320 -9q-273 0 -273 274q0 138 68.5 211t199.5 73q230 0 230 -241q0 -23 -1.5 -41.5t-6.5 -32.5h-374q3 -41 14.5 -70t32 -47t51.5 -26t74 -8q44 0 94 7t92 19l5 -86q-46 -15 -100.5 -23.5t-105.5 -8.5zM311 464q-70 0 -106.5 -38.5t-41.5 -120.5h276q-3 86 -32.5 122.5
t-95.5 36.5zM320 -191q-30 0 -45 13.5t-15 44.5q0 59 60 59q61 0 61 -59q0 -31 -14.5 -44.5t-46.5 -13.5z" />
    <glyph glyph-name="egrave" unicode="&#xe8;" horiz-adv-x="591" 
d="M320 -9q-273 0 -273 274q0 138 68.5 211t199.5 73q230 0 230 -241q0 -23 -1.5 -41.5t-6.5 -32.5h-374q3 -41 14.5 -70t32 -47t51.5 -26t74 -8q44 0 94 7t92 19l5 -86q-46 -15 -100.5 -23.5t-105.5 -8.5zM311 464q-70 0 -106.5 -38.5t-41.5 -120.5h276q-3 86 -32.5 122.5
t-95.5 36.5zM260 614l-107 194h126l68 -184z" />
    <glyph glyph-name="eight" unicode="8" horiz-adv-x="675" 
d="M338 -7q-287 0 -287 199q0 42 12.5 73t32 54.5t43 39t46.5 25.5q-23 12 -43 27.5t-34.5 36.5t-22.5 48.5t-8 62.5q0 46 20 82t55.5 60t84.5 36.5t108 12.5q58 0 104.5 -12.5t79.5 -36.5t51 -60t18 -83q0 -36 -9.5 -64.5t-25.5 -50t-36.5 -37t-42.5 -26.5
q29 -11 54.5 -26.5t44 -37t29.5 -50.5t11 -67q0 -99 -71 -152.5t-214 -53.5zM272 351q-15 -7 -33.5 -18t-35 -28.5t-27.5 -42.5t-11 -58q0 -66 47.5 -96t125.5 -30t125 29.5t47 86.5q0 35 -15.5 58.5t-42 39t-60.5 26.5t-70 20zM394 408q14 8 31 20t32 29.5t25 40.5t10 52
q0 58 -43.5 86.5t-110.5 28.5q-66 0 -110 -27.5t-44 -84.5q0 -35 16.5 -57.5t43.5 -38t62 -26t72 -19.5z" />
    <glyph glyph-name="eight.denominator" horiz-adv-x="530" 
d="M267 -4q-109 0 -166.5 36.5t-57.5 114.5q0 27 7.5 49t19.5 39t27.5 29t32.5 21q-32 18 -52 47t-20 73q0 74 57 111.5t152 37.5q91 0 146.5 -37.5t55.5 -111.5q0 -49 -22 -78t-50 -46q40 -19 65.5 -49t25.5 -81q0 -78 -57 -116.5t-164 -38.5zM267 70q56 0 87.5 20.5
t31.5 63.5q0 20 -10 34t-27.5 24.5t-42 18t-52.5 15.5l-34 9q-9 -5 -22 -12.5t-24.5 -19t-20 -28t-8.5 -38.5q0 -44 33 -65.5t89 -21.5zM299 305q8 4 19.5 12t22.5 20t18.5 28t7.5 37q0 39 -28 58t-72 19q-47 0 -77 -18.5t-30 -56.5q0 -22 9.5 -36.5t26 -25t38.5 -18
t47 -14.5z" />
    <glyph glyph-name="eight.numerator" horiz-adv-x="530" 
d="M267 196q-109 0 -166.5 36.5t-57.5 114.5q0 27 7.5 49t19.5 39t27.5 29t32.5 21q-32 18 -52 47t-20 73q0 74 57 111.5t152 37.5q91 0 146.5 -37.5t55.5 -111.5q0 -49 -22 -78t-50 -46q40 -19 65.5 -49t25.5 -81q0 -78 -57 -116.5t-164 -38.5zM267 270q56 0 87.5 20.5
t31.5 63.5q0 20 -10 34t-27.5 24.5t-42 18t-52.5 15.5l-34 9q-9 -5 -22 -12.5t-24.5 -19t-20 -28t-8.5 -38.5q0 -44 33 -65.5t89 -21.5zM299 505q8 4 19.5 12t22.5 20t18.5 28t7.5 37q0 39 -28 58t-72 19q-47 0 -77 -18.5t-30 -56.5q0 -22 9.5 -36.5t26 -25t38.5 -18
t47 -14.5z" />
    <glyph glyph-name="eight.osf" horiz-adv-x="671" 
d="M336 -7q-287 0 -287 184q0 60 36 106.5t99 73.5q-59 28 -83.5 66t-24.5 93q0 40 18.5 73t53.5 56t84 35.5t111 12.5q120 0 187 -47t67 -131q0 -110 -119 -167q78 -29 110.5 -68t32.5 -96q0 -94 -72.5 -142.5t-212.5 -48.5zM273 325q-51 -21 -81 -57.5t-30 -79.5
q0 -54 46 -82t128 -28q78 0 125 26.5t47 74.5q0 25 -9.5 44.5t-31.5 35t-57.5 29t-86.5 25.5zM392 375q43 20 70.5 55t27.5 73q0 50 -40.5 78t-113.5 28q-72 0 -113 -27t-41 -76q0 -30 16 -50t42.5 -33.5t60.5 -23.5t71 -19z" />
    <glyph glyph-name="eight.tf" 
d="M297 -7q-137 0 -203 49.5t-66 149.5q0 40 10.5 71.5t27.5 55t39.5 40t46.5 27.5q-44 24 -72 64t-28 109q0 46 18.5 82t52 60t80 36.5t102.5 12.5q109 0 174 -48.5t65 -142.5q0 -37 -8.5 -65.5t-23.5 -50t-34.5 -37t-40.5 -26.5q28 -12 51.5 -28t41 -38t27.5 -50.5
t10 -65.5q0 -98 -66.5 -151.5t-203.5 -53.5zM297 78q73 0 115.5 29.5t42.5 86.5q0 40 -18 64.5t-48 41t-69 28t-80 24.5q-10 -5 -27.5 -15t-34 -27.5t-28.5 -43t-12 -62.5q0 -65 44 -95.5t115 -30.5zM298 665q-61 0 -101 -27.5t-40 -83.5q0 -36 15 -59.5t41 -39.5
t60.5 -26.5t73.5 -20.5q10 6 26 17.5t31 28.5t25.5 40.5t10.5 55.5q0 58 -40.5 86.5t-101.5 28.5z" />
    <glyph glyph-name="eight.tosf" 
d="M295 -7q-134 0 -200.5 47t-66.5 135q0 63 32.5 109.5t92.5 72.5q-55 28 -78 66.5t-23 86.5q0 45 18.5 79t52 57.5t79.5 35t101 11.5q114 0 177.5 -46.5t63.5 -131.5q0 -54 -28 -96.5t-83 -70.5q74 -30 104 -69t30 -96q0 -94 -68.5 -142t-203.5 -48zM298 78q71 0 114 26
t43 77q0 38 -23.5 62t-56.5 39t-69 24.5t-62 18.5q-48 -17 -77 -55t-29 -83q0 -54 42.5 -81.5t117.5 -27.5zM296 609q-65 0 -102 -27t-37 -76q0 -30 15 -50t41 -34.5t60.5 -24.5t73.5 -21q38 17 65.5 51.5t27.5 77.5q0 48 -38 76t-106 28z" />
    <glyph glyph-name="eightinferior" unicode="&#x2088;" horiz-adv-x="530" 
d="M267 -104q-109 0 -166.5 36.5t-57.5 114.5q0 27 7.5 49t19.5 39t27.5 29t32.5 21q-32 18 -52 47t-20 73q0 74 57 111.5t152 37.5q91 0 146.5 -37.5t55.5 -111.5q0 -49 -22 -78t-50 -46q40 -19 65.5 -49t25.5 -81q0 -78 -57 -116.5t-164 -38.5zM267 -30q56 0 87.5 20.5
t31.5 63.5q0 20 -9.5 34t-27 24.5t-41.5 18t-53 15.5l-35 9q-9 -5 -22 -12.5t-24.5 -19t-20 -28t-8.5 -38.5q0 -44 33 -65.5t89 -21.5zM299 205q8 4 19.5 12t22.5 20t18.5 28t7.5 37q0 39 -28 58t-72 19q-47 0 -77 -18.5t-30 -56.5q0 -22 9.5 -37t25.5 -25.5t38 -17.5
t47 -14z" />
    <glyph glyph-name="eightsuperior" unicode="&#x2078;" horiz-adv-x="530" 
d="M267 296q-109 0 -166.5 36.5t-57.5 114.5q0 27 7.5 49t19.5 39t27.5 29t32.5 21q-32 18 -52 47t-20 73q0 74 57 111.5t152 37.5q91 0 146.5 -37.5t55.5 -111.5q0 -49 -22 -78t-50 -46q40 -19 65.5 -49t25.5 -81q0 -78 -57 -116.5t-164 -38.5zM267 370q56 0 87.5 20.5
t31.5 63.5q0 20 -10 34t-27.5 24.5t-42 18t-52.5 15.5l-34 9q-9 -5 -22 -12.5t-24.5 -19t-20 -28t-8.5 -38.5q0 -44 33 -65.5t89 -21.5zM299 605q8 4 19.5 12t22.5 20t18.5 28t7.5 37q0 39 -28 58t-72 19q-47 0 -77 -18.5t-30 -56.5q0 -22 9.5 -37t25.5 -25.5t38 -17.5
t47 -14z" />
    <glyph glyph-name="einvertedbreve" unicode="&#x207;" horiz-adv-x="591" 
d="M102 627q0 36 11 66t35.5 51.5t63.5 33.5t95 12q55 0 94 -12t64 -33.5t36 -51.5t11 -66h-84q0 54 -29 78t-92 24t-92.5 -24t-29.5 -78h-83zM320 -9q-273 0 -273 274q0 138 68.5 211t199.5 73q230 0 230 -241q0 -23 -1.5 -41.5t-6.5 -32.5h-374q3 -41 14.5 -70t32 -47
t51.5 -26t74 -8q44 0 94 7t92 19l5 -86q-46 -15 -100.5 -23.5t-105.5 -8.5zM311 464q-70 0 -106.5 -38.5t-41.5 -120.5h276q-3 86 -32.5 122.5t-95.5 36.5z" />
    <glyph glyph-name="ellipsis" unicode="&#x2026;" horiz-adv-x="751" 
d="M130 -5q-32 0 -51.5 17t-19.5 50q0 35 19.5 51t51.5 16t52 -16.5t20 -50.5q0 -33 -20 -50t-52 -17zM379 -5q-32 0 -51.5 17t-19.5 50q0 35 19.5 51t51.5 16t52 -16.5t20 -50.5q0 -33 -20 -50t-52 -17zM621 -5q-32 0 -51.5 17t-19.5 50q0 35 19.5 51t51.5 16t52 -16.5
t20 -50.5q0 -33 -20 -50t-52 -17z" />
    <glyph glyph-name="emacron" unicode="&#x113;" horiz-adv-x="591" 
d="M320 -9q-273 0 -273 274q0 138 68.5 211t199.5 73q230 0 230 -241q0 -23 -1.5 -41.5t-6.5 -32.5h-374q3 -41 14.5 -70t32 -47t51.5 -26t74 -8q44 0 94 7t92 19l5 -86q-46 -15 -100.5 -23.5t-105.5 -8.5zM311 464q-70 0 -106.5 -38.5t-41.5 -120.5h276q-3 86 -32.5 122.5
t-95.5 36.5zM124 731h370v-82h-370v82z" />
    <glyph glyph-name="emdash" unicode="&#x2014;" horiz-adv-x="840" 
d="M68 326h704v-92h-704v92z" />
    <glyph glyph-name="endash" unicode="&#x2013;" horiz-adv-x="669" 
d="M68 326h533v-92h-533v92z" />
    <glyph glyph-name="eng" unicode="&#x14b;" horiz-adv-x="662" 
d="M416 -203q27 70 42.5 147t15.5 177v212q0 63 -18 86t-66 23q-39 0 -89 -12.5t-108 -35.5v-394h-117v540h97l7 -62h4q87 38 146 55t107 17q74 0 114.5 -38.5t40.5 -112.5v-334q-5 -77 -28 -153.5t-57 -130.5z" />
    <glyph glyph-name="eogonek" unicode="&#x119;" horiz-adv-x="592" 
d="M320 -9q-273 0 -273 274q0 138 68.5 211t199.5 73q230 0 230 -241q0 -23 -1.5 -41.5t-6.5 -32.5h-374q3 -41 14.5 -70t32 -47t51.5 -26t74 -8q44 0 94 7t92 19l5 -86v-16q-67 -32 -95.5 -57t-28.5 -51q0 -30 41 -30q14 0 37.5 3.5t44.5 8.5v-66q-16 -6 -37 -9t-44 -3
q-122 0 -122 85q0 29 15 54.5t48 51.5q-33 -3 -65 -3zM311 464q-70 0 -106.5 -38.5t-41.5 -120.5h276q-3 86 -32.5 122.5t-95.5 36.5z" />
    <glyph glyph-name="equal" unicode="=" horiz-adv-x="539" 
d="M71 285h398v-78h-398v78zM71 501h398v-78h-398v78z" />
    <glyph glyph-name="equal.tab" 
d="M74 285h446v-78h-446v78zM74 501h446v-78h-446v78z" />
    <glyph glyph-name="estimated" unicode="&#x212e;" horiz-adv-x="673" 
d="M343 1q-62 0 -114.5 23.5t-90.5 65.5t-60 99t-22 124q0 69 21 126.5t59 99t91 64.5t116 23t114.5 -22t89 -63t59.5 -98.5t25 -129.5h-447v-205q64 -66 159 -66q140 0 218 136l40 -24q-56 -80 -118 -116.5t-140 -36.5zM503 354v164q-71 68 -161 68q-93 0 -158 -68v-164
h319z" />
    <glyph glyph-name="eth" unicode="&#xf0;" horiz-adv-x="660" 
d="M219 691l152 15q-20 26 -41.5 51t-47.5 51h122q15 -17 33 -40t38 -52l162 16v-77l-119 -12q34 -65 58.5 -148t24.5 -186q0 -158 -71.5 -238.5t-207.5 -80.5q-133 0 -205 72t-72 207q0 134 71 207.5t196 73.5q60 0 100.5 -21t68.5 -68q-19 93 -64 173l-198 -19v76zM324 82
q83 0 121 48.5t38 154.5q0 77 -40.5 124.5t-120.5 47.5q-83 0 -120.5 -45t-37.5 -142q0 -98 37.5 -143t122.5 -45z" />
    <glyph glyph-name="etilde" unicode="&#x1ebd;" horiz-adv-x="591" 
d="M320 -9q-273 0 -273 274q0 138 68.5 211t199.5 73q230 0 230 -241q0 -23 -1.5 -41.5t-6.5 -32.5h-374q3 -41 14.5 -70t32 -47t51.5 -26t74 -8q44 0 94 7t92 19l5 -86q-46 -15 -100.5 -23.5t-105.5 -8.5zM311 464q-70 0 -106.5 -38.5t-41.5 -120.5h276q-3 86 -32.5 122.5
t-95.5 36.5zM80 677q32 47 69.5 69t73.5 22q26 0 50 -6.5t46.5 -14t45.5 -13.5t48 -6q26 0 50 8.5t51 28.5l24 -30q-32 -45 -71.5 -68t-77.5 -23q-24 0 -47.5 6.5t-47 14t-47 14t-47.5 6.5t-47 -8.5t-49 -28.5z" />
    <glyph glyph-name="exclam" unicode="!" horiz-adv-x="279" 
d="M142 -1q-29 0 -45.5 15.5t-16.5 44.5q0 28 16.5 43.5t45.5 15.5t45.5 -15.5t16.5 -43.5q0 -29 -16.5 -44.5t-45.5 -15.5zM103 215l-20 515v10h114v-10l-22 -515v-13h-72v13z" />
    <glyph glyph-name="exclamdown" unicode="&#xa1;" horiz-adv-x="264" 
d="M134 541q29 0 45.5 -15.5t16.5 -44.5q0 -28 -16.5 -43.5t-45.5 -15.5t-45.5 15.5t-16.5 43.5q0 29 16.5 44.5t45.5 15.5zM95 338h72v-13l22 -515v-10h-114v10l20 515v13z" />
    <glyph glyph-name="f" unicode="f" horiz-adv-x="436" 
d="M147 440h-130v100h131v23q0 73 13.5 120.5t47 76t90 40.5t141.5 14l6 -84q-55 -3 -90 -10t-55.5 -23t-28.5 -42.5t-8 -69.5v-45h157v-100h-157v-440h-117v440z" />
    <glyph glyph-name="f.calt" horiz-adv-x="436" 
d="M147 440h-130v100h131v23q0 73 13.5 120.5t47 76t90 40.5t141.5 14l6 -84q-55 -3 -90 -10t-55.5 -23t-28.5 -42.5t-8 -69.5v-45h157v-100h-157v-440h-117v440z" />
    <glyph glyph-name="h" unicode="h" horiz-adv-x="663" 
d="M76 808h116v-331q82 37 139 55t105 18q74 0 114.5 -38t40.5 -113v-399h-117v359q0 53 -21 75.5t-65 22.5q-36 0 -87.5 -14.5t-108.5 -39.5v-403h-116v808z" />
    <glyph glyph-name="i" unicode="i" horiz-adv-x="270" 
d="M135 639q-36 0 -52 15.5t-16 50.5t16 51t52 16t52.5 -16.5t16.5 -50.5q0 -32 -16.5 -49t-52.5 -17zM76 540h118v-540h-118v540z" />
    <glyph glyph-name="j" unicode="j" horiz-adv-x="267" 
d="M131 639q-36 0 -52 15.5t-16 50.5t16 51t52 16t52 -16.5t16 -50.5q0 -32 -16 -49t-52 -17zM15 -200q16 39 28 75.5t19.5 77t11 86.5t3.5 105v33.5v63v80t-0.5 85t-1 77t-0.5 57.5h117v-457q-5 -85 -27.5 -160t-62.5 -143z" />
    <glyph glyph-name="k" unicode="k" horiz-adv-x="606" 
d="M76 808h116v-492h91l177 224h132l-206 -253l-21 -8v-4l22 -8l221 -267h-131l-196 240h-89v-240h-116v808z" />
    <glyph glyph-name="l" unicode="l" horiz-adv-x="272" 
d="M77 808h117v-808h-117v808z" />
    <glyph glyph-name="t" unicode="t" horiz-adv-x="438" 
d="M301 -11q-84 0 -127 41t-43 121v289h-112v100h119l17 142l92 10v-152h162v-100h-161v-263q0 -51 21.5 -73.5t70.5 -22.5q35 0 75 13v-91q-25 -7 -55 -10.5t-59 -3.5z" />
    <glyph glyph-name="five" unicode="5" horiz-adv-x="588" 
d="M234 -11q-44 0 -90 4t-91 11v92h24q38 -7 73 -10.5t68 -3.5q102 0 151.5 30.5t49.5 111.5q0 34 -14.5 57t-45 36.5t-79 19.5t-116.5 8l-81 2l-13 13l29 380h409v-94h-320l-13 -207q94 -1 163 -12t115 -36t68.5 -67t22.5 -104q0 -66 -24 -110.5t-66 -71t-98.5 -38
t-121.5 -11.5z" />
    <glyph glyph-name="five.denominator" horiz-adv-x="463" 
d="M186 -8q-33 0 -70 3.5t-73 8.5v83h22q56 -10 108 -10q75 0 111.5 19.5t36.5 70.5q0 48 -40 67t-129 20l-82 2l-14 12l23 278h319v-85h-243l-9 -133q76 -1 129 -9.5t86.5 -27.5t49 -49.5t15.5 -75.5q0 -50 -19 -83t-51.5 -53.5t-76 -29t-93.5 -8.5z" />
    <glyph glyph-name="five.numerator" horiz-adv-x="463" 
d="M186 192q-33 0 -70 3.5t-73 8.5v83h22q56 -10 108 -10q75 0 111.5 19.5t36.5 70.5q0 48 -40 67t-129 20l-82 2l-14 12l23 278h319v-85h-243l-9 -133q76 -1 129 -9.5t86.5 -27.5t49 -49.5t15.5 -75.5q0 -50 -19 -83t-51.5 -53.5t-76 -29t-93.5 -8.5z" />
    <glyph glyph-name="five.osf" horiz-adv-x="571" 
d="M225 -167q-43 0 -89 4t-91 11v92h24q37 -8 72 -11t69 -3q101 0 150.5 30.5t49.5 111.5q0 34 -14.5 57t-45 36.5t-79 20t-116.5 8.5l-80 2l-14 12l30 380h408v-94h-319l-13 -207q93 -1 162.5 -12t115 -36t68 -67t22.5 -104q0 -66 -24 -110.5t-66 -71t-98.5 -38
t-121.5 -11.5z" />
    <glyph glyph-name="five.tf" 
d="M236 -11q-44 0 -90.5 4t-92.5 11v92h24q38 -7 73.5 -10.5t70.5 -3.5q103 0 153.5 30.5t50.5 111.5q0 34 -14.5 57.5t-46 38t-80.5 21t-118 7.5l-83 2l-12 12l29 378h412v-94h-322l-14 -207q95 -1 165 -12t116.5 -36t69 -67t22.5 -104q0 -66 -24 -110.5t-66 -71t-99.5 -38
t-123.5 -11.5z" />
    <glyph glyph-name="five.tosf" 
d="M236 -167q-44 0 -90.5 4t-92.5 11v92h24q38 -8 73.5 -11t70.5 -3q103 0 153.5 30.5t50.5 111.5q0 34 -14.5 57.5t-46 37.5t-80.5 20.5t-118 7.5l-83 2l-12 12l29 379h412v-94h-322l-14 -207q95 -1 165 -12t116.5 -36t69 -67t22.5 -104q0 -66 -24 -110.5t-66 -71
t-99.5 -38t-123.5 -11.5z" />
    <glyph glyph-name="fiveeighths" unicode="&#x215d;" horiz-adv-x="1205" 
d="M197 192q-33 0 -70 3.5t-73 8.5v83h22q56 -10 108 -10q75 0 111.5 19.5t36.5 70.5q0 48 -40 67t-129 20l-82 2l-14 12l23 278h319v-85h-243l-9 -133q76 -1 129 -9.5t86.5 -27.5t49 -49.5t15.5 -75.5q0 -50 -19 -83t-51.5 -53.5t-76 -29t-93.5 -8.5zM712 740h105
l-373 -740h-106zM942 -4q-109 0 -166.5 36.5t-57.5 114.5q0 27 7.5 49t19.5 39t27.5 29t32.5 21q-32 18 -52 47t-20 73q0 74 57 111.5t152 37.5q91 0 146.5 -37.5t55.5 -111.5q0 -49 -22 -78t-50 -46q40 -19 65.5 -49t25.5 -81q0 -78 -57 -116.5t-164 -38.5zM942 70
q56 0 87.5 20.5t31.5 63.5q0 20 -10 34t-27.5 24.5t-42 18t-52.5 15.5l-34 9q-9 -5 -22 -12.5t-24.5 -19t-20 -28t-8.5 -38.5q0 -44 33 -65.5t89 -21.5zM974 305q8 4 19.5 12t22.5 20t18.5 28t7.5 37q0 39 -28 58t-72 19q-47 0 -77 -18.5t-30 -56.5q0 -22 9.5 -36.5t26 -25
t38.5 -18t47 -14.5z" />
    <glyph glyph-name="fraction" unicode="&#x2044;" horiz-adv-x="282" 
d="M275 740h105l-373 -740h-106z" />
    <glyph glyph-name="fiveinferior" unicode="&#x2085;" horiz-adv-x="463" 
d="M186 -108q-33 0 -70 3.5t-73 8.5v82h22q58 -9 108 -9q75 0 111.5 19.5t36.5 70.5q0 48 -40 67t-129 20l-82 2l-14 12l23 278h319v-85h-243l-9 -133q76 -1 129 -9.5t86.5 -27.5t49 -49.5t15.5 -75.5q0 -50 -19 -83t-51.5 -53.5t-76 -29t-93.5 -8.5z" />
    <glyph glyph-name="fivesuperior" unicode="&#x2075;" horiz-adv-x="463" 
d="M186 292q-33 0 -70 3.5t-73 8.5v83h22q56 -10 108 -10q75 0 111.5 19.5t36.5 70.5q0 48 -40 67t-129 20l-82 2l-14 12l23 278h319v-85h-243l-9 -133q76 -1 129 -9.5t86.5 -27.5t49 -49.5t15.5 -75.5q0 -50 -19 -83t-51.5 -53.5t-76 -29t-93.5 -8.5z" />
    <glyph glyph-name="florin" unicode="&#x192;" horiz-adv-x="468" 
d="M161 440h-130v100h131v23q0 73 14 120.5t47.5 76t89.5 40.5t141 14l6 -84q-54 -3 -89.5 -10t-56 -23t-28.5 -42.5t-8 -69.5v-45h157v-100h-157v-616l-117 -44v660z" />
    <glyph glyph-name="four" unicode="4" horiz-adv-x="663" 
d="M23 234v8l249 508h4l114 -14l4 -13l-246 -462v-4h251l30 223h82v-223h123v-94h-123v-163h-116v163h-354z" />
    <glyph glyph-name="four.denominator" horiz-adv-x="516" 
d="M298 117h-262l-16 63l194 371l10 2l83 -10l8 -19l-186 -326h174l24 163h71v-163h93v-81h-93v-117h-100v117z" />
    <glyph glyph-name="four.numerator" horiz-adv-x="516" 
d="M298 317h-262l-16 63l194 371l10 2l83 -10l8 -19l-186 -326h174l24 163h71v-163h93v-81h-93v-117h-100v117z" />
    <glyph glyph-name="four.osf" horiz-adv-x="660" 
d="M22 89v9l249 495h4l113 -15l5 -12l-246 -449v-4h248l33 222h82v-222h123v-94h-123v-180h-117v180h-353z" />
    <glyph glyph-name="four.tf" 
d="M2 234v8l237 508h4l113 -14l5 -13l-235 -462v-4h238l25 223h82v-223h117v-94h-117v-163h-116v163h-334z" />
    <glyph glyph-name="four.tosf" 
d="M2 89v9l237 495h4l112 -15l5 -12l-234 -449v-4h237l4 33l22 189h81v-222h117v-94h-117v-180h-115v180h-336z" />
    <glyph glyph-name="fourinferior" unicode="&#x2084;" horiz-adv-x="516" 
d="M298 17h-262l-16 63l194 371l10 2l83 -10l8 -19l-186 -326h174l24 163h71v-163h93v-81h-93v-117h-100v117z" />
    <glyph glyph-name="foursuperior" unicode="&#x2074;" horiz-adv-x="516" 
d="M298 417h-262l-16 63l194 371l10 2l83 -10l8 -19l-186 -326h174l24 163h71v-163h93v-81h-93v-117h-100v117z" />
    <glyph glyph-name="franc" unicode="&#x20a3;" horiz-adv-x="710" 
d="M34 195h114v545h520v-94h-400v-224h361v-95h-361v-132h131v-76h-131v-119h-120v119h-114v76z" />
    <glyph glyph-name="g" unicode="g" horiz-adv-x="660" 
d="M292 -219q-55 0 -112 6t-96 16l7 88q36 -8 84 -15t96 -7q43 0 80 8t65 28t44 54t16 85v46h-7q-57 -85 -180 -85q-118 0 -180 64.5t-62 200.5q0 72 21 124.5t59 87t92 51.5t119 17q49 0 108.5 -7t139.5 -29v-460q0 -82 -24.5 -135t-65.5 -83.5t-94 -42.5t-110 -12zM318 95
q32 0 59.5 8t48 23t32 37t11.5 50v240q-26 4 -61 7.5t-73 3.5q-87 0 -128.5 -42t-41.5 -145q0 -50 8.5 -85t27 -56.5t47.5 -31t70 -9.5z" />
    <glyph glyph-name="gacute" unicode="&#x1f5;" horiz-adv-x="660" 
d="M297 616l68 186h121l-106 -193zM292 -219q-55 0 -112 6t-96 16l7 88q36 -8 84 -15t96 -7q43 0 80 8t65 28t44 54t16 85v46h-7q-57 -85 -180 -85q-118 0 -180 64.5t-62 200.5q0 72 21 124.5t59 87t92 51.5t119 17q49 0 108.5 -7t139.5 -29v-460q0 -82 -24.5 -135
t-65.5 -83.5t-94 -42.5t-110 -12zM318 95q32 0 59.5 8t48 23t32 37t11.5 50v240q-26 4 -61 7.5t-73 3.5q-87 0 -128.5 -42t-41.5 -145q0 -50 8.5 -85t27 -56.5t47.5 -31t70 -9.5z" />
    <glyph glyph-name="gbreve" unicode="&#x11f;" horiz-adv-x="660" 
d="M292 -219q-55 0 -112 6t-96 16l7 88q36 -8 84 -15t96 -7q43 0 80 8t65 28t44 54t16 85v46h-7q-57 -85 -180 -85q-118 0 -180 64.5t-62 200.5q0 72 21 124.5t59 87t92 51.5t119 17q49 0 108.5 -7t139.5 -29v-460q0 -82 -24.5 -135t-65.5 -83.5t-94 -42.5t-110 -12zM318 95
q32 0 59.5 8t48 23t32 37t11.5 50v240q-26 4 -61 7.5t-73 3.5q-87 0 -128.5 -42t-41.5 -145q0 -50 8.5 -85t27 -56.5t47.5 -31t70 -9.5zM335 617q-56 0 -94.5 12t-63 33.5t-35.5 51.5t-11 66h82q0 -54 29.5 -78t92.5 -24t92.5 24t29.5 78h83q0 -36 -11 -66t-35.5 -51.5
t-63.5 -33.5t-95 -12z" />
    <glyph glyph-name="gcircumflex" unicode="&#x11d;" horiz-adv-x="660" 
d="M155 710l185 77l188 -77v-86l-187 76l-186 -76v86zM292 -219q-55 0 -112 6t-96 16l7 88q36 -8 84 -15t96 -7q43 0 80 8t65 28t44 54t16 85v46h-7q-57 -85 -180 -85q-118 0 -180 64.5t-62 200.5q0 72 21 124.5t59 87t92 51.5t119 17q49 0 108.5 -7t139.5 -29v-460
q0 -82 -24.5 -135t-65.5 -83.5t-94 -42.5t-110 -12zM318 95q32 0 59.5 8t48 23t32 37t11.5 50v240q-26 4 -61 7.5t-73 3.5q-87 0 -128.5 -42t-41.5 -145q0 -50 8.5 -85t27 -56.5t47.5 -31t70 -9.5z" />
    <glyph glyph-name="gcommaaccent" unicode="&#x123;" horiz-adv-x="660" 
d="M470 786l-45 -150h-123l76 150h92zM292 -219q-55 0 -112 6t-96 16l7 88q36 -8 84 -15t96 -7q43 0 80 8t65 28t44 54t16 85v46h-7q-57 -85 -180 -85q-118 0 -180 64.5t-62 200.5q0 72 21 124.5t59 87t92 51.5t119 17q49 0 108.5 -7t139.5 -29v-460q0 -82 -24.5 -135
t-65.5 -83.5t-94 -42.5t-110 -12zM318 95q32 0 59.5 8t48 23t32 37t11.5 50v240q-26 4 -61 7.5t-73 3.5q-87 0 -128.5 -42t-41.5 -145q0 -50 8.5 -85t27 -56.5t47.5 -31t70 -9.5z" />
    <glyph glyph-name="gdotaccent" unicode="&#x121;" horiz-adv-x="660" 
d="M292 -219q-55 0 -112 6t-96 16l7 88q36 -8 84 -15t96 -7q43 0 80 8t65 28t44 54t16 85v46h-7q-57 -85 -180 -85q-118 0 -180 64.5t-62 200.5q0 72 21 124.5t59 87t92 51.5t119 17q49 0 108.5 -7t139.5 -29v-460q0 -82 -24.5 -135t-65.5 -83.5t-94 -42.5t-110 -12zM318 95
q32 0 59.5 8t48 23t32 37t11.5 50v240q-26 4 -61 7.5t-73 3.5q-87 0 -128.5 -42t-41.5 -145q0 -50 8.5 -85t27 -56.5t47.5 -31t70 -9.5zM337 640q-37 0 -54 16.5t-17 53.5q0 68 71 68t71 -68q0 -70 -71 -70z" />
    <glyph glyph-name="germandbls" unicode="&#xdf;" horiz-adv-x="738" 
d="M76 581q0 121 69 176t207 55q140 0 210 -56t70 -175v-114h-123q-118 0 -118 -73q0 -21 9.5 -34t27 -22t42.5 -14.5t56 -10.5q40 -6 73.5 -17t57.5 -29t37.5 -45.5t13.5 -67.5q0 -80 -58.5 -122.5t-168.5 -42.5q-42 0 -93 5.5t-117 17.5v84q61 -13 110 -19t94 -6
q120 0 120 76q0 21 -8.5 35t-24 23.5t-37 15t-47.5 9.5q-33 5 -68.5 12t-65 23.5t-48 46.5t-18.5 80q0 76 59 118.5t164 42.5h12v28q0 72 -39 104.5t-120 32.5q-82 0 -121.5 -32t-39.5 -105v-581h-117v581z" />
    <glyph glyph-name="germandbls.sc" horiz-adv-x="1165" 
d="M280 -9q-24 0 -52.5 1.5t-59.5 4.5t-62 7.5t-60 9.5v93q66 -12 123.5 -18.5t104.5 -6.5q72 0 111 19.5t39 56.5q0 22 -10.5 36.5t-29.5 24.5t-45 16.5t-57 12.5q-60 9 -103 23.5t-70 35t-39.5 48.5t-12.5 66q0 39 17.5 69.5t50.5 52.5t79.5 33.5t104.5 11.5q42 0 88 -5
t111 -17v-90q-45 11 -95 16.5t-92 5.5q-71 0 -108 -20.5t-37 -56.5q0 -35 33 -55t111 -35q49 -7 90 -19t71 -31.5t46.5 -48t16.5 -70.5q0 -85 -66.5 -128t-197.5 -43zM863 -9q-24 0 -52.5 1.5t-59.5 4.5t-62 7.5t-60 9.5v93q66 -12 123.5 -18.5t104.5 -6.5q72 0 111 19.5
t39 56.5q0 22 -10.5 36.5t-29.5 24.5t-45 16.5t-57 12.5q-60 9 -103 23.5t-70 35t-39.5 48.5t-12.5 66q0 39 17.5 69.5t50.5 52.5t79.5 33.5t104.5 11.5q42 0 88 -5t111 -17v-90q-45 11 -95 16.5t-92 5.5q-71 0 -108 -20.5t-37 -56.5q0 -35 33 -55t111 -35q49 -7 90 -19
t71 -31.5t46.5 -48t16.5 -70.5q0 -85 -66.5 -128t-197.5 -43z" />
    <glyph glyph-name="greater" unicode="&#x3e;" horiz-adv-x="532" 
d="M74 230l308 135l-309 135v84l415 -182v-73l-414 -182v83z" />
    <glyph glyph-name="greater.tab" 
d="M83 230l341 135l-343 135v84l461 -182v-73l-459 -182v83z" />
    <glyph glyph-name="greaterequal" unicode="&#x2265;" horiz-adv-x="558" 
d="M78 595l415 -161v-73l-414 -161v84l311 113l-312 114v84zM71 150h415v-77h-415v77z" />
    <glyph glyph-name="guillemotleft" unicode="&#xab;" horiz-adv-x="700" 
d="M32 268v4l208 238h123l-208 -238v-4l208 -238h-123zM325 268v4l208 238h123l-208 -238v-4l208 -238h-123z" />
    <glyph glyph-name="guilsinglleft" unicode="&#x2039;" horiz-adv-x="406" 
d="M32 268v4l208 238h123l-208 -238v-4l208 -238h-123z" />
    <glyph glyph-name="guillemotright" unicode="&#xbb;" horiz-adv-x="700" 
d="M167 30h-122l208 238v4l-208 238h122l208 -238v-4zM460 30h-122l208 238v4l-208 238h122l208 -238v-4z" />
    <glyph glyph-name="guilsinglright" unicode="&#x203a;" horiz-adv-x="406" 
d="M166 30h-122l208 238v4l-208 238h122l208 -238v-4z" />
    <glyph glyph-name="hbar" unicode="&#x127;" horiz-adv-x="663" 
d="M-21 709h97v99h116v-99h180v-71h-180v-161q82 37 139 55t105 18q74 0 114.5 -38t40.5 -113v-399h-117v359q0 53 -21 75.5t-65 22.5q-36 0 -87.5 -14.5t-108.5 -39.5v-403h-116v638h-97v71z" />
    <glyph glyph-name="hcircumflex" unicode="&#x125;" horiz-adv-x="663" 
d="M160 916l185 77l188 -77v-86l-187 76l-186 -76v86zM76 808h116v-331q82 37 139 55t105 18q74 0 114.5 -38t40.5 -113v-399h-117v359q0 53 -21 75.5t-65 22.5q-36 0 -87.5 -14.5t-108.5 -39.5v-403h-116v808z" />
    <glyph glyph-name="hdotbelow" unicode="&#x1e25;" horiz-adv-x="663" 
d="M76 808h116v-331q82 37 139 55t105 18q74 0 114.5 -38t40.5 -113v-399h-117v359q0 53 -21 75.5t-65 22.5q-36 0 -87.5 -14.5t-108.5 -39.5v-403h-116v808zM333 -191q-30 0 -45 13.5t-15 44.5q0 59 60 59q61 0 61 -59q0 -31 -14.5 -44.5t-46.5 -13.5z" />
    <glyph glyph-name="hungarumlaut" unicode="&#x2dd;" horiz-adv-x="476" 
d="M47 624l69 184h122l-107 -194zM253 624l69 184h121l-106 -194z" />
    <glyph glyph-name="hyphen" unicode="-" horiz-adv-x="519" 
d="M68 326h383v-92h-383v92z" />
    <glyph glyph-name="iacute" unicode="&#xed;" horiz-adv-x="270" 
d="M94 616l68 186h121l-106 -193zM76 540h118v-540h-118v540z" />
    <glyph glyph-name="ibreve" unicode="&#x12d;" horiz-adv-x="270" 
d="M137 617q-47 0 -80.5 12t-54.5 33.5t-31 51.5t-10 66h67q0 -54 26 -78t83 -24t83 24t26 78h65q0 -36 -9.5 -66t-30.5 -51.5t-54 -33.5t-80 -12zM76 540h118v-540h-118v540z" />
    <glyph glyph-name="icircumflex" unicode="&#xee;" horiz-adv-x="270" 
d="M-41 710l176 77l180 -77v-86l-178 76l-178 -76v86zM76 540h118v-540h-118v540z" />
    <glyph glyph-name="idblgrave" unicode="&#x209;" horiz-adv-x="270" 
d="M-11 614l-108 194h123l68 -184zM195 614l-108 194h123l68 -184zM76 540h118v-540h-118v540z" />
    <glyph glyph-name="idieresis" unicode="&#xef;" horiz-adv-x="270" 
d="M14 646q-63 0 -63 64q0 61 63 61q64 0 64 -61q0 -64 -64 -64zM258 646q-63 0 -63 64q0 61 63 61q64 0 64 -61q0 -64 -64 -64zM76 540h118v-540h-118v540z" />
    <glyph glyph-name="idotbelow" unicode="&#x1ecb;" horiz-adv-x="270" 
d="M135 639q-36 0 -52 15.5t-16 50.5t16 51t52 16t52.5 -16.5t16.5 -50.5q0 -32 -16.5 -49t-52.5 -17zM76 540h118v-540h-118v540zM135 -191q-30 0 -45 13.5t-15 44.5q0 59 60 59q61 0 61 -59q0 -31 -14.5 -44.5t-46.5 -13.5z" />
    <glyph glyph-name="igrave" unicode="&#xec;" horiz-adv-x="270" 
d="M76 540h118v-540h-118v540zM85 614l-107 194h126l68 -184z" />
    <glyph glyph-name="iinvertedbreve" unicode="&#x20b;" horiz-adv-x="270" 
d="M-38 627q0 36 10 66t31 51.5t54 33.5t80 12q94 0 134.5 -45t40.5 -118h-66q0 54 -26 78t-83 24t-83 -24t-26 -78h-66zM76 540h118v-540h-118v540z" />
    <glyph glyph-name="ij" unicode="&#x133;" horiz-adv-x="536" 
d="M135 639q-36 0 -52 15.5t-16 50.5t16 51t52 16t52.5 -16.5t16.5 -50.5q0 -32 -16.5 -49t-52.5 -17zM76 540h118v-540h-118v540zM401 639q-36 0 -52 15.5t-16 50.5t16 51t52 16t52 -16.5t16 -50.5q0 -32 -16 -49t-52 -17zM285 -200q16 39 28 75.5t19.5 77t11 86.5t3.5 105
v33.5v63v80t-0.5 85t-1 77t-0.5 57.5h117v-457q-5 -85 -27.5 -160t-62.5 -143z" />
    <glyph glyph-name="imacron" unicode="&#x12b;" horiz-adv-x="270" 
d="M76 540h118v-540h-118v540zM-46 731h370v-82h-370v82z" />
    <glyph glyph-name="infinity" unicode="&#x221e;" horiz-adv-x="925" 
d="M250 133q-44 0 -80 13.5t-62.5 37.5t-41 57t-14.5 73q0 37 15 69t41.5 55t63 36.5t78.5 13.5q60 0 114 -28.5t98 -82.5q46 49 97 80t117 31q43 0 79 -13t62.5 -36.5t41.5 -56t15 -70.5q0 -39 -15 -71.5t-41.5 -56.5t-62.5 -37.5t-79 -13.5q-58 0 -107 27t-107 93
q-23 -24 -46 -45.5t-48 -38t-53.5 -26.5t-64.5 -10zM260 205q19 0 37.5 6t37.5 19t40 34t45 51q-74 102 -162 102q-49 0 -80 -29t-31 -74q0 -48 31.5 -78.5t81.5 -30.5zM668 205q50 0 80 29.5t30 77.5q0 22 -8.5 41t-24 33.5t-36 22.5t-44.5 8q-44 0 -84.5 -26.5
t-75.5 -77.5q25 -30 46.5 -51t40.5 -33.5t37.5 -18t38.5 -5.5z" />
    <glyph glyph-name="integral" unicode="&#x222b;" horiz-adv-x="348" 
d="M106 -204q-40 0 -87 14l13 65q20 -3 33 -4.5t24 -1.5q29 0 47 13.5t18 48.5v10l-52 677q-1 5 -1 10.5v10.5q0 65 31.5 96.5t87.5 31.5q25 0 51 -3.5t58 -11.5q-1 -3 -2.5 -12.5t-3.5 -21t-4 -21t-2 -10.5q-21 5 -33.5 7.5t-25.5 2.5q-26 0 -43 -14.5t-17 -49.5v-12
l51 -692q0 -2 0.5 -7t0.5 -7q0 -64 -40 -91.5t-104 -27.5z" />
    <glyph glyph-name="iogonek" unicode="&#x12f;" horiz-adv-x="270" 
d="M76 540h118v-556q-67 -32 -95.5 -57t-28.5 -51q0 -30 41 -30q14 0 37.5 3.5t44.5 8.5v-66q-16 -6 -37 -9t-44 -3q-122 0 -122 85q0 37 25 69t82 66h-21v540zM135 639q-36 0 -52 15.5t-16 50.5t16 51t52 16t52.5 -16.5t16.5 -50.5q0 -32 -16.5 -49t-52.5 -17z" />
    <glyph glyph-name="itilde" unicode="&#x129;" horiz-adv-x="270" 
d="M-82 677q30 47 66 69t71 22q25 0 47.5 -6.5t44.5 -14t44 -13.5t46 -6q23 0 46 8.5t49 28.5l23 -30q-31 -45 -68.5 -68t-73.5 -23q-23 0 -45.5 6.5t-45 14t-44.5 14t-44 6.5q-23 0 -45.5 -8.5t-47.5 -28.5zM76 540h118v-540h-118v540z" />
    <glyph glyph-name="jcircumflex" unicode="&#x135;" horiz-adv-x="266" 
d="M-46 714l176 76l180 -76v-87l-178 77l-178 -77v87zM15 -200q16 39 28 75.5t19.5 77t11 86.5t3.5 105v33.5v63v80t-0.5 85t-1 77t-0.5 57.5h117v-457q-5 -85 -27.5 -160t-62.5 -143z" />
    <glyph glyph-name="kcommaaccent" unicode="&#x137;" horiz-adv-x="606" 
d="M268 -70h121l-75 -150h-93zM76 808h116v-492h91l177 224h132l-206 -253l-21 -8v-4l22 -8l221 -267h-131l-196 240h-89v-240h-116v808z" />
    <glyph glyph-name="kgreenlandic" unicode="&#x138;" horiz-adv-x="611" 
d="M76 540h117v-224h121l148 224h130l-177 -253l-21 -8v-4l22 -8l193 -267h-130l-167 240h-119v-240h-117v540z" />
    <glyph glyph-name="lacute" unicode="&#x13a;" horiz-adv-x="272" 
d="M92 843l68 186h121l-106 -193zM77 808h117v-808h-117v808z" />
    <glyph glyph-name="lcaron" unicode="&#x13e;" horiz-adv-x="273" 
d="M262 808h95l-34 -228h-61v228zM77 808h117v-808h-117v808z" />
    <glyph glyph-name="lcommaaccent" unicode="&#x13c;" horiz-adv-x="272" 
d="M85 -70h121l-75 -150h-93zM77 808h117v-808h-117v808z" />
    <glyph glyph-name="ldot" unicode="&#x140;" horiz-adv-x="373" 
d="M77 808h117v-808h-117v808zM323 301q-37 0 -54 16.5t-17 52.5t17 52.5t54 16.5q36 0 53.5 -16.5t17.5 -52.5q0 -69 -71 -69z" />
    <glyph glyph-name="less" unicode="&#x3c;" horiz-adv-x="531" 
d="M44 329v73l415 182v-84l-309 -135l308 -135v-83z" />
    <glyph glyph-name="less.tab" 
d="M54 329v73l458 182v-84l-341 -135l340 -135v-83z" />
    <glyph glyph-name="lessequal" unicode="&#x2264;" horiz-adv-x="559" 
d="M69 434l416 161v-84l-313 -114l311 -113v-84l-414 161v73zM69 150h415v-77h-415v77z" />
    <glyph glyph-name="lira" unicode="&#x20a4;" horiz-adv-x="708" 
d="M60 480h165v38q0 116 61.5 172.5t194.5 56.5q42 0 84 -6.5t93 -21.5l-7 -95q-91 22 -158 22q-82 0 -115 -29.5t-33 -98.5v-38h226l-8 -67h-218v-92h215l-8 -67h-207v-151h300v-103h-585v103h165v151h-165v67h165v92h-165v67z" />
    <glyph glyph-name="logicalnot" unicode="&#xac;" horiz-adv-x="865" 
d="M63 433h726v-326h-115v228h-611v98z" />
    <glyph glyph-name="lozenge" unicode="&#x25ca;" horiz-adv-x="613" 
d="M35 364v13l196 363h151l195 -363v-13l-195 -364h-151zM462 370l-156 297l-157 -297l157 -297z" />
    <glyph glyph-name="lslash" unicode="&#x142;" horiz-adv-x="356" 
d="M26 351l96 49v408h117v-347l101 52v-92l-101 -53v-368h-117v308l-96 -50v93z" />
    <glyph glyph-name="m" unicode="m" horiz-adv-x="969" 
d="M76 540h97l7 -64h7q64 37 112 55.5t92 18.5q51 0 87 -19t53 -56h4q67 39 116 57t91 18q73 0 114 -38t41 -113v-399h-117v357q0 53 -21 75t-65 22q-28 0 -66.5 -13.5t-81.5 -36.5v-404h-117v357q0 53 -20.5 75t-65.5 22q-29 0 -69 -14t-81 -37v-403h-117v540z" />
    <glyph glyph-name="minus" unicode="&#x2212;" horiz-adv-x="551" 
d="M71 408h410v-76h-410v76z" />
    <glyph glyph-name="minus.tab" 
d="M88 408h418v-76h-418v76z" />
    <glyph glyph-name="mu" unicode="&#xb5;" horiz-adv-x="696" 
d="M88 540h116v-373q0 -46 19.5 -67t58.5 -21q48 0 97 16.5t108 39.5v405h117v-540h-98l-7 68h-4q-45 -21 -78.5 -36t-62 -24t-57 -13.5t-64.5 -4.5q-8 0 -15 0.5t-14 1.5v-212h-116v760z" />
    <glyph glyph-name="multiply" unicode="&#xd7;" horiz-adv-x="490" 
d="M57 237l133 134l-133 133l54 55l133 -134l134 134l55 -55l-134 -134l134 -133l-54 -54l-134 133l-134 -133z" />
    <glyph glyph-name="multiply.tab" 
d="M82 237l155 134l-155 133l58 55l157 -137l158 137l59 -55l-156 -133l156 -134l-59 -54l-157 136l-158 -136z" />
    <glyph glyph-name="n" unicode="n" horiz-adv-x="663" 
d="M76 540h97l7 -64h7q86 39 144 56.5t106 17.5q73 0 114 -38t41 -113v-399h-118v359q0 53 -20.5 75.5t-64.5 22.5q-38 0 -89 -15t-107 -39v-403h-117v540z" />
    <glyph glyph-name="nacute" unicode="&#x144;" horiz-adv-x="663" 
d="M296 616l68 186h121l-106 -193zM76 540h97l7 -64h7q86 39 144 56.5t106 17.5q73 0 114 -38t41 -113v-399h-118v359q0 53 -20.5 75.5t-64.5 22.5q-38 0 -89 -15t-107 -39v-403h-117v540z" />
    <glyph glyph-name="napostrophe" unicode="&#x149;" horiz-adv-x="751" 
d="M132 808v-4l-37 -224h-62v228h99zM163 540h97l7 -64h7q86 39 144 56.5t106 17.5q73 0 114 -38t41 -113v-399h-118v359q0 53 -20.5 75.5t-64.5 22.5q-38 0 -89 -15t-107 -39v-403h-117v540z" />
    <glyph glyph-name="ncaron" unicode="&#x148;" horiz-adv-x="663" 
d="M141 775l186 -76l187 76v-86l-187 -76l-186 76v86zM76 540h97l7 -64h7q86 39 144 56.5t106 17.5q73 0 114 -38t41 -113v-399h-118v359q0 53 -20.5 75.5t-64.5 22.5q-38 0 -89 -15t-107 -39v-403h-117v540z" />
    <glyph glyph-name="ncommaaccent" unicode="&#x146;" horiz-adv-x="663" 
d="M280 -70h121l-75 -150h-93zM76 540h97l7 -64h7q86 39 144 56.5t106 17.5q73 0 114 -38t41 -113v-399h-118v359q0 53 -20.5 75.5t-64.5 22.5q-38 0 -89 -15t-107 -39v-403h-117v540z" />
    <glyph glyph-name="ndotaccent" unicode="&#x1e45;" horiz-adv-x="663" 
d="M336 640q-37 0 -54 16.5t-17 53.5q0 68 71 68t71 -68q0 -70 -71 -70zM76 540h97l7 -64h7q86 39 144 56.5t106 17.5q73 0 114 -38t41 -113v-399h-118v359q0 53 -20.5 75.5t-64.5 22.5q-38 0 -89 -15t-107 -39v-403h-117v540z" />
    <glyph glyph-name="nine" unicode="9" horiz-adv-x="675" 
d="M324 751q146 0 221.5 -85t75.5 -255q0 -204 -97.5 -313t-283.5 -109q-35 0 -71 4.5t-78 13.5l11 88q41 -9 72.5 -13t62.5 -4q238 0 262 271q-41 -32 -93.5 -50t-106.5 -18q-60 0 -107.5 15t-81.5 43.5t-52 69t-18 90.5q0 57 20 103.5t57 79.5t89.5 51t117.5 18zM324 359
q47 0 95.5 18.5t81.5 49.5q-2 123 -45 180t-132 57q-76 0 -118.5 -43t-42.5 -120q0 -69 41.5 -105.5t119.5 -36.5z" />
    <glyph glyph-name="six" unicode="6" horiz-adv-x="674" 
d="M351 -11q-146 0 -221.5 85t-75.5 255q0 204 97.5 313t283.5 109q35 0 71 -4.5t78 -13.5l-11 -88q-41 9 -72.5 13t-62.5 4q-238 0 -262 -271q41 32 93.5 50t106.5 18q60 0 107.5 -15t81.5 -43.5t52 -69t18 -90.5q0 -57 -20 -103.5t-57 -79.5t-89.5 -51t-117.5 -18z
M351 381q-47 0 -95.5 -18.5t-81.5 -49.5q2 -123 45 -180t132 -57q76 0 118.5 43t42.5 120q0 69 -41.5 105.5t-119.5 36.5z" />
    <glyph glyph-name="nine.denominator" horiz-adv-x="530" 
d="M192 -7q-26 0 -55.5 3t-65.5 11l13 80q39 -7 61.5 -10t43.5 -3q86 0 134.5 45.5t61.5 131.5q-33 -24 -73.5 -37t-79.5 -13q-45 0 -81 11.5t-62 33t-40 52t-14 68.5q0 43 15.5 77.5t44.5 59t69.5 38t91.5 13.5q114 0 172.5 -63.5t58.5 -187.5q0 -151 -75.5 -230.5
t-219.5 -79.5zM257 275q31 0 65.5 12t62.5 32q-4 155 -129 155q-56 0 -87 -28t-31 -79q0 -45 30.5 -68.5t88.5 -23.5z" />
    <glyph glyph-name="nine.numerator" horiz-adv-x="530" 
d="M192 193q-26 0 -55.5 3t-65.5 11l13 80q39 -7 61.5 -10t43.5 -3q86 0 134.5 45.5t61.5 131.5q-33 -24 -73.5 -37t-79.5 -13q-45 0 -81 11.5t-62 33t-40 52t-14 68.5q0 43 15.5 77.5t44.5 59t69.5 38t91.5 13.5q114 0 172.5 -63.5t58.5 -187.5q0 -151 -75.5 -230.5
t-219.5 -79.5zM257 475q31 0 65.5 12t62.5 32q-4 155 -129 155q-56 0 -87 -28t-31 -79q0 -45 30.5 -68.5t88.5 -23.5z" />
    <glyph glyph-name="nine.osf" horiz-adv-x="658" 
d="M311 589q150 0 227 -82.5t77 -246.5q0 -184 -97.5 -281t-283.5 -97q-35 0 -71.5 4t-79.5 14l13 88q42 -8 72.5 -12.5t61.5 -4.5q123 0 189 64.5t76 190.5q-40 -34 -93 -52.5t-110 -18.5q-60 0 -107.5 14t-81.5 40t-52 63t-18 83q0 52 20 95.5t56.5 74t87.5 47.5t114 17z
M318 233q47 0 96.5 16.5t82.5 44.5q-4 109 -48 159t-132 50q-77 0 -119 -38.5t-42 -106.5q0 -62 41.5 -93.5t120.5 -31.5z" />
    <glyph glyph-name="six.osf" horiz-adv-x="669" 
d="M354 -15q-150 0 -227 82.5t-77 246.5q0 184 97.5 281t283.5 97q35 0 71.5 -4t79.5 -14l-13 -88q-42 8 -72.5 12.5t-61.5 4.5q-123 0 -189 -64.5t-76 -190.5q40 34 93 52.5t110 18.5q60 0 107.5 -14t81.5 -40t52 -63t18 -83q0 -53 -20 -96t-56.5 -73.5t-87.5 -47.5
t-114 -17zM347 341q-47 0 -96.5 -16.5t-82.5 -44.5q4 -109 48 -159t132 -50q77 0 119 38.5t42 106.5q0 62 -41.5 93.5t-120.5 31.5z" />
    <glyph glyph-name="nine.tf" 
d="M285 751q134 0 203.5 -85t69.5 -255q0 -204 -89 -313t-260 -109q-63 0 -139 18l12 88q37 -9 66 -13t56 -4q106 0 164.5 68.5t68.5 200.5q-37 -32 -83.5 -49t-94.5 -17q-54 0 -97 15t-74 43.5t-47.5 69t-16.5 90.5q0 57 18.5 103.5t52 79.5t82 51t108.5 18zM286 359
q39 0 81 18t74 49q-2 123 -40 180.5t-116 57.5q-67 0 -103.5 -43t-36.5 -119q0 -70 36 -106.5t105 -36.5z" />
    <glyph glyph-name="nine.tosf" 
d="M280 589q137 0 208 -82.5t71 -246.5q0 -184 -89 -281t-260 -97q-32 0 -66 4t-73 14l12 88q39 -8 67 -12.5t55 -4.5q109 0 168 64.5t69 187.5q-37 -32 -85 -50t-97 -18q-54 0 -97 14t-74 40t-47.5 63t-16.5 83q0 52 18.5 95.5t52 74t80.5 47.5t104 17zM287 233q39 0 82 15
t74 41q-2 113 -41 163.5t-116 50.5q-67 0 -103.5 -38.5t-36.5 -106.5q0 -61 36 -93t105 -32z" />
    <glyph glyph-name="nineinferior" unicode="&#x2089;" horiz-adv-x="530" 
d="M192 -107q-26 0 -55.5 3t-65.5 10l13 81q39 -7 61.5 -10t43.5 -3q86 0 134.5 45.5t61.5 131.5q-33 -24 -73.5 -37t-79.5 -13q-45 0 -81 11.5t-62 33t-40 52t-14 68.5q0 43 15.5 77.5t44.5 59t69.5 38t91.5 13.5q114 0 172.5 -63.5t58.5 -187.5q0 -151 -75.5 -230.5
t-219.5 -79.5zM257 175q32 0 66.5 12t61.5 32q-4 155 -129 155q-56 0 -87 -28t-31 -79q0 -45 30.5 -68.5t88.5 -23.5z" />
    <glyph glyph-name="ninesuperior" unicode="&#x2079;" horiz-adv-x="530" 
d="M192 293q-26 0 -55.5 3t-65.5 11l13 80q39 -7 61.5 -10t43.5 -3q86 0 134.5 45.5t61.5 131.5q-33 -24 -73.5 -37t-79.5 -13q-45 0 -81 11.5t-62 33t-40 52t-14 68.5q0 43 15.5 77.5t44.5 59t69.5 38t91.5 13.5q114 0 172.5 -63.5t58.5 -187.5q0 -151 -75.5 -230.5
t-219.5 -79.5zM257 575q32 0 66.5 12t61.5 32q-4 155 -129 155q-56 0 -87 -28t-31 -79q0 -45 30.5 -68.5t88.5 -23.5z" />
    <glyph glyph-name="notequal" unicode="&#x2260;" horiz-adv-x="502" 
d="M51 501h198l26 98l74 -19l-21 -79h121v-78h-142l-37 -138h179v-78h-200l-29 -108l-73 19l23 89h-119v78h140l37 138h-177v78z" />
    <glyph glyph-name="ntilde" unicode="&#xf1;" horiz-adv-x="663" 
d="M76 540h97l7 -64h7q86 39 144 56.5t106 17.5q73 0 114 -38t41 -113v-399h-118v359q0 53 -20.5 75.5t-64.5 22.5q-38 0 -89 -15t-107 -39v-403h-117v540zM110 677q32 47 69.5 69t73.5 22q26 0 50 -6.5t46.5 -14t45.5 -13.5t48 -6q26 0 50 8.5t51 28.5l24 -30
q-32 -45 -71.5 -68t-77.5 -23q-24 0 -47.5 6.5t-47 14t-47 14t-47.5 6.5t-47 -8.5t-49 -28.5z" />
    <glyph glyph-name="numbersign" unicode="#" horiz-adv-x="630" 
d="M368 211h-136l-17 -211h-84l17 211h-97v77h103l13 161h-116v79h123l17 212h84l-17 -212h136l18 212h83l-17 -212h100v-79h-107l-13 -161h120v-77h-126l-17 -211h-84zM238 288h137l13 161h-137z" />
    <glyph glyph-name="numbersign.tab" 
d="M352 211h-137l-17 -211h-83l17 211h-97v77h103l13 161h-116v79h123l17 212h82l-16 -212h137l17 212h83l-17 -212h100v-79h-107l-13 -161h119v-77h-125l-17 -211h-83zM221 288h138l12 161h-137z" />
    <glyph glyph-name="o" unicode="o" horiz-adv-x="647" 
d="M324 -10q-135 0 -207 72t-72 208t72 208t207 72t206 -72t71 -208t-71 -208t-206 -72zM324 82q84 0 121.5 44t37.5 144q0 99 -37.5 143t-121.5 44t-122 -44t-38 -143t38 -143.5t122 -44.5z" />
    <glyph glyph-name="oacute" unicode="&#xf3;" horiz-adv-x="647" 
d="M277 616l68 186h121l-106 -193zM324 -10q-135 0 -207 72t-72 208t72 208t207 72t206 -72t71 -208t-71 -208t-206 -72zM324 82q84 0 121.5 44t37.5 144q0 99 -37.5 143t-121.5 44t-122 -44t-38 -143t38 -143.5t122 -44.5z" />
    <glyph glyph-name="obreve" unicode="&#x14f;" horiz-adv-x="647" 
d="M324 -10q-135 0 -207 72t-72 208t72 208t207 72t206 -72t71 -208t-71 -208t-206 -72zM324 82q84 0 121.5 44t37.5 144q0 99 -37.5 143t-121.5 44t-122 -44t-38 -143t38 -143.5t122 -44.5zM323 617q-56 0 -94.5 12t-63 33.5t-35.5 51.5t-11 66h82q0 -54 29.5 -78t92.5 -24
t92.5 24t29.5 78h83q0 -36 -11 -66t-35.5 -51.5t-63.5 -33.5t-95 -12z" />
    <glyph glyph-name="ocircumflex" unicode="&#xf4;" horiz-adv-x="647" 
d="M134 710l185 77l188 -77v-86l-187 76l-186 -76v86zM324 -10q-135 0 -207 72t-72 208t72 208t207 72t206 -72t71 -208t-71 -208t-206 -72zM324 82q84 0 121.5 44t37.5 144q0 99 -37.5 143t-121.5 44t-122 -44t-38 -143t38 -143.5t122 -44.5z" />
    <glyph glyph-name="odblgrave" unicode="&#x20d;" horiz-adv-x="647" 
d="M173 614l-108 194h123l68 -184zM379 614l-108 194h123l68 -184zM324 -10q-135 0 -207 72t-72 208t72 208t207 72t206 -72t71 -208t-71 -208t-206 -72zM324 82q84 0 121.5 44t37.5 144q0 99 -37.5 143t-121.5 44t-122 -44t-38 -143t38 -143.5t122 -44.5z" />
    <glyph glyph-name="odieresis" unicode="&#xf6;" horiz-adv-x="647" 
d="M189 646q-63 0 -63 64q0 61 63 61q64 0 64 -61q0 -64 -64 -64zM453 646q-63 0 -63 64q0 61 63 61q64 0 64 -61q0 -64 -64 -64zM324 -10q-135 0 -207 72t-72 208t72 208t207 72t206 -72t71 -208t-71 -208t-206 -72zM324 82q84 0 121.5 44t37.5 144q0 99 -37.5 143
t-121.5 44t-122 -44t-38 -143t38 -143.5t122 -44.5z" />
    <glyph glyph-name="odotbelow" unicode="&#x1ecd;" horiz-adv-x="647" 
d="M325 -191q-30 0 -45 13.5t-15 44.5q0 59 60 59q61 0 61 -59q0 -31 -14.5 -44.5t-46.5 -13.5zM324 -10q-135 0 -207 72t-72 208t72 208t207 72t206 -72t71 -208t-71 -208t-206 -72zM324 82q84 0 121.5 44t37.5 144q0 99 -37.5 143t-121.5 44t-122 -44t-38 -143t38 -143.5
t122 -44.5z" />
    <glyph glyph-name="oe" unicode="&#x153;" horiz-adv-x="1029" 
d="M758 -9q-81 0 -135 27t-81 78h-5q-29 -51 -83 -78.5t-130 -27.5q-135 0 -207 72t-72 208t72 208t207 72q77 0 131.5 -28.5t82.5 -81.5l6 1q27 52 80.5 80t130.5 28q112 0 169.5 -60.5t57.5 -177.5q0 -23 -1 -41t-6 -33h-375q5 -82 45 -118t124 -36q45 0 95.5 6.5
t93.5 19.5l5 -86q-46 -15 -100.5 -23.5t-104.5 -8.5zM324 82q84 0 121.5 44t37.5 144q0 99 -37.5 143t-121.5 44t-122 -44t-38 -143t38 -143.5t122 -44.5zM877 301q-2 89 -31.5 126t-96.5 37q-72 0 -108.5 -39.5t-41.5 -123.5h278z" />
    <glyph glyph-name="ograve" unicode="&#xf2;" horiz-adv-x="647" 
d="M324 -10q-135 0 -207 72t-72 208t72 208t207 72t206 -72t71 -208t-71 -208t-206 -72zM324 82q84 0 121.5 44t37.5 144q0 99 -37.5 143t-121.5 44t-122 -44t-38 -143t38 -143.5t122 -44.5zM269 614l-107 194h126l68 -184z" />
    <glyph glyph-name="ohungarumlaut" unicode="&#x151;" horiz-adv-x="647" 
d="M176 624l69 184h122l-107 -194zM382 624l69 184h121l-106 -194zM324 -10q-135 0 -207 72t-72 208t72 208t207 72t206 -72t71 -208t-71 -208t-206 -72zM324 82q84 0 121.5 44t37.5 144q0 99 -37.5 143t-121.5 44t-122 -44t-38 -143t38 -143.5t122 -44.5z" />
    <glyph glyph-name="oinvertedbreve" unicode="&#x20f;" horiz-adv-x="647" 
d="M119 627q0 36 11 66t35.5 51.5t63.5 33.5t95 12q55 0 94 -12t64 -33.5t36 -51.5t11 -66h-84q0 54 -29 78t-92 24t-92.5 -24t-29.5 -78h-83zM324 -10q-135 0 -207 72t-72 208t72 208t207 72t206 -72t71 -208t-71 -208t-206 -72zM324 82q84 0 121.5 44t37.5 144
q0 99 -37.5 143t-121.5 44t-122 -44t-38 -143t38 -143.5t122 -44.5z" />
    <glyph glyph-name="omacron" unicode="&#x14d;" horiz-adv-x="647" 
d="M141 731h370v-82h-370v82zM324 -10q-135 0 -207 72t-72 208t72 208t207 72t206 -72t71 -208t-71 -208t-206 -72zM324 82q84 0 121.5 44t37.5 144q0 99 -37.5 143t-121.5 44t-122 -44t-38 -143t38 -143.5t122 -44.5z" />
    <glyph glyph-name="one" unicode="1" horiz-adv-x="449" 
d="M231 609h-4l-186 -75h-7l-13 73v4l238 129h91v-740h-119v609z" />
    <glyph glyph-name="one.denominator" horiz-adv-x="360" 
d="M180 439l-141 -53h-7l-12 55v12l187 93h73v-546h-100v439z" />
    <glyph glyph-name="one.numerator" horiz-adv-x="360" 
d="M180 639l-141 -53h-7l-12 55v12l187 93h73v-546h-100v439z" />
    <glyph glyph-name="one.osf" horiz-adv-x="438" 
d="M234 453h-4l-186 -74h-7l-13 72v4l238 129h91v-584h-119v453z" />
    <glyph glyph-name="one.tf" 
d="M327 609h-5l-231 -75h-9l-14 73v4l288 129h95v-740h-124v609z" />
    <glyph glyph-name="one.tosf" 
d="M334 453h-5l-230 -74h-9l-14 72v4l287 129h96v-584h-125v453z" />
    <glyph glyph-name="oneeighth" unicode="&#x215b;" horiz-adv-x="1129" 
d="M862 -4q-109 0 -166.5 36.5t-57.5 114.5q0 27 7.5 49t19.5 39t27.5 29t32.5 21q-32 18 -52 47t-20 73q0 74 57 111.5t152 37.5q91 0 146.5 -37.5t55.5 -111.5q0 -49 -22 -78t-50 -46q40 -19 65.5 -49t25.5 -81q0 -78 -57 -116.5t-164 -38.5zM862 70q56 0 87.5 20.5
t31.5 63.5q0 20 -10 34t-27.5 24.5t-42 18t-52.5 15.5l-34 9q-9 -5 -22 -12.5t-24.5 -19t-20 -28t-8.5 -38.5q0 -44 33 -65.5t89 -21.5zM894 305q8 4 19.5 12t22.5 20t18.5 28t7.5 37q0 39 -28 58t-72 19q-47 0 -77 -18.5t-30 -56.5q0 -22 9.5 -36.5t26 -25t38.5 -18
t47 -14.5zM621 740h105l-373 -740h-106zM189 639l-141 -53h-7l-12 55v12l187 93h73v-546h-100v439z" />
    <glyph glyph-name="onehalf" unicode="&#xbd;" horiz-adv-x="1126" 
d="M677 79q0 70 42 118.5t137 91.5q34 15 56.5 27.5t35.5 24.5t18 23.5t5 25.5q0 75 -113 75q-31 0 -67.5 -4.5t-86.5 -14.5l-11 85q55 11 98 16t82 5q198 0 198 -155q0 -56 -36.5 -97t-118.5 -79q-62 -31 -86 -55.5t-24 -55.5v-24h267v-84h-396v77zM621 740h105l-373 -740
h-106zM189 639l-141 -53h-7l-12 55v12l187 93h73v-546h-100v439z" />
    <glyph glyph-name="two.denominator" horiz-adv-x="480" 
d="M39 79q0 70 42 118.5t137 91.5q34 15 56.5 27.5t35.5 24.5t18 23.5t5 25.5q0 75 -113 75q-31 0 -67.5 -4.5t-86.5 -14.5l-11 85q55 11 98 16t82 5q198 0 198 -155q0 -56 -36.5 -97t-118.5 -79q-62 -31 -86 -55.5t-24 -55.5v-24h267v-84h-396v77z" />
    <glyph glyph-name="oneinferior" unicode="&#x2081;" horiz-adv-x="360" 
d="M180 339l-141 -53h-7l-12 55v12l187 93h73v-546h-100v439z" />
    <glyph glyph-name="onequarter" unicode="&#xbc;" horiz-adv-x="1099" 
d="M874 117h-262l-16 63l194 371l10 2l83 -10l8 -19l-186 -326h174l24 163h71v-163h93v-81h-93v-117h-100v117zM621 740h105l-373 -740h-106zM189 639l-141 -53h-7l-12 55v12l187 93h73v-546h-100v439z" />
    <glyph glyph-name="onesuperior" unicode="&#xb9;" horiz-adv-x="360" 
d="M180 739l-141 -53h-7l-12 55v12l187 93h73v-546h-100v439z" />
    <glyph glyph-name="onethird" unicode="&#x2153;" horiz-adv-x="1088" 
d="M621 740h105l-373 -740h-106zM189 639l-141 -53h-7l-12 55v12l187 93h73v-546h-100v439zM824 -8q-20 0 -41.5 1t-41.5 2.5t-37.5 3.5t-30.5 5v87h5q10 -2 26 -3.5t33 -3t34 -2.5t29 -1q76 0 108.5 21t32.5 65q0 38 -31.5 56.5t-104.5 18.5h-64v69h63q65 0 93.5 19
t28.5 58q0 40 -28.5 59t-94.5 19q-21 0 -54.5 -3t-70.5 -8h-5v86q14 3 32 5t37.5 4t38.5 3t35 1q105 0 159 -40t54 -116q0 -42 -19 -71.5t-54 -45.5q41 -15 62.5 -48t21.5 -81q0 -78 -55 -119t-161 -41z" />
    <glyph glyph-name="three.denominator" horiz-adv-x="458" 
d="M198 -8q-20 0 -41.5 1t-41.5 2.5t-37.5 3.5t-30.5 5v87h5q10 -2 26 -3.5t33 -3t34 -2.5t29 -1q76 0 108.5 21t32.5 65q0 38 -31.5 56.5t-104.5 18.5h-64v69h63q65 0 93.5 19t28.5 58q0 40 -28.5 59t-94.5 19q-21 0 -54.5 -3t-70.5 -8h-5v86q14 3 32 5t37.5 4t38.5 3t35 1
q105 0 159 -40t54 -116q0 -42 -19 -71.5t-54 -45.5q41 -15 62.5 -48t21.5 -81q0 -78 -55 -119t-161 -41z" />
    <glyph glyph-name="oogonek" unicode="&#x1eb;" horiz-adv-x="647" 
d="M321 -206q-122 0 -122 85q0 31 17.5 58.5t56.5 55.5q-111 13 -169.5 84t-58.5 193q0 136 72 208t207 72t206 -72t71 -208q0 -115 -51.5 -184.5t-149.5 -88.5q-66 -31 -93.5 -56t-27.5 -51q0 -30 41 -30q14 0 37.5 3.5t44.5 8.5v-66q-16 -6 -37 -9t-44 -3zM324 82
q84 0 121.5 44t37.5 144q0 99 -37.5 143t-121.5 44t-122 -44t-38 -143t38 -143.5t122 -44.5z" />
    <glyph glyph-name="ordfeminine" unicode="&#xaa;" horiz-adv-x="478" 
d="M172 348q-57 0 -92.5 30.5t-35.5 81.5t42.5 81.5t123.5 35.5l104 6v17q0 22 -4 36.5t-15 23t-29.5 11.5t-46.5 3q-23 0 -55 -2t-74 -8l-8 67q45 8 83 11.5t69 3.5q95 0 136 -29.5t41 -94.5v-270h-82l-7 47h-4q-38 -24 -74.5 -37.5t-71.5 -13.5zM205 419q22 0 47.5 6.5
t61.5 22.5v77l-54 -3q-34 -2 -56.5 -6t-36 -10.5t-19.5 -16t-6 -22.5q0 -48 63 -48z" />
    <glyph glyph-name="ordmasculine" unicode="&#xba;" horiz-adv-x="508" 
d="M254 418q54 0 82 26.5t28 101.5q0 38 -7 62.5t-21 39t-34.5 20.5t-47.5 6t-47.5 -6t-35 -20.5t-21.5 -39t-7 -62.5q0 -75 28.5 -101.5t82.5 -26.5zM254 345q-98 0 -152.5 49.5t-54.5 151.5t54.5 151.5t152.5 49.5t152.5 -49.5t54.5 -151.5t-54.5 -151.5t-152.5 -49.5z
" />
    <glyph glyph-name="oslash" unicode="&#xf8;" horiz-adv-x="653" 
d="M102 85q-26 35 -39 81.5t-13 103.5q0 131 69 205.5t208 74.5q55 0 99 -12.5t78 -35.5l36 38h94l-82 -85q53 -70 53 -185q0 -132 -69.5 -206t-208.5 -74q-110 0 -177 47l-36 -37h-94zM327 82q45 0 76 11.5t49.5 35t26.5 59t8 82.5q0 31 -3 56.5t-11 46.5l-253 -263
q37 -28 107 -28zM168 270q0 -63 13 -103l252 262q-19 14 -45 21t-61 7q-46 0 -76.5 -11.5t-49 -35t-26 -58.5t-7.5 -82z" />
    <glyph glyph-name="oslashacute" unicode="&#x1ff;" horiz-adv-x="653" 
d="M102 85q-26 35 -39 81.5t-13 103.5q0 131 69 205.5t208 74.5q55 0 99 -12.5t78 -35.5l36 38h94l-82 -85q53 -70 53 -185q0 -132 -69.5 -206t-208.5 -74q-110 0 -177 47l-36 -37h-94zM327 82q45 0 76 11.5t49.5 35t26.5 59t8 82.5q0 31 -3 56.5t-11 46.5l-253 -263
q37 -28 107 -28zM168 270q0 -63 13 -103l252 262q-19 14 -45 21t-61 7q-46 0 -76.5 -11.5t-49 -35t-26 -58.5t-7.5 -82zM287 616l68 186h121l-106 -193z" />
    <glyph glyph-name="otilde" unicode="&#xf5;" horiz-adv-x="647" 
d="M324 -10q-135 0 -207 72t-72 208t72 208t207 72t206 -72t71 -208t-71 -208t-206 -72zM324 82q84 0 121.5 44t37.5 144q0 99 -37.5 143t-121.5 44t-122 -44t-38 -143t38 -143.5t122 -44.5zM96 677q32 47 69.5 69t73.5 22q26 0 50 -6.5t46.5 -14t45.5 -13.5t48 -6
q26 0 50 8.5t51 28.5l24 -30q-32 -45 -71.5 -68t-77.5 -23q-24 0 -47.5 6.5t-47 14t-47 14t-47.5 6.5t-47 -8.5t-49 -28.5z" />
    <glyph glyph-name="p" unicode="p" horiz-adv-x="663" 
d="M76 540h101l10 -68h7q58 78 178 78q119 0 181 -66.5t62 -207.5q0 -73 -21 -126.5t-59.5 -89t-92 -53t-118.5 -17.5q-38 0 -71.5 3t-59.5 5v-218h-117v760zM327 76q87 0 128.5 43t41.5 151q0 104 -36 147t-117 43q-32 0 -60 -8t-48 -22.5t-31.5 -36t-11.5 -48.5v-258
q25 -4 60 -7.5t74 -3.5z" />
    <glyph glyph-name="paragraph" unicode="&#xb6;" horiz-adv-x="659" 
d="M428 0h-59v266q-20 -1 -38 -1h-35q-59 0 -106.5 12.5t-81 40.5t-51.5 74t-18 113t18 113t51 74t80.5 40.5t106.5 12.5q31 0 64.5 -2.5t68.5 -7.5v-735zM558 0h-73v735h73v-735z" />
    <glyph glyph-name="paragraph.tab" 
d="M390 0h-57v266q-20 -1 -37 -1h-34q-56 0 -101.5 12.5t-77 40.5t-48.5 74t-17 113t17 113t48.5 74t76.5 40.5t101 12.5q30 0 62 -2.5t67 -7.5v-735zM515 0h-71v735h71v-735z" />
    <glyph glyph-name="parenleft" unicode="(" horiz-adv-x="322" 
d="M201 -160q-77 112 -116.5 243.5t-39.5 270.5q0 140 39.5 271t116.5 243h105v-4q-78 -110 -121.5 -240t-43.5 -270t43.5 -270t121.5 -240v-4h-105v0z" />
    <glyph glyph-name="parenleft.sc" horiz-adv-x="321" 
d="M189 -125q-67 88 -101.5 190.5t-34.5 210.5q0 109 34.5 211t101.5 190h100v-3q-68 -87 -106 -188t-38 -210t38 -210t106 -188v-3h-100v0z" />
    <glyph glyph-name="parenright" unicode=")" horiz-adv-x="321" 
d="M16 -160v4q78 110 121 240t43 270t-43 270t-121 240v4h105q77 -112 116 -243t39 -271q0 -139 -39 -270.5t-116 -243.5h-105z" />
    <glyph glyph-name="parenright.sc" horiz-adv-x="320" 
d="M32 -125v3q68 87 106 188t38 210t-38 210t-106 188v3h99q67 -88 101.5 -190t34.5 -211q0 -108 -34.5 -210.5t-101.5 -190.5h-99z" />
    <glyph glyph-name="partialdiff" unicode="&#x2202;" horiz-adv-x="607" 
d="M298 -4q-60 0 -106.5 20.5t-79 56t-49 84t-16.5 104.5q0 52 16.5 95.5t47 75t73 49.5t94.5 18q45 0 83.5 -17t71.5 -46q-11 114 -53 172t-111 58q-18 0 -39 -4t-42 -11.5t-40.5 -17.5t-34.5 -21l-32 62q17 16 40 29.5t49 23.5t53.5 15.5t52.5 5.5q129 0 199.5 -108
t70.5 -309q0 -80 -17.5 -142.5t-50 -105.5t-78 -65t-102.5 -22zM296 86q68 0 104.5 55.5t36.5 180.5v38q-29 28 -62 44t-74 16q-31 0 -58 -11.5t-46.5 -32t-30.5 -50t-11 -65.5q0 -38 9.5 -70.5t28 -55.5t44.5 -36t59 -13z" />
    <glyph glyph-name="percent" unicode="%" horiz-adv-x="1062" 
d="M241 277q-97 0 -149 59.5t-52 177.5t52 177t149 59q98 0 149.5 -59t51.5 -177t-51.5 -177.5t-149.5 -59.5zM241 355q57 0 85 37.5t28 121.5t-28 122t-85 38q-58 0 -85.5 -38t-27.5 -122t27.5 -121.5t85.5 -37.5zM821 -10q-97 0 -149 59t-52 178q0 118 52 177t149 59
t149 -59t52 -177q0 -119 -52 -178t-149 -59zM821 67q57 0 85 37.5t28 122.5q0 84 -28 121.5t-85 37.5q-58 0 -85.5 -37.5t-27.5 -121.5q0 -85 27.5 -122.5t85.5 -37.5zM665 740h105l-373 -740h-105z" />
    <glyph glyph-name="percent.tab" 
d="M72 285q-72 0 -111 57t-39 172q0 114 39 171.5t111 57.5q73 0 112 -57.5t39 -171.5q0 -115 -39 -172t-112 -57zM72 355q40 0 59.5 37.5t19.5 121.5t-19.5 122t-59.5 38q-41 0 -59.5 -38t-18.5 -122t18.5 -121.5t59.5 -37.5zM523 -2q-73 0 -112 57t-39 172q0 114 39 171
t112 57q72 0 111 -57t39 -171q0 -115 -39 -172t-111 -57zM523 67q40 0 59 37.5t19 122.5q0 84 -19 121.5t-59 37.5q-41 0 -60 -37.5t-19 -121.5q0 -85 19 -122.5t60 -37.5zM390 740h91l-276 -740h-91z" />
    <glyph glyph-name="period.tab" horiz-adv-x="298" 
d="M148 -5q-33 0 -52.5 17t-19.5 50q0 35 19.5 51t52.5 16q32 0 52.5 -16.5t20.5 -50.5q0 -33 -20.5 -50t-52.5 -17z" />
    <glyph glyph-name="periodcentered.tab" horiz-adv-x="298" 
d="M148 301q-36 0 -54 16.5t-18 52.5t18 52.5t54 16.5t54 -16.5t18 -52.5q0 -69 -72 -69z" />
    <glyph glyph-name="perthousand" unicode="&#x2030;" horiz-adv-x="1511" 
d="M241 277q-97 0 -149 59.5t-52 177.5t52 177t149 59q98 0 149.5 -59t51.5 -177t-51.5 -177.5t-149.5 -59.5zM241 355q57 0 85 37.5t28 121.5t-28 122t-85 38q-58 0 -85.5 -38t-27.5 -122t27.5 -121.5t85.5 -37.5zM821 -10q-97 0 -149 59t-52 178q0 118 52 177t149 59
t149 -59t52 -177q0 -119 -52 -178t-149 -59zM821 67q57 0 85 37.5t28 122.5q0 84 -28 121.5t-85 37.5q-58 0 -85.5 -37.5t-27.5 -121.5q0 -85 27.5 -122.5t85.5 -37.5zM1270 -10q-99 0 -150 59.5t-51 177.5q0 116 51 176t150 60q100 0 150.5 -60t50.5 -176
q0 -118 -50.5 -177.5t-150.5 -59.5zM1270 67q59 0 86 39t27 121q0 81 -27 120t-86 39t-86 -38.5t-27 -120.5t27 -121t86 -39zM665 740h105l-373 -740h-105z" />
    <glyph glyph-name="pi" unicode="&#x3c0;" horiz-adv-x="834" 
d="M219 447h-29q-45 0 -69 -16t-33 -54l-78 27q24 136 174 136h579l45 -33v-60h-158v-285q0 -76 75 -76q6 0 17 1.5t18 4.5v-92q-10 -3 -32 -5t-39 -2q-76 0 -116 37.5t-40 108.5v308h-198v-557h-116v557z" />
    <glyph glyph-name="plus" unicode="+" horiz-adv-x="501" 
d="M45 408h167v167h77v-167h167v-76h-167v-167h-77v167h-167v76z" />
    <glyph glyph-name="plus.tab" 
d="M61 408h195v167h83v-167h196v-76h-196v-167h-83v167h-195v76z" />
    <glyph glyph-name="plusminus" unicode="&#xb1;" horiz-adv-x="546" 
d="M71 465h164v167h76v-167h162v-76h-162v-162h-76v162h-164v76zM72 156h402v-77h-402v77z" />
    <glyph glyph-name="plusminus.tab" 
d="M72 465h184v167h81v-167h185v-76h-185v-162h-81v162h-184v76zM72 156h450v-77h-450v77z" />
    <glyph glyph-name="product" unicode="&#x220f;" horiz-adv-x="801" 
d="M98 740h605v-850h-116v758h-373v-758h-116v850z" />
    <glyph glyph-name="q" unicode="q" horiz-adv-x="660" 
d="M474 71q-32 -42 -79 -61.5t-107 -19.5q-242 0 -242 274q0 140 77.5 213t214.5 73q33 0 68 -2t67.5 -5t61.5 -7t51 -7v-749h-112v291zM318 80q69 0 110 32.5t41 86.5v254q-36 5 -69 8t-65 3q-91 0 -131 -45t-40 -149q0 -102 35 -146t119 -44z" />
    <glyph glyph-name="question" unicode="?" horiz-adv-x="478" 
d="M157 210l-8 186q33 7 66.5 18t60 28t43.5 41t17 59q0 33 -11.5 55t-31 35.5t-45 19t-52.5 5.5q-40 0 -79 -6.5t-74 -14.5l-10 89q44 11 89 17.5t93 6.5q47 0 88.5 -11t72 -34.5t48.5 -60.5t18 -90q0 -49 -17.5 -85t-45.5 -60.5t-64 -40t-73 -24.5l-3 -133v-17h-82v17z
M201 -3q-29 0 -45.5 15.5t-16.5 43.5q0 29 16.5 44.5t45.5 15.5t45.5 -15.5t16.5 -44.5q0 -28 -16.5 -43.5t-45.5 -15.5z" />
    <glyph glyph-name="questiondown" unicode="&#xbf;" horiz-adv-x="472" 
d="M319 333l8 -186q-33 -8 -66.5 -18.5t-60 -27.5t-43.5 -41.5t-17 -58.5q0 -33 11.5 -55t31 -35.5t45 -19t52.5 -5.5q40 0 79 6.5t74 14.5l10 -89q-44 -11 -89 -17.5t-93 -6.5q-47 0 -88.5 11t-72 34.5t-48.5 60.5t-18 90q0 49 17.5 85t45.5 60.5t64 40t73 24.5l3 133v17
h82v-17zM275 546q29 0 45.5 -15.5t16.5 -43.5q0 -29 -16.5 -44.5t-45.5 -15.5t-45.5 15.5t-16.5 44.5q0 28 16.5 43.5t45.5 15.5z" />
    <glyph glyph-name="quotedbl" unicode="&#x22;" horiz-adv-x="421" 
d="M166 808v-4l-36 -324h-62v328h98zM369 808v-4l-36 -324h-62v328h98z" />
    <glyph glyph-name="quotesingle" unicode="'" horiz-adv-x="217" 
d="M166 808v-4l-36 -324h-62v328h98z" />
    <glyph glyph-name="quotedbl.tab" horiz-adv-x="298" 
d="M87 808v-4l-43 -324h-63v328h106zM337 808v-4l-42 -324h-64v328h106z" />
    <glyph glyph-name="quotedblbase" unicode="&#x201e;" horiz-adv-x="470" 
d="M163 152q11 -35 11 -81q0 -52 -18 -112t-50 -108l-67 5q18 37 27.5 87.5t9.5 98.5q0 27 -4 51.5t-15 52.5zM392 152q11 -35 11 -81q0 -52 -18 -112t-50 -108l-67 5q18 37 27.5 87.5t9.5 98.5q0 27 -4 51.5t-15 52.5z" />
    <glyph glyph-name="quoteright" unicode="&#x2019;" horiz-adv-x="233" 
d="M173 810q11 -35 11 -81q0 -52 -18 -112t-50 -108l-67 5q18 37 27.5 87.5t9.5 98.5q0 27 -4 51.5t-15 52.5z" />
    <glyph glyph-name="quotedblleft" unicode="&#x201c;" horiz-adv-x="464" 
d="M65 509q-5 17 -7.5 37t-2.5 43q0 26 4.5 55t13 58t21 56.5t28.5 51.5l67 -4q-17 -38 -27 -88.5t-10 -98.5q0 -28 4 -52.5t15 -51.5zM294 509q-5 17 -7.5 37t-2.5 43q0 26 4.5 55t13 58t21 56.5t28.5 51.5l67 -4q-17 -38 -27 -88.5t-10 -98.5q0 -28 4 -52.5t15 -51.5z" />
    <glyph glyph-name="quoteleft" unicode="&#x2018;" horiz-adv-x="235" 
d="M65 509q-5 17 -7.5 37t-2.5 43q0 26 4.5 55t13 58t21 56.5t28.5 51.5l67 -4q-17 -38 -27 -88.5t-10 -98.5q0 -28 4 -52.5t15 -51.5l-106 -6v0z" />
    <glyph glyph-name="quotedblright" unicode="&#x201d;" horiz-adv-x="463" 
d="M173 810q11 -35 11 -81q0 -52 -18 -112t-50 -108l-67 5q18 37 27.5 87.5t9.5 98.5q0 27 -4 51.5t-15 52.5zM402 810q11 -35 11 -81q0 -52 -18 -112t-50 -108l-67 5q18 37 27.5 87.5t9.5 98.5q0 27 -4 51.5t-15 52.5z" />
    <glyph glyph-name="quotesinglbase" unicode="&#x201a;" horiz-adv-x="241" 
d="M163 152q11 -35 11 -81q0 -52 -18 -112t-50 -108l-67 5q18 37 27.5 87.5t9.5 98.5q0 27 -4 51.5t-15 52.5z" />
    <glyph glyph-name="quotesingle.tab" horiz-adv-x="298" 
d="M210 808v-4l-40 -324h-63v328h103z" />
    <glyph glyph-name="r" unicode="r" horiz-adv-x="437" 
d="M76 540h97l7 -78h4q63 35 110.5 58t88.5 29h41v-101h-39q-47 -5 -96.5 -22.5t-95.5 -41.5v-384h-117v540z" />
    <glyph glyph-name="racute" unicode="&#x155;" horiz-adv-x="437" 
d="M200 616l68 186h121l-106 -193zM76 540h97l7 -78h4q63 35 110.5 58t88.5 29h41v-101h-39q-47 -5 -96.5 -22.5t-95.5 -41.5v-384h-117v540z" />
    <glyph glyph-name="radical" unicode="&#x221a;" horiz-adv-x="730" 
d="M140 401l-95 -42l-35 83l195 82l194 -435l211 763h110l-244 -852h-146z" />
    <glyph glyph-name="rcaron" unicode="&#x159;" horiz-adv-x="437" 
d="M58 775l186 -76l187 76v-86l-187 -76l-186 76v86zM76 540h97l7 -78h4q63 35 110.5 58t88.5 29h41v-101h-39q-47 -5 -96.5 -22.5t-95.5 -41.5v-384h-117v540z" />
    <glyph glyph-name="rcommaaccent" unicode="&#x157;" horiz-adv-x="437" 
d="M79 -70h121l-75 -150h-93zM76 540h97l7 -78h4q63 35 110.5 58t88.5 29h41v-101h-39q-47 -5 -96.5 -22.5t-95.5 -41.5v-384h-117v540z" />
    <glyph glyph-name="rdblgrave" unicode="&#x211;" horiz-adv-x="437" 
d="M101 614l-108 194h123l68 -184zM307 614l-108 194h123l68 -184zM76 540h97l7 -78h4q63 35 110.5 58t88.5 29h41v-101h-39q-47 -5 -96.5 -22.5t-95.5 -41.5v-384h-117v540z" />
    <glyph glyph-name="rdotbelow" unicode="&#x1e5b;" horiz-adv-x="437" 
d="M76 540h97l7 -78h4q63 35 110.5 58t88.5 29h41v-101h-39q-47 -5 -96.5 -22.5t-95.5 -41.5v-384h-117v540zM133 -191q-30 0 -45 13.5t-15 44.5q0 59 60 59q61 0 61 -59q0 -31 -14.5 -44.5t-46.5 -13.5z" />
    <glyph glyph-name="registered" unicode="&#xae;" horiz-adv-x="724" 
d="M251 616q26 3 50 5t45 2q76 0 112 -26t36 -80q0 -74 -68 -96l-1 -3l79 -131h-58l-70 120h-71v-120h-54v329zM349 451q47 0 68.5 15.5t21.5 49.5q0 32 -20 47.5t-67 15.5q-8 0 -22 -0.5t-25 -1.5v-125q6 -1 20 -1h24zM362 141q-68 0 -124 22.5t-96.5 63t-63 96.5
t-22.5 123t22.5 123.5t63 97t96.5 63.5t124 23t124.5 -23t97 -63.5t63 -97t22.5 -123.5t-22.5 -123t-63 -96.5t-97 -63t-124.5 -22.5zM362 193q56 0 102.5 18.5t79.5 52t51.5 80t18.5 102.5t-18.5 103t-51.5 80.5t-79.5 52t-102.5 18.5t-102.5 -18.5t-79.5 -52t-51 -80.5
t-18 -103t18 -102.5t51 -80t79.5 -52t102.5 -18.5z" />
    <glyph glyph-name="rinvertedbreve" unicode="&#x213;" horiz-adv-x="437" 
d="M41 627q0 36 11 66t35.5 51.5t63.5 33.5t95 12q55 0 94 -12t64 -33.5t36 -51.5t11 -66h-84q0 54 -29 78t-92 24t-92.5 -24t-29.5 -78h-83zM76 540h97l7 -78h4q63 35 110.5 58t88.5 29h41v-101h-39q-47 -5 -96.5 -22.5t-95.5 -41.5v-384h-117v540z" />
    <glyph glyph-name="s" unicode="s" horiz-adv-x="524" 
d="M255 -11q-41 0 -92 5.5t-117 17.5v89q60 -12 109.5 -20t94.5 -8q120 0 120 74q0 21 -8.5 35t-23.5 23t-36.5 14.5t-47.5 9.5q-34 5 -69.5 12.5t-65 24t-48 46.5t-18.5 80q0 76 59.5 118.5t164.5 42.5q19 0 37.5 -1t40 -3.5t47.5 -6.5t61 -10l-6 -93q-56 12 -98 18.5
t-75 6.5q-118 0 -118 -70q0 -21 9.5 -34.5t27 -22t42.5 -13.5t56 -10q40 -6 73.5 -16.5t57.5 -29t37.5 -46.5t13.5 -68q0 -80 -58 -122.5t-170 -42.5z" />
    <glyph glyph-name="sacute" unicode="&#x15b;" horiz-adv-x="524" 
d="M210 616l68 186h121l-106 -193zM255 -11q-41 0 -92 5.5t-117 17.5v89q60 -12 109.5 -20t94.5 -8q120 0 120 74q0 21 -8.5 35t-23.5 23t-36.5 14.5t-47.5 9.5q-34 5 -69.5 12.5t-65 24t-48 46.5t-18.5 80q0 76 59.5 118.5t164.5 42.5q19 0 37.5 -1t40 -3.5t47.5 -6.5
t61 -10l-6 -93q-56 12 -98 18.5t-75 6.5q-118 0 -118 -70q0 -21 9.5 -34.5t27 -22t42.5 -13.5t56 -10q40 -6 73.5 -16.5t57.5 -29t37.5 -46.5t13.5 -68q0 -80 -58 -122.5t-170 -42.5z" />
    <glyph glyph-name="scaron" unicode="&#x161;" horiz-adv-x="524" 
d="M74 775l186 -76l187 76v-86l-187 -76l-186 76v86zM255 -11q-41 0 -92 5.5t-117 17.5v89q60 -12 109.5 -20t94.5 -8q120 0 120 74q0 21 -8.5 35t-23.5 23t-36.5 14.5t-47.5 9.5q-34 5 -69.5 12.5t-65 24t-48 46.5t-18.5 80q0 76 59.5 118.5t164.5 42.5q19 0 37.5 -1
t40 -3.5t47.5 -6.5t61 -10l-6 -93q-56 12 -98 18.5t-75 6.5q-118 0 -118 -70q0 -21 9.5 -34.5t27 -22t42.5 -13.5t56 -10q40 -6 73.5 -16.5t57.5 -29t37.5 -46.5t13.5 -68q0 -80 -58 -122.5t-170 -42.5z" />
    <glyph glyph-name="schwa" unicode="&#x259;" horiz-adv-x="588" 
d="M268 549q136 0 205 -68.5t69 -203.5q0 -141 -68.5 -213.5t-201.5 -72.5q-118 0 -172 62t-54 190q0 23 1.5 38t4.5 29h376q-6 80 -45 113t-126 33q-42 0 -86.5 -5.5t-100.5 -19.5l-5 86q45 14 99 23t104 9zM277 80q75 0 110 37.5t41 119.5h-277q2 -86 30 -121.5t96 -35.5z
" />
    <glyph glyph-name="scircumflex" unicode="&#x15d;" horiz-adv-x="524" 
d="M74 710l185 77l188 -77v-86l-187 76l-186 -76v86zM255 -11q-41 0 -92 5.5t-117 17.5v89q60 -12 109.5 -20t94.5 -8q120 0 120 74q0 21 -8.5 35t-23.5 23t-36.5 14.5t-47.5 9.5q-34 5 -69.5 12.5t-65 24t-48 46.5t-18.5 80q0 76 59.5 118.5t164.5 42.5q19 0 37.5 -1
t40 -3.5t47.5 -6.5t61 -10l-6 -93q-56 12 -98 18.5t-75 6.5q-118 0 -118 -70q0 -21 9.5 -34.5t27 -22t42.5 -13.5t56 -10q40 -6 73.5 -16.5t57.5 -29t37.5 -46.5t13.5 -68q0 -80 -58 -122.5t-170 -42.5z" />
    <glyph glyph-name="sdotbelow" unicode="&#x1e63;" horiz-adv-x="524" 
d="M255 -11q-41 0 -92 5.5t-117 17.5v89q60 -12 109.5 -20t94.5 -8q120 0 120 74q0 21 -8.5 35t-23.5 23t-36.5 14.5t-47.5 9.5q-34 5 -69.5 12.5t-65 24t-48 46.5t-18.5 80q0 76 59.5 118.5t164.5 42.5q19 0 37.5 -1t40 -3.5t47.5 -6.5t61 -10l-6 -93q-56 12 -98 18.5
t-75 6.5q-118 0 -118 -70q0 -21 9.5 -34.5t27 -22t42.5 -13.5t56 -10q40 -6 73.5 -16.5t57.5 -29t37.5 -46.5t13.5 -68q0 -80 -58 -122.5t-170 -42.5zM274 -191q-30 0 -45 13.5t-15 44.5q0 59 60 59q61 0 61 -59q0 -31 -14.5 -44.5t-46.5 -13.5z" />
    <glyph glyph-name="section" unicode="&#xa7;" horiz-adv-x="554" 
d="M269 -11q-42 0 -92.5 5.5t-116.5 17.5v84q116 -25 203 -25q121 0 121 76q0 21 -8.5 35t-24 23.5t-37 15t-47.5 9.5q-33 5 -69 12t-65 23.5t-48 46.5t-19 80q0 32 12 58t32 46q-20 17 -32 42t-12 63q0 75 59.5 117.5t164.5 42.5q19 0 38 -1t40 -3.5t47 -6t61 -9.5l-5 -90
q-111 24 -173 24q-118 0 -118 -72q0 -21 9.5 -34.5t27 -22t42.5 -14t56 -10.5q40 -6 73.5 -17t57.5 -29.5t37.5 -46t13.5 -67.5q0 -68 -42 -108q20 -17 31 -41t11 -59q0 -80 -58.5 -122.5t-169.5 -42.5zM361 288q23 23 23 58q0 26 -8 43t-21.5 28t-33 17t-41.5 11
q-14 3 -37 7.5t-35 9.5q-28 -21 -28 -61q0 -24 8.5 -39.5t23.5 -25.5t36 -16.5t45 -11.5q14 -3 34.5 -8.5t33.5 -11.5z" />
    <glyph glyph-name="section.tab" 
d="M289 -11q-43 0 -95 5.5t-121 17.5v84q119 -25 211 -25q126 0 126 76q0 21 -9 35t-25 23.5t-38.5 15t-49.5 9.5q-35 5 -72 12t-67.5 23.5t-50 46.5t-19.5 80q0 32 12 58t34 46q-20 17 -33 42t-13 63q0 75 61.5 117.5t170.5 42.5q20 0 39.5 -1t41.5 -3.5t48.5 -6t62.5 -9.5
l-5 -90q-59 12 -102 18t-77 6q-126 0 -126 -72q0 -21 10 -34.5t29 -22t45 -14t58 -10.5q41 -6 75.5 -17t60 -29.5t39.5 -46t14 -67.5q0 -68 -43 -108q21 -17 32 -41t11 -59q0 -80 -60 -122.5t-175 -42.5zM386 288q24 21 24 58q0 26 -8 43t-22.5 28t-34.5 17t-44 11l-40 7.5
t-38 9.5q-30 -22 -30 -61q0 -24 9 -39.5t25.5 -25.5t38.5 -16.5t48 -11.5q14 -3 36.5 -8.5t35.5 -11.5z" />
    <glyph glyph-name="semicolon" unicode=";" horiz-adv-x="293" 
d="M52 -145l45 271h119l-75 -281zM152 411q-32 0 -51.5 17t-19.5 50q0 35 19.5 51t51.5 16t52 -16.5t20 -50.5q0 -33 -20 -50t-52 -17z" />
    <glyph glyph-name="semicolon.tab" horiz-adv-x="298" 
d="M48 -145l52 271h119l-81 -281zM154 411q-32 0 -52 17t-20 51t20 50t52 16t53 -16.5t21 -49.5q0 -34 -21 -51t-53 -17z" />
    <glyph glyph-name="servicemark" unicode="&#x2120;" horiz-adv-x="994" 
d="M217 312q-31 0 -72 4.5t-79 12.5v68q45 -10 82 -14.5t65 -4.5q89 0 89 52q0 16 -6.5 27t-18.5 18.5t-27.5 12.5t-33.5 9q-77 16 -110 45t-33 82q0 57 43.5 89.5t117.5 32.5q26 0 55.5 -4t71.5 -13v-68q-30 8 -62.5 13t-57.5 5q-40 0 -62.5 -14t-22.5 -40
q0 -23 18.5 -37.5t66.5 -24.5q31 -6 57.5 -15.5t45.5 -24t29.5 -36t10.5 -52.5q0 -60 -42.5 -91.5t-124.5 -31.5zM456 740h99l131 -311l132 311h100v-420h-73v313l-126 -297h-65l-125 297v-313h-73v420z" />
    <glyph glyph-name="seven" unicode="7" horiz-adv-x="547" 
d="M220 -17l-100 17v15l278 622h-367l-7 93l8 10h477l21 -62v-21l-281 -658z" />
    <glyph glyph-name="seven.denominator" horiz-adv-x="418" 
d="M165 -14l-67 12l-7 22l205 437h-269l-3 70l10 12h348l17 -43v-27l-209 -471z" />
    <glyph glyph-name="seven.numerator" horiz-adv-x="418" 
d="M165 186l-67 12l-7 22l205 437h-269l-3 70l10 12h348l17 -43v-27l-209 -471z" />
    <glyph glyph-name="seven.osf" horiz-adv-x="537" 
d="M214 -173l-100 17v15l277 622h-366l-8 93l9 10h476l21 -62v-21l-280 -658z" />
    <glyph glyph-name="seven.tf" 
d="M239 -17l-103 17v15l299 622h-395l-8 93l9 10h505l22 -62v-21l-300 -658z" />
    <glyph glyph-name="seven.tosf" 
d="M239 -173l-103 17v15l299 622h-395l-8 93l9 10h505l22 -62v-21l-300 -658z" />
    <glyph glyph-name="seveneighths" unicode="&#x215e;" horiz-adv-x="1115" 
d="M607 740h105l-373 -740h-106zM851 -4q-109 0 -166.5 36.5t-57.5 114.5q0 27 7.5 49t19.5 39t27.5 29t32.5 21q-32 18 -52 47t-20 73q0 74 57 111.5t152 37.5q91 0 146.5 -37.5t55.5 -111.5q0 -49 -22 -78t-50 -46q40 -19 65.5 -49t25.5 -81q0 -78 -57 -116.5t-164 -38.5z
M851 70q56 0 87.5 20.5t31.5 63.5q0 20 -10 34t-27.5 24.5t-42 18t-52.5 15.5l-34 9q-9 -5 -22 -12.5t-24.5 -19t-20 -28t-8.5 -38.5q0 -44 33 -65.5t89 -21.5zM883 305q8 4 19.5 12t22.5 20t18.5 28t7.5 37q0 39 -28 58t-72 19q-47 0 -77 -18.5t-30 -56.5q0 -22 9.5 -36.5
t26 -25t38.5 -18t47 -14.5zM171 186l-67 12l-7 22l205 437h-269l-3 70l10 12h348l17 -43v-27l-209 -471z" />
    <glyph glyph-name="seveninferior" unicode="&#x2087;" horiz-adv-x="418" 
d="M165 -114l-67 12l-7 22l205 437h-269l-3 70l10 12h348l17 -43v-27l-209 -471z" />
    <glyph glyph-name="sevensuperior" unicode="&#x2077;" horiz-adv-x="418" 
d="M165 286l-67 12l-7 22l205 437h-269l-3 70l10 12h348l17 -43v-27l-209 -471z" />
    <glyph glyph-name="six.denominator" horiz-adv-x="531" 
d="M275 -7q-113 0 -172.5 63t-59.5 188q0 151 75.5 230.5t220.5 79.5q27 0 56 -3t64 -11l-13 -80q-32 7 -56.5 10t-48.5 3q-86 0 -134.5 -45t-61.5 -132q35 24 75 37t79 13q44 0 80.5 -11.5t62.5 -33t40 -52t14 -68.5q0 -43 -15.5 -77.5t-44.5 -59t-69.5 -38t-91.5 -13.5z
M275 73q56 0 86.5 28t30.5 79q0 45 -30 68t-87 23q-33 0 -68.5 -11.5t-61.5 -31.5q3 -80 35 -117.5t95 -37.5z" />
    <glyph glyph-name="six.numerator" horiz-adv-x="531" 
d="M275 193q-113 0 -172.5 63t-59.5 188q0 151 75.5 230.5t220.5 79.5q27 0 56 -3t64 -11l-13 -80q-32 7 -56.5 10t-48.5 3q-86 0 -134.5 -45t-61.5 -132q35 24 75 37t79 13q44 0 80.5 -11.5t62.5 -33t40 -52t14 -68.5q0 -43 -15.5 -77.5t-44.5 -59t-69.5 -38t-91.5 -13.5z
M275 273q56 0 86.5 28t30.5 79q0 45 -30 68t-87 23q-33 0 -68.5 -11.5t-61.5 -31.5q3 -80 35 -117.5t95 -37.5z" />
    <glyph glyph-name="six.tf" 
d="M310 -11q-136 0 -207.5 85t-71.5 255q0 204 91 313t267 109q64 0 142 -18l-11 -88q-38 9 -68 13t-59 4q-109 0 -169.5 -68.5t-71.5 -200.5q38 31 86.5 48.5t98.5 17.5q55 0 100 -15t76.5 -43.5t48.5 -69t17 -90.5q0 -57 -19 -103.5t-54 -79.5t-85 -51t-111 -18zM310 381
q-41 0 -85 -18t-77 -49q2 -123 41.5 -180.5t120.5 -57.5q70 0 108.5 43t38.5 120q0 69 -37.5 105.5t-109.5 36.5z" />
    <glyph glyph-name="six.tosf" 
d="M316 -15q-141 0 -213.5 82.5t-72.5 246.5q0 184 91 281t267 97q32 0 67 -4t75 -14l-11 -88q-40 8 -69 12.5t-58 4.5q-112 0 -173 -64.5t-71 -187.5q38 32 87.5 50t100.5 18q55 0 100 -14t76.5 -40t48.5 -63t17 -83q0 -53 -19 -96t-53.5 -73.5t-83 -47.5t-106.5 -17z
M309 341q-42 0 -86.5 -15t-76.5 -41q3 -115 43 -164.5t120 -49.5q71 0 109 38.5t38 106.5q0 62 -37.5 93.5t-109.5 31.5z" />
    <glyph glyph-name="sixinferior" unicode="&#x2086;" horiz-adv-x="531" 
d="M275 -107q-113 0 -172.5 63t-59.5 188q0 151 75.5 230.5t220.5 79.5q27 0 56 -3t64 -11l-13 -80q-32 7 -56.5 10t-48.5 3q-86 0 -134.5 -45t-61.5 -132q35 24 75 37t79 13q44 0 80.5 -11.5t62.5 -33t40 -52t14 -68.5q0 -43 -15.5 -77.5t-44.5 -59t-69.5 -38t-91.5 -13.5z
M275 -27q56 0 86.5 28t30.5 79q0 45 -30 68t-87 23q-33 0 -68.5 -11.5t-61.5 -31.5q3 -80 35 -117.5t95 -37.5z" />
    <glyph glyph-name="sixsuperior" unicode="&#x2076;" horiz-adv-x="531" 
d="M275 293q-113 0 -172.5 63t-59.5 188q0 151 75.5 230.5t220.5 79.5q27 0 56 -3t64 -11l-13 -80q-32 7 -56.5 10t-48.5 3q-86 0 -134.5 -45t-61.5 -132q35 24 75 37t79 13q44 0 80.5 -11.5t62.5 -33t40 -52t14 -68.5q0 -43 -15.5 -77.5t-44.5 -59t-69.5 -38t-91.5 -13.5z
M275 373q56 0 86.5 28t30.5 79q0 45 -30 68t-87 23q-33 0 -68.5 -11.5t-61.5 -31.5q3 -80 35 -117.5t95 -37.5z" />
    <glyph glyph-name="slash" unicode="/" horiz-adv-x="437" 
d="M304 740h103l-274 -860h-103z" />
    <glyph glyph-name="slash.tab" 
d="M418 740h111l-351 -860h-112z" />
    <glyph glyph-name="AE" unicode="&#xc6;" horiz-adv-x="965" 
d="M3 9l321 731h581v-94h-345l12 -225h309v-95h-304l13 -232h328v-94h-447l-9 204h-254l-90 -204h-115v9zM251 302h207l-14 351h-38z" />
    <glyph glyph-name="space.tab" horiz-adv-x="298" 
 />
    <glyph glyph-name="sterling" unicode="&#xa3;" horiz-adv-x="700" 
d="M51 417h166v101q0 115 61.5 172t194.5 57q42 0 83.5 -6.5t93.5 -21.5l-8 -95q-91 22 -158 22q-81 0 -114.5 -29.5t-33.5 -98.5v-101h226v-94h-226v-220h300v-103h-585v103h166v220h-166v94z" />
    <glyph glyph-name="sterling.tab" 
d="M13 417h156v101q0 115 59 172t186 57q40 0 79.5 -6.5t87.5 -21.5l-7 -95q-44 11 -81 16.5t-67 5.5q-77 0 -108.5 -29.5t-31.5 -98.5v-101h213v-94h-213v-220h282v-103h-555v103h156v220h-156v94z" />
    <glyph glyph-name="summation" unicode="&#x2211;" horiz-adv-x="623" 
d="M39 -36l265 355l-265 355v66h537v-93h-397l239 -328l-239 -328h397v-92h-537v65z" />
    <glyph glyph-name="tbar" unicode="&#x167;" horiz-adv-x="446" 
d="M28 335h111v105h-112v100h119l17 142l92 10v-152h162v-100h-161v-105h139v-72h-139v-86q0 -51 21.5 -73.5t70.5 -22.5q35 0 75 13v-91q-25 -7 -55 -10.5t-59 -3.5q-84 0 -127 41t-43 121v112h-111v72z" />
    <glyph glyph-name="tcaron" unicode="&#x165;" horiz-adv-x="431" 
d="M301 -11q-84 0 -127 41t-43 121v289h-112v100h119l17 142l92 10v-152h121v-100h-120v-263q0 -51 21.5 -73.5t70.5 -22.5q35 0 75 13v-91q-25 -7 -55 -10.5t-59 -3.5zM336 808h95l-34 -228h-61v228z" />
    <glyph glyph-name="tdotbelow" unicode="&#x1e6d;" horiz-adv-x="438" 
d="M275 -191q-30 0 -45 13.5t-15 44.5q0 59 60 59q61 0 61 -59q0 -31 -14.5 -44.5t-46.5 -13.5zM301 -11q-84 0 -127 41t-43 121v289h-112v100h119l17 142l92 10v-152h162v-100h-161v-263q0 -51 21.5 -73.5t70.5 -22.5q35 0 75 13v-91q-25 -7 -55 -10.5t-59 -3.5z" />
    <glyph glyph-name="thorn" unicode="&#xfe;" horiz-adv-x="659" 
d="M76 808h116v-327q27 29 72.5 49t114.5 20q118 0 175.5 -66.5t57.5 -209.5q0 -284 -301 -284q-26 0 -59.5 3.5t-59.5 5.5v-219h-116v1028zM311 72q48 0 83 7.5t57 29t32.5 59t10.5 97.5t-9 98.5t-27 61t-46.5 31t-67.5 8.5q-78 0 -115 -44t-37 -132v-201q30 -8 63 -11.5
t56 -3.5z" />
    <glyph glyph-name="three" unicode="3" horiz-adv-x="584" 
d="M236 -11q-23 0 -48 1t-49 3t-45.5 5t-36.5 6v92h4q13 -3 33 -5.5t42.5 -4.5t44 -3t37.5 -1q101 0 145 32t44 99q0 62 -41.5 90t-139.5 28h-81v88h80q88 0 125.5 28t37.5 90q0 61 -39 89.5t-127 28.5q-29 0 -72.5 -4t-88.5 -10h-4v92q18 3 41.5 6.5t48 5.5t48.5 3.5
t43 1.5q134 0 203.5 -52t69.5 -152q0 -61 -31.5 -103.5t-89.5 -59.5v-7q66 -14 103.5 -59.5t37.5 -111.5q0 -106 -75 -161t-220 -55z" />
    <glyph glyph-name="three.numerator" horiz-adv-x="458" 
d="M198 192q-20 0 -41.5 1t-41.5 2.5t-37.5 3.5t-30.5 5v87h5q10 -2 26 -3.5t33 -3t34 -2.5t29 -1q76 0 108.5 21t32.5 65q0 38 -31.5 56.5t-104.5 18.5h-64v69h63q65 0 93.5 19t28.5 58q0 40 -28.5 59t-94.5 19q-21 0 -54.5 -3t-70.5 -8h-5v86q14 3 32 5t37.5 4t38.5 3
t35 1q105 0 159 -40t54 -116q0 -42 -19 -71.5t-54 -45.5q41 -15 62.5 -48t21.5 -81q0 -78 -55 -119t-161 -41z" />
    </font>
</defs>
</svg>
