<?xml version="1.0" standalone="no"?>
<!DOCTYPE svg PUBLIC "-//W3C//DTD SVG 1.1//EN" "http://www.w3.org/Graphics/SVG/1.1/DTD/svg11.dtd" >
<svg xmlns="http://www.w3.org/2000/svg" xmlns:xlink="http://www.w3.org/1999/xlink" version="1.1">
<metadata>
Created by FontForge 20170731 at Thu Mar 27 18:46:09 2014
 By Aleksey,,,
Copyright (c) 2012, Impallari Type (www.impallari.com), with Reserved Font Name Encode Sans.
</metadata>
<defs>
<font id="EncodeSansWide-Regular" horiz-adv-x="578" >
  <font-face 
    font-family="Encode Sans Wide"
    font-weight="400"
    font-stretch="normal"
    units-per-em="1000"
    panose-1="2 0 0 0 0 0 0 0 0 0"
    ascent="800"
    descent="-200"
    x-height="540"
    cap-height="740"
    bbox="-106 -220 1742 1030"
    underline-thickness="55"
    underline-position="-165"
    unicode-range="U+000D-FB04"
  />
<missing-glyph horiz-adv-x="816" 
d="M98 1030h619v-1250h-619v1250zM637 -144v1099h-458v-1099h458z" />
    <glyph glyph-name="f_f" unicode="ff" horiz-adv-x="827" 
d="M146 460h-130v80h131v23q0 74 12 121.5t42.5 75.5t83 40t132.5 14l5 -67q-57 -4 -92.5 -11.5t-56 -24t-28 -46t-7.5 -76.5v-49h157v-80h-157v-460h-92v460zM562 460h-130v80h131v23q0 74 12 121.5t42.5 75.5t83 40t132.5 14l5 -67q-57 -4 -92.5 -11.5t-56 -24t-28 -46
t-7.5 -76.5v-49h157v-80h-157v-460h-92v460z" />
    <glyph glyph-name="f_i" unicode="fi" horiz-adv-x="682" 
d="M555 649q-56 0 -56 55q0 56 56 56q57 0 57 -56q0 -55 -57 -55zM509 540h92v-540h-92v540zM146 460h-130v80h131v23q0 74 12 121.5t42.5 75.5t83 40t132.5 14l5 -67q-57 -4 -92.5 -11.5t-56 -24t-28 -46t-7.5 -76.5v-49h157v-80h-157v-460h-92v460z" />
    <glyph glyph-name="f_l" unicode="fl" horiz-adv-x="684" 
d="M146 460h-130v80h131v23q0 74 12 121.5t42.5 75.5t83 40t132.5 14l5 -67q-57 -4 -92.5 -11.5t-56 -24t-28 -46t-7.5 -76.5v-49h157v-80h-157v-460h-92v460zM508 808h92v-808h-92v808z" />
    <glyph glyph-name="f_f_i" unicode="ffi" horiz-adv-x="1097" 
d="M970 649q-56 0 -56 55q0 56 56 56q57 0 57 -56q0 -55 -57 -55zM924 540h92v-540h-92v540zM562 460h-130v80h131v23q0 74 12 121.5t42.5 75.5t83 40t132.5 14l5 -67q-57 -4 -92.5 -11.5t-56 -24t-28 -46t-7.5 -76.5v-49h157v-80h-157v-460h-92v460zM146 460h-130v80h131
v23q0 74 12 121.5t42.5 75.5t83 40t132.5 14l5 -67q-57 -4 -92.5 -11.5t-56 -24t-28 -46t-7.5 -76.5v-49h157v-80h-157v-460h-92v460z" />
    <glyph glyph-name="f_f_l" unicode="ffl" horiz-adv-x="1098" 
d="M562 460h-130v80h131v23q0 74 12 121.5t42.5 75.5t83 40t132.5 14l5 -67q-57 -4 -92.5 -11.5t-56 -24t-28 -46t-7.5 -76.5v-49h157v-80h-157v-460h-92v460zM924 808h92v-808h-92v808zM146 460h-130v80h131v23q0 74 12 121.5t42.5 75.5t83 40t132.5 14l5 -67
q-57 -4 -92.5 -11.5t-56 -24t-28 -46t-7.5 -76.5v-49h157v-80h-157v-460h-92v460z" />
    <glyph glyph-name="f_b" unicode="fb" horiz-adv-x="1073" 
d="M147 460h-130v80h131v23q0 74 12 121.5t42.5 75.5t83 40t132.5 14l5 -67q-57 -4 -92.5 -11.5t-56 -24t-28 -46t-7.5 -76.5v-49h157v-80h-157v-460h-92v460zM743 -11q-50 0 -106.5 4.5t-127.5 16.5v798h92v-330q66 72 182 72t178 -67t62 -209q0 -73 -20.5 -126.5
t-57.5 -89t-88.5 -52.5t-113.5 -17zM741 59q95 0 142 47.5t47 162.5q0 112 -40 159t-127 47q-32 0 -61 -8t-51.5 -23t-36 -36t-13.5 -47v-292q26 -4 62 -7t78 -3z" />
    <glyph glyph-name="f_f_b" unicode="ffb" horiz-adv-x="1488" 
d="M563 460h-130v80h131v23q0 74 12 121.5t42.5 75.5t83 40t132.5 14l5 -67q-57 -4 -92.5 -11.5t-56 -24t-28 -46t-7.5 -76.5v-49h157v-80h-157v-460h-92v460zM1159 -11q-50 0 -106.5 4.5t-127.5 16.5v798h92v-330q66 72 182 72t178 -67t62 -209q0 -73 -20.5 -126.5
t-57.5 -89t-88.5 -52.5t-113.5 -17zM1157 59q95 0 142 47.5t47 162.5q0 112 -40 159t-127 47q-32 0 -61 -8t-51.5 -23t-36 -36t-13.5 -47v-292q26 -4 62 -7t78 -3zM147 460h-130v80h131v23q0 74 12 121.5t42.5 75.5t83 40t132.5 14l5 -67q-57 -4 -92.5 -11.5t-56 -24
t-28 -46t-7.5 -76.5v-49h157v-80h-157v-460h-92v460z" />
    <glyph glyph-name="f_f_h" unicode="ffh" horiz-adv-x="1490" 
d="M925 808h91v-332q43 19 78.5 33t64.5 23t54.5 13.5t49.5 4.5q72 0 112 -37.5t40 -112.5v-400h-92v367q0 58 -23 83t-71 25q-40 0 -95 -17t-118 -45v-413h-91v808zM562 460h-130v80h131v23q0 74 12 121.5t42.5 75.5t83 40t132.5 14l5 -67q-57 -4 -92.5 -11.5t-56 -24
t-28 -46t-7.5 -76.5v-49h157v-80h-157v-460h-92v460zM146 460h-130v80h131v23q0 74 12 121.5t42.5 75.5t83 40t132.5 14l5 -67q-57 -4 -92.5 -11.5t-56 -24t-28 -46t-7.5 -76.5v-49h157v-80h-157v-460h-92v460z" />
    <glyph glyph-name="f_f_j" unicode="ffj" horiz-adv-x="1100" 
d="M562 460h-130v80h131v23q0 74 12 121.5t42.5 75.5t83 40t132.5 14l5 -67q-57 -4 -92.5 -11.5t-56 -24t-28 -46t-7.5 -76.5v-49h157v-80h-157v-460h-92v460zM972 649q-30 0 -43.5 13t-13.5 42t13.5 42.5t43.5 13.5q56 0 56 -56q0 -55 -56 -55zM863 -200q18 37 30.5 73.5
t20.5 76t12 84.5t4 100v33v68v87v90.5t-0.5 78t-0.5 49.5h91v-454q-3 -85 -25.5 -161t-64.5 -145zM146 460h-130v80h131v23q0 74 12 121.5t42.5 75.5t83 40t132.5 14l5 -67q-57 -4 -92.5 -11.5t-56 -24t-28 -46t-7.5 -76.5v-49h157v-80h-157v-460h-92v460z" />
    <glyph glyph-name="f_f_k" unicode="ffk" horiz-adv-x="1431" 
d="M925 808h91v-499h103l191 231h105l-213 -253l-19 -8v-4l20 -9l228 -266h-104l-210 246h-101v-246h-91v808zM562 460h-130v80h131v23q0 74 12 121.5t42.5 75.5t83 40t132.5 14l5 -67q-57 -4 -92.5 -11.5t-56 -24t-28 -46t-7.5 -76.5v-49h157v-80h-157v-460h-92v460z
M146 460h-130v80h131v23q0 74 12 121.5t42.5 75.5t83 40t132.5 14l5 -67q-57 -4 -92.5 -11.5t-56 -24t-28 -46t-7.5 -76.5v-49h157v-80h-157v-460h-92v460z" />
    <glyph glyph-name="f_f_t" unicode="fft" horiz-adv-x="1252" 
d="M563 460h-130v80h131v23q0 74 12 121.5t42.5 75.5t83 40t132.5 14l5 -67q-57 -4 -92.5 -11.5t-56 -24t-28 -46t-7.5 -76.5v-49h157v-80h-157v-460h-92v460zM1129 -10q-79 0 -120 39.5t-41 116.5v314h-117v80h122l14 135l72 9v-144h169v-80h-168v-294q0 -52 23 -77t74 -25
q36 0 78 13v-73q-51 -14 -106 -14zM147 460h-130v80h131v23q0 74 12 121.5t42.5 75.5t83 40t132.5 14l5 -67q-57 -4 -92.5 -11.5t-56 -24t-28 -46t-7.5 -76.5v-49h157v-80h-157v-460h-92v460z" />
    <glyph glyph-name="f_h" unicode="fh" horiz-adv-x="1076" 
d="M509 808h91v-332q43 19 78.5 33t64.5 23t54.5 13.5t49.5 4.5q72 0 112 -37.5t40 -112.5v-400h-92v367q0 58 -23 83t-71 25q-40 0 -95 -17t-118 -45v-413h-91v808zM146 460h-130v80h131v23q0 74 12 121.5t42.5 75.5t83 40t132.5 14l5 -67q-57 -4 -92.5 -11.5t-56 -24
t-28 -46t-7.5 -76.5v-49h157v-80h-157v-460h-92v460z" />
    <glyph glyph-name="f_j" unicode="fj" horiz-adv-x="685" 
d="M146 460h-130v80h131v23q0 74 12 121.5t42.5 75.5t83 40t132.5 14l5 -67q-57 -4 -92.5 -11.5t-56 -24t-28 -46t-7.5 -76.5v-49h157v-80h-157v-460h-92v460zM556 649q-30 0 -43.5 13t-13.5 42t13.5 42.5t43.5 13.5q56 0 56 -56q0 -55 -56 -55zM447 -200q18 37 30.5 73.5
t20.5 76t12 84.5t4 100v33v68v87v90.5t-0.5 78t-0.5 49.5h91v-454q-3 -85 -25.5 -161t-64.5 -145z" />
    <glyph glyph-name="f_k" unicode="fk" horiz-adv-x="1016" 
d="M509 808h91v-499h103l191 231h105l-213 -253l-19 -8v-4l20 -9l228 -266h-104l-210 246h-101v-246h-91v808zM146 460h-130v80h131v23q0 74 12 121.5t42.5 75.5t83 40t132.5 14l5 -67q-57 -4 -92.5 -11.5t-56 -24t-28 -46t-7.5 -76.5v-49h157v-80h-157v-460h-92v460z" />
    <glyph glyph-name="f_t" unicode="ft" horiz-adv-x="838" 
d="M147 460h-130v80h131v23q0 74 12 121.5t42.5 75.5t83 40t132.5 14l5 -67q-57 -4 -92.5 -11.5t-56 -24t-28 -46t-7.5 -76.5v-49h157v-80h-157v-460h-92v460zM713 -10q-79 0 -120 39.5t-41 116.5v314h-117v80h122l14 135l72 9v-144h169v-80h-168v-294q0 -52 23 -77t74 -25
q36 0 78 13v-73q-51 -14 -106 -14z" />
    <glyph glyph-name=".notdef" horiz-adv-x="816" 
d="M98 1030h619v-1250h-619v1250zM637 -144v1099h-458v-1099h458z" />
    <glyph glyph-name=".null" horiz-adv-x="0" 
 />
    <glyph glyph-name="nonmarkingreturn" unicode="&#xd;" horiz-adv-x="298" 
 />
    <glyph glyph-name="NULL" horiz-adv-x="0" 
 />
    <glyph glyph-name="NULL" horiz-adv-x="0" 
 />
    <glyph glyph-name="space" unicode=" " horiz-adv-x="248" 
 />
    <glyph glyph-name="exclam" unicode="!" horiz-adv-x="267" 
d="M136 1q-25 0 -38.5 13.5t-13.5 37.5q0 50 52 50q25 0 38.5 -13.5t13.5 -36.5q0 -24 -13.5 -37.5t-38.5 -13.5zM104 198l-16 532v10h90v-10l-16 -532v-13h-58v13z" />
    <glyph glyph-name="quotedbl" unicode="&#x22;" horiz-adv-x="401" 
d="M153 808v-4l-33 -324h-48v328h81zM345 808v-4l-33 -324h-48v328h81z" />
    <glyph glyph-name="numbersign" unicode="#" horiz-adv-x="605" 
d="M358 221h-142l-18 -221h-68l18 221h-95v65h100l14 166h-114v66h119l18 222h68l-18 -222h142l19 222h68l-18 -222h100v-66h-105l-14 -166h119v-65h-124l-18 -221h-69zM221 286h142l14 166h-142z" />
    <glyph glyph-name="dollar" unicode="$" horiz-adv-x="617" 
d="M275 -11q-51 2 -110.5 10t-116.5 20v79q69 -15 132.5 -23.5t111.5 -8.5q93 0 141 31.5t48 90.5q0 36 -14 60t-38.5 39.5t-57 25.5t-69.5 19q-65 15 -111 34.5t-75 45.5t-42 60.5t-13 79.5q0 80 54 132.5t149 66.5v139h91v-135q77 -3 183 -25v-79q-49 14 -102.5 21
t-97.5 7q-84 0 -131.5 -34t-47.5 -91q0 -28 9 -49t29.5 -38t54.5 -30.5t84 -25.5q51 -12 95 -27.5t77 -39.5t51.5 -60t18.5 -89q0 -88 -54.5 -139t-158.5 -63v-143h-90v139z" />
    <glyph glyph-name="percent" unicode="%" horiz-adv-x="1021" 
d="M234 277q-94 0 -142.5 59.5t-48.5 177.5t48.5 177t142.5 59t142 -59t48 -177t-48 -177.5t-142 -59.5zM234 342q60 0 89.5 42t29.5 130t-29.5 130t-89.5 42t-89.5 -42t-29.5 -130t29.5 -130t89.5 -42zM788 -10q-94 0 -142.5 59.5t-48.5 177.5t48.5 177t142.5 59
q93 0 142 -59t49 -177t-49 -177.5t-142 -59.5zM788 54q60 0 89.5 42t29.5 131q0 88 -29.5 130t-89.5 42t-89.5 -42t-29.5 -130q0 -89 29.5 -131t89.5 -42zM655 740h85l-373 -740h-85z" />
    <glyph glyph-name="ampersand" unicode="&#x26;" horiz-adv-x="774" 
d="M346 -11q-68 0 -122 15t-92 43t-58 68.5t-20 90.5q0 69 36 119t106 76q-32 36 -45 73.5t-13 82.5q0 95 64 145.5t184 50.5q44 0 91 -8.5t104 -26.5l1 -6l-16 -60h-8q-48 17 -88 25t-76 8q-162 0 -162 -133q0 -34 12.5 -64.5t40.5 -59.5t72 -58.5t107 -62.5l125 -66
q9 45 9 101v78h86v-77q0 -81 -18 -142l90 -47v-9l-37 -61h-9l-77 42q-81 -137 -287 -137zM419 243q-54 29 -95.5 55t-72.5 51q-102 -43 -102 -139q0 -71 54 -112t148 -41q155 0 211 107z" />
    <glyph glyph-name="quotesingle" unicode="'" horiz-adv-x="209" 
d="M153 808v-4l-33 -324h-48v328h81z" />
    <glyph glyph-name="parenleft" unicode="(" horiz-adv-x="309" 
d="M205 -160q-77 111 -117 242.5t-40 271.5t40 271.5t117 242.5h83v-4q-78 -109 -120 -239.5t-42 -270.5q0 -141 42 -271t120 -239v-4h-83v0z" />
    <glyph glyph-name="parenright" unicode=")" horiz-adv-x="308" 
d="M20 -160v4q78 109 120 239t42 271q0 140 -42 270.5t-120 239.5v4h83q77 -111 116.5 -242.5t39.5 -271.5t-39.5 -271.5t-116.5 -242.5h-83z" />
    <glyph glyph-name="asterisk" unicode="*" horiz-adv-x="502" 
d="M108 478l47 66l75 75l-105 16l-76 24l18 56l77 -24l94 -48l-16 106v80h59v-80l-17 -106l94 48l77 24l18 -56l-76 -24l-104 -16l74 -75l48 -66l-48 -34l-47 65l-49 97l-49 -97l-47 -65z" />
    <glyph glyph-name="plus" unicode="+" horiz-adv-x="494" 
d="M49 402h166v169h64v-169h167v-64h-167v-169h-64v169h-166v64z" />
    <glyph glyph-name="comma" unicode="," horiz-adv-x="246" 
d="M37 -145l45 251h95l-69 -261z" />
    <glyph glyph-name="hyphen" unicode="-" horiz-adv-x="501" 
d="M71 318h359v-76h-359v76z" />
    <glyph glyph-name="period" unicode="." horiz-adv-x="248" 
d="M124 -4q-27 0 -43 14.5t-16 42.5t16 41.5t43 13.5t43 -14t16 -41q0 -28 -16 -42.5t-43 -14.5z" />
    <glyph glyph-name="slash" unicode="/" horiz-adv-x="420" 
d="M306 740h82l-274 -860h-82z" />
    <glyph glyph-name="zero" unicode="0" horiz-adv-x="703" 
d="M352 -11q-143 0 -218.5 95.5t-75.5 284.5q0 190 75.5 285.5t218.5 95.5t218 -95.5t75 -285.5q0 -189 -75 -284.5t-218 -95.5zM352 66q100 0 150 74t50 229q0 156 -50 229.5t-150 73.5q-102 0 -152 -73.5t-50 -229.5q0 -155 50 -229t152 -74z" />
    <glyph glyph-name="one" unicode="1" horiz-adv-x="429" 
d="M234 634h-4l-188 -85h-7l-11 58v4l232 129h71v-740h-93v634z" />
    <glyph glyph-name="two" unicode="2" horiz-adv-x="589" 
d="M49 99q0 50 15 89t44.5 70.5t72 59t96.5 55.5q83 42 120.5 79.5t37.5 88.5q0 65 -39 96t-120 31q-45 0 -95.5 -7.5t-98.5 -19.5l-10 81q66 14 118 20t100 6q121 0 179.5 -50t58.5 -151q0 -41 -11.5 -73t-35 -59.5t-59.5 -52t-84 -49.5q-94 -50 -142.5 -93.5t-48.5 -96.5
v-45h384v-76h-482v97z" />
    <glyph glyph-name="three" unicode="3" horiz-adv-x="564" 
d="M226 -11q-43 0 -89 4t-78 11v74h4q13 -3 32 -5.5t40 -4.5t41.5 -3t36.5 -1q102 0 150 37t48 110q0 66 -43.5 97t-140.5 31h-81v72h80q87 0 126 32t39 98q0 67 -41.5 100t-131.5 33q-27 0 -68.5 -4t-86.5 -10h-4v74q18 3 39.5 6t44 5.5t44.5 3.5t42 1q126 0 192.5 -52
t66.5 -151q0 -63 -31 -105.5t-88 -59.5v-6q66 -14 102.5 -59t36.5 -113q0 -106 -72 -160.5t-210 -54.5z" />
    <glyph glyph-name="four" unicode="4" horiz-adv-x="642" 
d="M25 227v7l249 516h4l86 -13l3 -10l-241 -475v-4h274l26 238h63v-238h123v-76h-123v-172h-91v172h-355z" />
    <glyph glyph-name="five" unicode="5" horiz-adv-x="572" 
d="M226 -11q-41 0 -84.5 4t-86.5 11v74h18q38 -7 73 -10.5t69 -3.5q107 0 159.5 34.5t52.5 122.5q0 38 -15 63t-47 40.5t-81.5 22.5t-117.5 8l-82 2l-10 10l28 373h388v-76h-316l-16 -230q94 -1 163 -12t114 -36t67 -66t22 -102q0 -64 -22 -108t-61 -71t-94 -38.5
t-121 -11.5z" />
    <glyph glyph-name="six" unicode="6" horiz-adv-x="656" 
d="M343 -11q-141 0 -213.5 84.5t-72.5 254.5q0 101 24 180t70.5 133t114.5 82t156 28q33 0 67 -4t74 -13l-8 -72q-38 9 -68.5 13t-62.5 4q-124 0 -192 -76t-79 -222q44 35 98.5 54.5t109.5 19.5q58 0 105 -15t80 -43t50.5 -68.5t17.5 -90.5q0 -57 -19.5 -103t-54.5 -78.5
t-85.5 -50t-111.5 -17.5zM343 390q-50 0 -102 -21t-90 -55q2 -131 49 -193t143 -62q81 0 127.5 48t46.5 130q0 74 -45 113.5t-129 39.5z" />
    <glyph glyph-name="seven" unicode="7" horiz-adv-x="530" 
d="M204 -15l-78 15v14l283 644h-377l-7 74l6 8h461l18 -49v-23l-282 -669z" />
    <glyph glyph-name="eight" unicode="8" horiz-adv-x="656" 
d="M329 -6q-136 0 -205 49t-69 149q0 43 13 75.5t33 56t44 39t45 25.5q-24 12 -44 27t-34.5 36t-23 48t-8.5 62q0 47 19 82.5t52.5 59t80 35.5t102.5 12q54 0 98.5 -12t76 -35.5t49 -59t17.5 -83.5q0 -39 -11 -68.5t-28 -51.5t-38 -37.5t-42 -26.5q30 -11 56.5 -26
t46.5 -36.5t31.5 -50.5t11.5 -68q0 -97 -70 -149t-203 -52zM322 343q-14 4 -29 8t-29 9q-14 -6 -34.5 -17t-39.5 -30t-32.5 -46.5t-13.5 -66.5q0 -71 50.5 -103.5t134.5 -32.5q83 0 133.5 32.5t50.5 95.5q0 37 -16 61.5t-42.5 41t-61 27.5t-71.5 21zM363 405q5 -2 9.5 -3
t9.5 -2q14 7 32.5 19.5t35.5 31t29 44t12 59.5q0 32 -12 56t-34 39.5t-51.5 23t-64.5 7.5t-65 -7.5t-52 -22.5t-34.5 -38.5t-12.5 -54.5q0 -37 16.5 -61.5t44.5 -41.5t63.5 -28t73.5 -21z" />
    <glyph glyph-name="nine" unicode="9" horiz-adv-x="657" 
d="M314 751q141 0 213.5 -84.5t72.5 -254.5q0 -101 -24 -180t-70.5 -133t-114.5 -82t-156 -28q-33 0 -67 4t-74 13l8 72q38 -9 68.5 -13t62.5 -4q124 0 192 76t79 222q-44 -35 -98.5 -54.5t-109.5 -19.5q-58 0 -105 15t-80 43t-50.5 68.5t-17.5 90.5q0 57 19.5 103
t54.5 78.5t85 50t112 17.5zM314 350q50 0 102 21t90 55q-2 131 -49 193t-143 62q-81 0 -127.5 -48t-46.5 -130q0 -74 45 -113.5t129 -39.5z" />
    <glyph glyph-name="colon" unicode=":" horiz-adv-x="256" 
d="M128 -4q-27 0 -43 14.5t-16 42.5t16 41.5t43 13.5t43 -14t16 -41q0 -28 -16 -42.5t-43 -14.5zM128 432q-27 0 -43 14.5t-16 42.5t16 41.5t43 13.5t43 -14t16 -41q0 -28 -16 -42.5t-43 -14.5z" />
    <glyph glyph-name="semicolon" unicode=";" horiz-adv-x="283" 
d="M59 -145l45 251h95l-69 -261zM147 432q-27 0 -43 14.5t-16 42.5t16 41.5t43 13.5t43 -14t16 -41q0 -28 -16 -42.5t-43 -14.5z" />
    <glyph glyph-name="less" unicode="&#x3c;" horiz-adv-x="522" 
d="M47 336v60l401 177v-71l-313 -137l311 -136v-70z" />
    <glyph glyph-name="equal" unicode="=" horiz-adv-x="535" 
d="M74 281h388v-66h-388v66zM74 495h388v-65h-388v65z" />
    <glyph glyph-name="greater" unicode="&#x3e;" horiz-adv-x="523" 
d="M77 229l310 136l-312 137v71l401 -177v-60l-399 -177v70z" />
    <glyph glyph-name="question" unicode="?" horiz-adv-x="468" 
d="M158 199l-6 189q32 7 66.5 18t62.5 29t46 45t18 66q0 37 -12.5 62t-33.5 40t-47.5 21.5t-54.5 6.5q-40 0 -78.5 -7t-74.5 -16l-10 71q41 11 85 18.5t92 7.5q43 0 83 -10.5t70 -33.5t48 -60.5t18 -91.5q0 -51 -18.5 -87t-47.5 -61t-65 -40t-71 -24l-2 -143v-18h-68v18z
M194 -2q-25 0 -38.5 13.5t-13.5 37.5q0 50 52 50t52 -50q0 -24 -13.5 -37.5t-38.5 -13.5z" />
    <glyph glyph-name="at" unicode="@" horiz-adv-x="920" 
d="M446 -134q-91 0 -164 27t-124 78t-78 124t-27 165q0 96 29 172.5t83.5 130t133 82t176.5 28.5q91 0 162.5 -24.5t120.5 -72t75 -116t26 -155.5q0 -122 -48.5 -187t-139.5 -65q-29 0 -50 7.5t-35 20.5t-21 28.5t-9 32.5h-5q-14 -18 -33 -33.5t-42 -27t-47.5 -17.5
t-48.5 -6q-65 0 -103 44.5t-38 129.5q0 57 18.5 104.5t52.5 82t81.5 54t105.5 19.5q34 0 72.5 -8.5t79.5 -23.5l-40 -210q-3 -20 -6 -37t-3 -31q0 -37 17.5 -54.5t55.5 -17.5q59 0 90.5 50t31.5 145q0 149 -82.5 228t-237.5 79q-83 0 -149.5 -24t-113 -69.5t-71.5 -111
t-25 -147.5q0 -78 22.5 -139.5t65 -104.5t104 -65.5t138.5 -22.5q89 0 205 33l20 -59q-64 -17 -120.5 -26.5t-104.5 -9.5zM391 114q29 0 55.5 11t48 30.5t36.5 46t21 58.5l30 164q-51 14 -84 14q-43 0 -79 -15.5t-62 -43t-40.5 -65t-14.5 -82.5q0 -57 23 -87.5t66 -30.5z
" />
    <glyph glyph-name="A" unicode="A" horiz-adv-x="723" 
d="M7 7l283 733h143l283 -733v-7h-93l-84 217h-355l-84 -217h-93v7zM512 297l-94 243l-52 136h-9l-51 -136l-95 -243h301z" />
    <glyph glyph-name="B" unicode="B" horiz-adv-x="701" 
d="M351 -10q-60 0 -122 3.5t-135 11.5v730q75 7 132 10.5t111 3.5q77 0 132 -11.5t90 -35.5t51 -62t16 -91q0 -66 -35 -111.5t-96 -58.5v-4q77 -15 116.5 -60.5t39.5 -119.5q0 -205 -300 -205zM346 61q109 0 160.5 34.5t51.5 106.5q0 140 -190 140h-184v-271q26 -5 64 -7.5
t98 -2.5zM361 409q93 0 133 31t40 104t-44 103.5t-150 30.5q-50 0 -87.5 -2t-68.5 -7v-260h177z" />
    <glyph glyph-name="C" unicode="C" horiz-adv-x="622" 
d="M400 -9q-172 0 -259 95t-87 282q0 190 87 286.5t258 96.5q37 0 85.5 -5.5t96.5 -14.5v-79q-58 10 -99.5 14.5t-73.5 4.5q-132 0 -195.5 -74.5t-63.5 -227.5q0 -152 61.5 -225.5t189.5 -73.5q18 0 42.5 2t50 5t49 7t39.5 8v-78q-19 -5 -42.5 -9t-48 -7t-48 -5t-42.5 -2z
" />
    <glyph glyph-name="D" unicode="D" horiz-adv-x="777" 
d="M302 -9q-34 0 -66 1t-59.5 3t-49 5t-33.5 7v732q26 2 57 3.5t61.5 3t58.5 2.5t48 1q208 0 305.5 -91.5t97.5 -287.5q0 -99 -24.5 -170.5t-75.5 -118t-130.5 -68.5t-189.5 -22zM331 68q155 0 225.5 72t70.5 230q0 157 -71 228.5t-227 71.5q-28 0 -68 -2t-74 -5v-584
q41 -6 72.5 -8.5t71.5 -2.5z" />
    <glyph glyph-name="E" unicode="E" horiz-adv-x="654" 
d="M94 740h497v-76h-404v-250h381v-77h-381v-261h413v-76h-506v740z" />
    <glyph glyph-name="F" unicode="F" horiz-adv-x="627" 
d="M94 740h497v-76h-404v-259h366v-77h-366v-328h-93v740z" />
    <glyph glyph-name="G" unicode="G" horiz-adv-x="698" 
d="M410 -9q-177 0 -266.5 95t-89.5 282q0 189 92 286t274 97q49 0 100 -6.5t102 -20.5v-79q-33 7 -60 12t-50 8t-44 4.5t-42 1.5q-142 0 -209.5 -74.5t-67.5 -227.5q0 -152 64 -225.5t197 -73.5q26 0 63 4t69 9v293h88v-348q-24 -8 -53 -15t-58.5 -12t-58 -7.5t-50.5 -2.5z
" />
    <glyph glyph-name="H" unicode="H" horiz-adv-x="815" 
d="M94 740h93v-322h440v322h93v-740h-93v342h-440v-342h-93v740z" />
    <glyph glyph-name="I" unicode="I" horiz-adv-x="282" 
d="M94 740h93v-740h-93v740z" />
    <glyph glyph-name="J" unicode="J" horiz-adv-x="281" 
d="M18 -160q22 47 37 88t24 81.5t13 83.5t4 94v553h93v-559q0 -51 -5 -93.5t-17.5 -85.5t-33 -89t-50.5 -103z" />
    <glyph glyph-name="K" unicode="K" horiz-adv-x="703" 
d="M94 740h93v-325h161l226 325h106l-234 -329l-34 -25v-7l37 -25l248 -354h-106l-233 338h-171v-338h-93v740z" />
    <glyph glyph-name="L" unicode="L" horiz-adv-x="569" 
d="M94 740h93v-665h368v-75h-461v740z" />
    <glyph glyph-name="M" unicode="M" horiz-adv-x="975" 
d="M94 740h128l190 -433l72 -178h7l72 178l189 433h129v-740h-85v630h-7l-98 -242l-162 -359h-83l-161 359l-100 242h-6v-630h-85v740z" />
    <glyph glyph-name="N" unicode="N" horiz-adv-x="823" 
d="M94 740h79l402 -514l63 -90h7v604h84v-740h-79l-404 515l-62 87h-6v-602h-84v740z" />
    <glyph glyph-name="O" unicode="O" horiz-adv-x="792" 
d="M396 -10q-164 0 -253 96.5t-89 282.5t89 283.5t253 97.5q163 0 252 -97.5t89 -283.5t-89 -282.5t-252 -96.5zM396 68q246 0 246 301q0 152 -62 227.5t-184 75.5q-247 0 -247 -303q0 -301 247 -301z" />
    <glyph glyph-name="P" unicode="P" horiz-adv-x="684" 
d="M94 735q103 15 195 15q187 0 273 -61.5t86 -196.5q0 -134 -84.5 -196t-265.5 -62q-24 0 -51 1t-60 4v-239h-93v735zM310 311q67 0 113 9.5t75 31.5t42 56t13 84q0 48 -13.5 82.5t-43 56.5t-76.5 32.5t-114 10.5q-31 0 -64 -2.5t-55 -5.5v-345q8 -2 22 -3.5t31 -3
t35.5 -2.5t34.5 -1z" />
    <glyph glyph-name="Q" unicode="Q" horiz-adv-x="789" 
d="M706 -124q-189 31 -315 71t-201.5 97.5t-107 136t-31.5 188.5q0 90 23 161t67 120t108 74.5t145 25.5t145 -25.5t107.5 -74.5t66.5 -120t23 -161q0 -87 -22 -154.5t-64 -113.5t-102.5 -68.5t-137.5 -19.5v-7q52 -11 93 -18.5t76 -13t68 -9t71 -6.5zM394 68q121 0 184 77
t63 224q0 149 -62.5 226t-184.5 77q-121 0 -184.5 -77t-63.5 -226q0 -147 63.5 -224t184.5 -77z" />
    <glyph glyph-name="R" unicode="R" horiz-adv-x="705" 
d="M391 275q-22 -2 -45 -3t-48 -1q-22 0 -51.5 2t-59.5 5v-278h-93v735q102 15 195 15q188 0 273.5 -57t85.5 -182q0 -88 -41 -142t-128 -78l197 -291h-105zM310 348q66 0 112.5 8.5t75.5 28t42 50.5t13 76q0 43 -13.5 74t-43.5 50.5t-77 29t-113 9.5q-30 0 -63.5 -2.5
t-55.5 -5.5v-308q13 -4 48.5 -7t74.5 -3z" />
    <glyph glyph-name="S" unicode="S" horiz-adv-x="616" 
d="M294 -11q-52 0 -118.5 8t-129.5 22v79q69 -15 132.5 -23.5t111.5 -8.5q93 0 141 31.5t48 90.5q0 36 -14 60t-38.5 39.5t-57 25.5t-69.5 19q-65 15 -111 34.5t-75 45.5t-42 60.5t-13 79.5q0 46 19 84t54 64.5t84.5 41t111.5 14.5q44 0 94.5 -6t113.5 -20v-79
q-49 14 -102.5 21t-97.5 7q-84 0 -131.5 -34t-47.5 -91q0 -28 9 -49t29.5 -38t54.5 -30.5t84 -25.5q51 -12 95 -27.5t77 -39.5t51.5 -60t18.5 -89q0 -101 -72 -153.5t-210 -52.5z" />
    <glyph glyph-name="T" unicode="T" horiz-adv-x="641" 
d="M273 664h-255v76h606v-76h-257v-664h-94v664z" />
    <glyph glyph-name="U" unicode="U" horiz-adv-x="797" 
d="M399 -10q-83 0 -142 18t-97 56t-56 97t-18 142v437h93v-436q0 -64 14 -108.5t41.5 -73t69 -41.5t95.5 -13t95 13t68 41.5t41 73t14 108.5v436h94v-437q0 -83 -18 -142t-56 -97t-97 -56t-141 -18z" />
    <glyph glyph-name="V" unicode="V" horiz-adv-x="717" 
d="M9 740h99l193 -502l54 -147h9l54 147l193 502h98l-287 -740h-126z" />
    <glyph glyph-name="W" unicode="W" horiz-adv-x="1063" 
d="M21 740h97l137 -501l37 -146h7l39 146l145 501h97l144 -501l41 -146h7l37 146l136 501h98l-210 -740h-127l-139 478l-32 140h-6l-32 -141l-139 -477h-128z" />
    <glyph glyph-name="X" unicode="X" horiz-adv-x="707" 
d="M293 384l-272 356h107l204 -273l17 -28h10l16 28l205 273h107l-276 -362l294 -378h-107l-224 298l-15 25h-10l-14 -25l-224 -298h-108z" />
    <glyph glyph-name="Y" unicode="Y" horiz-adv-x="664" 
d="M286 247l-282 493h100l191 -338l32 -69h10l32 69l190 338h100l-280 -491v-249h-93v247z" />
    <glyph glyph-name="Z" unicode="Z" horiz-adv-x="622" 
d="M35 67l422 589v5h-408v79h525v-64l-421 -592v-5h433v-79h-551v67z" />
    <glyph glyph-name="bracketleft" unicode="[" horiz-adv-x="334" 
d="M93 868h207v-67h-131v-894h131v-67h-207v1028z" />
    <glyph glyph-name="backslash" unicode="\" horiz-adv-x="420" 
d="M32 740h81l274 -860h-81z" />
    <glyph glyph-name="bracketright" unicode="]" horiz-adv-x="333" 
d="M34 -160v67h131v894h-131v67h206v-1028h-206z" />
    <glyph glyph-name="asciicircum" unicode="^" horiz-adv-x="515" 
d="M218 789h79l170 -308h-69l-138 239h-4l-137 -239h-71z" />
    <glyph glyph-name="underscore" unicode="_" horiz-adv-x="623" 
d="M57 -59h510v-76h-510v76z" />
    <glyph glyph-name="grave" unicode="`" horiz-adv-x="269" 
d="M139 616l-101 192h101l70 -182z" />
    <glyph glyph-name="a" unicode="a" horiz-adv-x="561" 
d="M192 -5q-149 0 -149 142q0 79 50 120t161 50l140 11v33q0 36 -6.5 59.5t-22.5 37.5t-44 20t-71 6q-37 0 -77 -4t-91 -14l-7 70q57 11 102.5 15t93.5 4q110 0 162.5 -43.5t52.5 -135.5v-366h-75l-10 69h-6q-108 -74 -203 -74zM226 65q38 0 80.5 15.5t87.5 45.5v135
l-112 -10q-41 -4 -69 -11t-45 -19.5t-24.5 -31t-7.5 -44.5q0 -42 21.5 -61t68.5 -19z" />
    <glyph glyph-name="b" unicode="b" horiz-adv-x="643" 
d="M313 -11q-50 0 -106.5 4.5t-127.5 16.5v798h92v-330q66 72 182 72t178 -67t62 -209q0 -73 -20.5 -126.5t-57.5 -89t-88.5 -52.5t-113.5 -17zM311 59q95 0 142 47.5t47 162.5q0 112 -40 159t-127 47q-32 0 -61 -8t-51.5 -23t-36 -36t-13.5 -47v-292q26 -4 62 -7t78 -3z
" />
    <glyph glyph-name="c" unicode="c" horiz-adv-x="506" 
d="M319 -9q-269 0 -269 278q0 280 269 280q35 0 73.5 -4t67.5 -11v-77q-65 14 -131 14q-187 0 -187 -201q0 -106 44 -153.5t141 -47.5q38 0 68 2.5t65 9.5v-75q-25 -7 -64 -11t-77 -4z" />
    <glyph glyph-name="d" unicode="d" horiz-adv-x="643" 
d="M290 -10q-117 0 -178.5 66.5t-61.5 209.5q0 73 20.5 126.5t57.5 88.5t88.5 52t114.5 17q41 0 77 -4t64 -6v268h91v-808h-79l-8 70h-7q-59 -80 -179 -80zM311 63q32 0 61.5 8.5t51.5 24.5t35 38.5t13 51.5v282q-27 4 -64 8t-79 4q-92 0 -139 -48t-47 -162q0 -56 10 -95.5
t30.5 -64.5t52 -36t75.5 -11z" />
    <glyph glyph-name="e" unicode="e" horiz-adv-x="577" 
d="M315 -9q-264 0 -264 273q0 138 65.5 211.5t190.5 73.5q220 0 220 -243q0 -22 -1.5 -39.5t-5.5 -29.5h-378q6 -92 50 -132t136 -40q42 0 88 7t88 20l5 -69q-43 -15 -94.5 -23.5t-99.5 -8.5zM305 479q-151 0 -163 -178h301q-3 96 -35 137t-103 41z" />
    <glyph glyph-name="f" unicode="f" horiz-adv-x="411" 
d="M147 460h-130v80h131v23q0 74 12 121.5t42.5 75.5t83 40t132.5 14l5 -67q-57 -4 -92.5 -11.5t-56 -24t-28 -46t-7.5 -76.5v-49h157v-80h-157v-460h-92v460z" />
    <glyph glyph-name="g" unicode="g" horiz-adv-x="643" 
d="M283 -219q-51 0 -104 6t-92 17l6 72q38 -10 84.5 -17t92.5 -7q44 0 82 9t65.5 31t43.5 59t16 93v40h-6q-59 -83 -181 -83q-116 0 -178 65t-62 204q0 72 20.5 124.5t57.5 87t88.5 51.5t114.5 17q49 0 108 -6.5t125 -24.5v-469q0 -82 -23.5 -134t-62.5 -82t-90 -41.5
t-105 -11.5zM311 73q33 0 62.5 8.5t51 25t34.5 39.5t13 53v269q-27 4 -64 8t-79 4q-92 0 -139 -47t-47 -158q0 -55 10 -93.5t30.5 -62.5t52 -35t75.5 -11z" />
    <glyph glyph-name="h" unicode="h" horiz-adv-x="646" 
d="M80 808h91v-332q43 19 78.5 33t64.5 23t54.5 13.5t49.5 4.5q72 0 112 -37.5t40 -112.5v-400h-92v367q0 58 -23 83t-71 25q-40 0 -95 -17t-118 -45v-413h-91v808z" />
    <glyph glyph-name="i" unicode="i" horiz-adv-x="254" 
d="M127 649q-56 0 -56 55q0 56 56 56q57 0 57 -56q0 -55 -57 -55zM81 540h92v-540h-92v540z" />
    <glyph glyph-name="j" unicode="j" horiz-adv-x="251" 
d="M123 649q-30 0 -43.5 13t-13.5 42t13.5 42.5t43.5 13.5q56 0 56 -56q0 -55 -56 -55zM14 -200q18 37 30.5 73.5t20.5 76t12 84.5t4 100v33v68v87v90.5t-0.5 78t-0.5 49.5h91v-454q-3 -85 -25.5 -161t-64.5 -145z" />
    <glyph glyph-name="k" unicode="k" horiz-adv-x="586" 
d="M80 808h91v-499h103l191 231h105l-213 -253l-19 -8v-4l20 -9l228 -266h-104l-210 246h-101v-246h-91v808z" />
    <glyph glyph-name="l" unicode="l" horiz-adv-x="257" 
d="M82 808h92v-808h-92v808z" />
    <glyph glyph-name="m" unicode="m" horiz-adv-x="948" 
d="M80 540h76l6 -64h6q68 38 114.5 56t89.5 18q51 0 85.5 -19t51.5 -57h4q71 41 118.5 58.5t88.5 17.5q72 0 112 -37.5t40 -112.5v-400h-92v366q0 58 -23 82.5t-71 24.5q-31 0 -72 -15t-91 -43v-415h-92v366q0 58 -23 82.5t-71 24.5q-32 0 -75 -16.5t-90 -43.5v-413h-92v540
z" />
    <glyph glyph-name="n" unicode="n" horiz-adv-x="646" 
d="M80 540h76l6 -64h6q45 20 81 34t65.5 23t55 13t49.5 4q72 0 111.5 -37.5t39.5 -112.5v-400h-92v367q0 58 -23 83t-71 25q-41 0 -95.5 -17t-116.5 -45v-413h-92v540z" />
    <glyph glyph-name="o" unicode="o" horiz-adv-x="629" 
d="M315 -10q-129 0 -197.5 72t-68.5 208t68.5 208t197.5 72q128 0 196 -72t68 -208t-68 -208t-196 -72zM315 64q89 0 130 50t41 156t-41 155.5t-130 49.5t-130.5 -49.5t-41.5 -155.5t41.5 -156t130.5 -50z" />
    <glyph glyph-name="p" unicode="p" horiz-adv-x="645" 
d="M80 540h79l8 -67h7q59 77 179 77q118 0 179.5 -66.5t61.5 -209.5q0 -73 -20.5 -126.5t-57.5 -88.5t-88.5 -52t-113.5 -17q-41 0 -78 3.5t-64 5.5v-219h-92v760zM316 60q91 0 138 48t47 162q0 112 -40 159.5t-127 47.5q-33 0 -62.5 -8.5t-51.5 -24.5t-35 -38.5t-13 -50.5
v-283q26 -4 64 -8t80 -4z" />
    <glyph glyph-name="q" unicode="q" horiz-adv-x="643" 
d="M476 71q-32 -41 -79.5 -61t-106.5 -20q-240 0 -240 276q0 139 73.5 211.5t207.5 72.5q31 0 63.5 -2t63.5 -5t58.5 -6.5t47.5 -6.5v-750h-88v291zM311 63q35 0 64.5 9.5t51 26t33.5 40t12 50.5v279q-78 12 -143 12q-97 0 -141.5 -50t-44.5 -160t39 -158.5t129 -48.5z" />
    <glyph glyph-name="r" unicode="r" horiz-adv-x="417" 
d="M80 540h76l6 -77h4q69 35 117 58t90 28h31v-84h-30q-46 -5 -98 -23.5t-104 -44.5v-397h-92v540z" />
    <glyph glyph-name="s" unicode="s" horiz-adv-x="504" 
d="M246 -11q-38 0 -84 5.5t-114 18.5v74q56 -12 103.5 -19.5t90.5 -7.5q129 0 129 85q0 24 -9 40t-25.5 26t-39 16t-48.5 11q-33 6 -67.5 13.5t-62.5 24t-46 45.5t-18 77q0 73 56.5 114t156.5 41q18 0 34.5 -1t36 -3.5t44 -6.5t57.5 -10l-5 -76q-54 11 -92 17.5t-70 6.5
q-64 0 -96 -21t-32 -60q0 -24 10.5 -39t29 -24.5t43.5 -15.5t55 -11q37 -6 69.5 -16.5t56.5 -28.5t37.5 -45.5t13.5 -68.5q0 -77 -55.5 -119t-158.5 -42z" />
    <glyph glyph-name="t" unicode="t" horiz-adv-x="421" 
d="M296 -10q-79 0 -120 39.5t-41 116.5v314h-117v80h122l14 135l72 9v-144h169v-80h-168v-294q0 -52 23 -77t74 -25q36 0 78 13v-73q-51 -14 -106 -14z" />
    <glyph glyph-name="u" unicode="u" horiz-adv-x="646" 
d="M217 -10q-70 0 -105.5 38.5t-35.5 111.5v400h92v-369q0 -55 20 -79.5t67 -24.5q27 0 55 6.5t56.5 16t56 21.5t51.5 23v406h92v-540h-76l-6 69h-4q-47 -21 -81 -35.5t-63 -24.5t-56.5 -14.5t-62.5 -4.5z" />
    <glyph glyph-name="v" unicode="v" horiz-adv-x="588" 
d="M21 526v14h95l146 -378l27 -92h12l27 92l147 378h93v-14l-214 -526h-121z" />
    <glyph glyph-name="w" unicode="w" horiz-adv-x="836" 
d="M24 533v7h90l104 -372l19 -81h6l20 81l110 372h87l116 -372l21 -81h7l18 81l97 372h90v-7l-153 -533h-104l-113 358l-18 77h-7l-18 -77l-108 -358h-104z" />
    <glyph glyph-name="x" unicode="x" horiz-adv-x="583" 
d="M14 14l215 266l-204 252v8h98l128 -159l39 -53h6l39 53l124 159h99v-8l-204 -254l215 -264v-14h-96l-135 168l-44 61h-6l-43 -61l-135 -168h-96v14z" />
    <glyph glyph-name="y" unicode="y" horiz-adv-x="598" 
d="M164 -206l-1 11l89 201l-234 522v12h99l151 -358l28 -82h6l28 82l157 358h96v-12l-337 -748z" />
    <glyph glyph-name="z" unicode="z" horiz-adv-x="524" 
d="M40 62l314 397v6h-304v75h425v-57l-311 -400v-7h321v-75h-445v61z" />
    <glyph glyph-name="braceleft" unicode="{" horiz-adv-x="367" 
d="M38 394q35 0 54.5 26t19.5 77v244q0 69 24.5 98t84.5 29q9 0 25.5 -0.5t33.5 -1.5t30.5 -1.5t18.5 -1.5v-62h-94q-24 0 -34.5 -10t-10.5 -32v-282q0 -47 -21 -81.5t-59 -41.5q38 -5 59 -39t21 -81v-285q0 -22 10.5 -32t34.5 -10h94v-62q-5 -1 -18.5 -2t-30 -1.5t-32.5 -1
t-25 -0.5q-60 0 -85.5 29t-25.5 98v247q0 51 -19.5 76.5t-54.5 25.5v78z" />
    <glyph glyph-name="bar" unicode="|" horiz-adv-x="272" 
d="M180 808v-1028h-87v1028h87z" />
    <glyph glyph-name="braceright" unicode="}" horiz-adv-x="367" 
d="M329 316q-73 0 -73 -102v-247q0 -69 -25.5 -98t-85.5 -29q-9 0 -25.5 0.5l-33 1t-30.5 1.5t-18 2v62h96q24 0 34.5 10t10.5 32v285q0 47 20 81t58 39q-38 7 -58 41.5t-20 81.5v282q0 22 -10.5 32t-34.5 10h-96v62q4 1 18 1.5t31 1.5t33.5 1.5t25.5 0.5q60 0 85 -29
t25 -98v-244q0 -103 73 -103v-78z" />
    <glyph glyph-name="asciitilde" unicode="~" horiz-adv-x="688" 
d="M65 285q28 29 51 48t43.5 30.5t41 16.5t43.5 5q32 0 57.5 -12t48 -26t45 -26t49.5 -12q36 0 70.5 19t53.5 49l54 -32q-14 -20 -32 -40t-40 -36t-47 -26t-52 -10q-35 0 -62 12t-50 26t-44 26t-44 12q-34 0 -64.5 -16t-71.5 -54z" />
    <glyph glyph-name="uni00A0" unicode="&#xa0;" horiz-adv-x="248" 
 />
    <glyph glyph-name="exclamdown" unicode="&#xa1;" horiz-adv-x="252" 
d="M128 539q25 0 38.5 -13.5t13.5 -37.5q0 -23 -13.5 -36.5t-38.5 -13.5q-52 0 -52 50q0 24 13.5 37.5t38.5 13.5zM96 355h58v-13l16 -532v-10h-90v10l16 532v13z" />
    <glyph glyph-name="cent" unicode="&#xa2;" horiz-adv-x="526" 
d="M280 -7q-229 18 -229 276q0 259 229 278v113h65v-112q30 -1 61 -5t55 -9v-77q-65 14 -131 14q-187 0 -187 -201q0 -106 44 -153.5t141 -47.5q38 0 68 2.5t65 9.5v-75q-21 -5 -52.5 -9t-63.5 -5v-112h-65v113z" />
    <glyph glyph-name="sterling" unicode="&#xa3;" horiz-adv-x="680" 
d="M53 407h167v114q0 114 55.5 169.5t179.5 55.5q39 0 80.5 -6.5t92.5 -21.5l-9 -76q-92 24 -156 24q-83 0 -116.5 -33.5t-33.5 -111.5v-114h227v-76h-227v-249h301v-82h-561v82h167v249h-167v76z" />
    <glyph glyph-name="currency" unicode="&#xa4;" horiz-adv-x="645" 
d="M63 156l55 53l49 37q-46 48 -46 124q0 75 46 123l-49 38l-55 53l45 45l54 -55l39 -53q50 31 121 31t121 -32l40 54l54 55l45 -45l-55 -53l-51 -38q23 -23 35 -54t12 -69t-12 -69.5t-34 -54.5l50 -37l55 -53l-45 -45l-54 55l-40 52q-50 -31 -120 -31q-72 0 -122 31
l-39 -52l-54 -55zM185 370q0 -61 37.5 -94t100.5 -33q62 0 99 32.5t37 94.5q0 58 -36 92t-100 34q-63 0 -100.5 -33t-37.5 -93z" />
    <glyph glyph-name="yen" unicode="&#xa5;" horiz-adv-x="719" 
d="M96 308h187l-247 432h100l191 -338l32 -69h10l32 69l190 338h100l-247 -432h155v-61h-188v-87h188v-62h-188v-98h-93v98h-222v62h222v87h-222v61z" />
    <glyph glyph-name="brokenbar" unicode="&#xa6;" horiz-adv-x="274" 
d="M94 203h87v-423h-87v423zM94 808h87v-423h-87v423z" />
    <glyph glyph-name="section" unicode="&#xa7;" horiz-adv-x="534" 
d="M260 -11q-38 0 -84 5.5t-114 18.5v69q109 -25 194 -25q129 0 129 88q0 24 -9 40t-25.5 26.5t-39 16.5t-48.5 11q-33 6 -67.5 13t-62.5 23.5t-46 45.5t-18 77q0 32 12 58t33 45q-20 17 -32.5 42t-12.5 63q0 73 56.5 114t156.5 41q18 0 34.5 -1t36 -3.5t44 -6t57.5 -9.5
l-5 -73q-54 12 -92 17.5t-70 5.5q-128 0 -128 -83q0 -24 10.5 -39.5t29 -25.5t43.5 -16t55 -11q37 -6 69.5 -16.5t56.5 -28t37.5 -45t13.5 -68.5q0 -67 -42 -107q20 -17 31 -41.5t11 -59.5q0 -77 -55.5 -119t-158.5 -42zM358 281q27 25 27 66q0 27 -9 45t-24 30t-35.5 18.5
t-44.5 11.5q-17 4 -40.5 8.5t-39.5 11.5q-33 -24 -33 -68q0 -26 10 -42.5t26.5 -27.5t39 -17.5t48.5 -12.5q17 -4 38.5 -9.5t36.5 -13.5z" />
    <glyph glyph-name="dieresis" unicode="&#xa8;" horiz-adv-x="508" 
d="M119 655q-54 0 -54 54q0 52 54 52t54 -52q0 -54 -54 -54zM376 655q-54 0 -54 54q0 52 54 52q53 0 53 -52q0 -54 -53 -54z" />
    <glyph glyph-name="copyright" unicode="&#xa9;" horiz-adv-x="851" 
d="M441 163q-86 0 -135.5 50.5t-49.5 152.5q0 104 49.5 155.5t135.5 51.5q23 0 44.5 -2.5t41.5 -7.5v-55q-20 4 -40.5 6.5t-39.5 2.5q-63 0 -95.5 -37t-32.5 -113q0 -77 33.5 -112.5t93.5 -35.5q18 0 39 2.5t44 6.5v-54q-41 -11 -88 -11zM426 -11q-84 0 -152.5 27.5
t-117.5 77.5t-75.5 120t-26.5 156q0 85 26.5 155.5t75.5 120.5t117.5 77.5t152.5 27.5t152 -27.5t117 -77.5t75.5 -120.5t26.5 -155.5q0 -86 -26.5 -156t-75.5 -120t-117 -77.5t-152 -27.5zM426 43q72 0 130 23.5t99.5 66t63.5 103t22 134.5t-22 134.5t-63.5 103.5
t-99.5 66.5t-130 23.5t-130.5 -23.5t-100 -66.5t-63.5 -103.5t-22 -134.5t22 -134.5t63.5 -103t100 -66t130.5 -23.5z" />
    <glyph glyph-name="ordfeminine" unicode="&#xaa;" horiz-adv-x="467" 
d="M173 348q-56 0 -90.5 30t-34.5 78q0 51 42.5 81.5t123.5 35.5l104 7v25q0 23 -5 38t-16.5 24t-31.5 12.5t-50 3.5q-20 0 -49.5 -2t-71.5 -8l-8 59q45 8 80.5 11t63.5 3q90 0 128 -29.5t38 -94.5v-270h-67l-6 47h-4q-42 -25 -77 -38t-69 -13zM196 408q24 0 52 8t70 26v87
l-55 -3q-77 -5 -106 -19t-29 -45q0 -54 68 -54z" />
    <glyph glyph-name="guillemotleft" unicode="&#xab;" horiz-adv-x="667" 
d="M34 268v4l208 238h98l-208 -238v-4l208 -238h-98zM313 268v4l208 238h98l-208 -238v-4l208 -238h-98z" />
    <glyph glyph-name="logicalnot" unicode="&#xac;" horiz-adv-x="848" 
d="M68 429h701v-318h-90v239h-611v79z" />
    <glyph glyph-name="uni00AD" unicode="&#xad;" horiz-adv-x="501" 
d="M71 318h359v-76h-359v76z" />
    <glyph glyph-name="registered" unicode="&#xae;" horiz-adv-x="731" 
d="M254 618q26 3 50 5t44 2q78 0 114.5 -26t36.5 -81q0 -76 -71 -98l-1 -3l83 -133h-53l-76 124h-79v-124h-48v334zM351 449q99 0 99 68q0 35 -22.5 51t-74.5 16q-10 0 -23.5 -0.5t-27.5 -2.5v-131q8 -1 22.5 -1h26.5zM365 140q-67 0 -123.5 23t-97 63.5t-63 96.5t-22.5 123
t22.5 123t63 97t97 64t123.5 23t124 -23t97.5 -64t63.5 -97t23 -123t-23 -123t-63.5 -96.5t-97.5 -63.5t-124 -23zM365 187q57 0 105 19t82 53.5t53 82t19 104.5t-19 104.5t-53 82t-82 54t-105 19.5t-104.5 -19.5t-81 -54t-52.5 -82t-19 -104.5t19 -104.5t52.5 -82t81 -53.5
t104.5 -19z" />
    <glyph glyph-name="macron" unicode="&#xaf;" horiz-adv-x="509" 
d="M67 718h348v-68h-348v68z" />
    <glyph glyph-name="degree" unicode="&#xb0;" horiz-adv-x="490" 
d="M245 377q-42 0 -78.5 14.5t-63 39t-42 58t-15.5 72.5t15.5 72t42 58t63 39t78.5 14t78 -14t63 -39t42 -58t15 -72t-15 -72.5t-42 -58t-63 -39t-78 -14.5zM245 435q29 0 53.5 9.5t42 26.5t27 40t9.5 50t-9.5 50t-27 40t-42 26.5t-53.5 9.5t-53.5 -9.5t-42 -26.5t-27 -40
t-9.5 -50t9.5 -50t27 -40t42 -26.5t53.5 -9.5z" />
    <glyph glyph-name="plusminus" unicode="&#xb1;" horiz-adv-x="545" 
d="M76 460h164v169h64v-169h163v-64h-163v-166h-64v166h-164v64zM77 153h391v-64h-391v64z" />
    <glyph glyph-name="twosuperior" unicode="&#xb2;" horiz-adv-x="462" 
d="M42 378q0 67 40 115t133 92q34 16 56.5 29.5t36 26.5t19 26.5t5.5 28.5q0 85 -115 85q-30 0 -65.5 -4.5t-83.5 -14.5l-10 69q51 11 92 16t78 5q184 0 184 -151q0 -55 -34.5 -94t-115.5 -79q-34 -17 -57 -32t-37 -30t-20 -31t-6 -35v-29h272v-69h-372v76z" />
    <glyph glyph-name="threesuperior" unicode="&#xb3;" horiz-adv-x="440" 
d="M186 292q-35 0 -72.5 3.5t-64.5 8.5v70h6q10 -2 25 -3.5t30.5 -3t31 -2.5t27.5 -1q75 0 110 25.5t35 73.5q0 42 -32 63t-103 21h-64v59h63q63 0 92 21.5t29 65.5q0 45 -30 67.5t-96 22.5q-20 0 -51.5 -3t-66.5 -8h-6v69q27 6 64.5 9.5t68.5 3.5q97 0 148 -40t51 -115
q0 -42 -19 -72.5t-54 -45.5q85 -29 85 -129q0 -78 -53 -119t-154 -41z" />
    <glyph glyph-name="acute" unicode="&#xb4;" horiz-adv-x="260" 
d="M49 616l70 185h95l-99 -192z" />
    <glyph glyph-name="mu" unicode="&#xb5;" horiz-adv-x="676" 
d="M91 540h91v-381q0 -51 21.5 -74t63.5 -23q53 0 106 19.5t116 45.5v413h92v-540h-76l-7 69h-4q-46 -21 -79.5 -36t-63 -24.5t-57.5 -14t-63 -4.5q-28 0 -49 6v-216h-91v760z" />
    <glyph glyph-name="paragraph" unicode="&#xb6;" horiz-adv-x="638" 
d="M416 0h-52v266q-16 -1 -33 -1h-31q-59 0 -107 12.5t-82 40.5t-52 74t-18 113t18 113t51.5 74t81.5 40.5t107 12.5q28 0 56.5 -2.5t60.5 -7.5v-735zM535 0h-61v735h61v-735z" />
    <glyph glyph-name="periodcentered" unicode="&#xb7;" horiz-adv-x="253" 
d="M126 312q-30 0 -45 13.5t-15 44.5q0 59 60 59q59 0 59 -59q0 -58 -59 -58z" />
    <glyph glyph-name="cedilla" unicode="&#xb8;" horiz-adv-x="325" 
d="M134 -220q-20 0 -46 3.5t-49 8.5v62q31 -11 73 -11t59 13t17 45q0 12 -2.5 24t-9 26.5t-17.5 31.5t-27 40h68q18 -26 29 -44.5t17.5 -33t9 -26.5t2.5 -25q0 -54 -32.5 -84t-91.5 -30z" />
    <glyph glyph-name="onesuperior" unicode="&#xb9;" horiz-adv-x="344" 
d="M181 758l-141 -61h-7l-10 45v10l179 94h58v-546h-79v458z" />
    <glyph glyph-name="ordmasculine" unicode="&#xba;" horiz-adv-x="500" 
d="M250 407q27 0 49.5 6.5t38 22.5t24 43t8.5 67t-8.5 67t-24 43t-38 22.5t-49.5 6.5t-49.5 -6.5t-38.5 -22.5t-24.5 -43t-8.5 -67t8.5 -67t24.5 -43t38.5 -22.5t49.5 -6.5zM250 345q-94 0 -146.5 49.5t-52.5 151.5t52.5 151.5t146.5 49.5t146.5 -49.5t52.5 -151.5
t-52.5 -151.5t-146.5 -49.5z" />
    <glyph glyph-name="guillemotright" unicode="&#xbb;" horiz-adv-x="667" 
d="M146 30h-97l208 238v4l-208 238h97l208 -238v-4zM425 30h-97l208 238v4l-208 238h97l208 -238v-4z" />
    <glyph glyph-name="onequarter" unicode="&#xbc;" horiz-adv-x="1046" 
d="M843 124h-261l-16 51l191 377l9 1l64 -9l5 -16l-180 -337h191l20 174h56v-174h92v-67h-92v-124h-79v124zM608 740h84l-373 -740h-85zM188 658l-141 -61h-7l-10 45v10l179 94h58v-546h-79v458z" />
    <glyph glyph-name="onehalf" unicode="&#xbd;" horiz-adv-x="1077" 
d="M650 78q0 67 40 115t133 92q34 16 56.5 29.5t36 26.5t19 26.5t5.5 28.5q0 85 -115 85q-58 0 -149 -19l-10 69q51 11 91.5 16t78.5 5q184 0 184 -151q0 -55 -34.5 -94t-115.5 -79q-34 -17 -57 -32.5t-37 -30.5t-20 -30.5t-6 -34.5v-29h272v-69h-372v76zM608 740h84
l-373 -740h-85zM188 658l-141 -61h-7l-10 45v10l179 94h58v-546h-79v458z" />
    <glyph glyph-name="threequarters" unicode="&#xbe;" horiz-adv-x="1128" 
d="M199 192q-35 0 -72.5 3.5t-64.5 8.5v70h6q10 -2 25 -3.5t30.5 -3t31 -2.5t27.5 -1q75 0 110 25.5t35 73.5q0 42 -32 63t-103 21h-64v59h63q63 0 92 21.5t29 65.5q0 45 -30 67.5t-96 22.5q-20 0 -51.5 -3t-66.5 -8h-6v69q27 6 64.5 9.5t68.5 3.5q97 0 148 -40t51 -115
q0 -42 -19 -72.5t-54 -45.5q85 -29 85 -129q0 -78 -53 -119t-154 -41zM925 124h-261l-16 51l191 377l9 1l64 -9l5 -16l-180 -337h191l20 174h56v-174h92v-67h-92v-124h-79v124zM688 740h84l-373 -740h-85z" />
    <glyph glyph-name="questiondown" unicode="&#xbf;" horiz-adv-x="462" 
d="M308 345l6 -189q-32 -8 -66.5 -19t-62.5 -29t-46 -44.5t-18 -65.5q0 -37 12.5 -62t33.5 -40t47.5 -21.5t54.5 -6.5q40 0 78.5 7t74.5 16l10 -71q-41 -11 -85 -18.5t-92 -7.5q-44 0 -83.5 10.5t-69.5 33.5t-48 60.5t-18 91.5q0 51 18.5 87t47.5 61t65 40t71 24l2 143v18
h68v-18zM272 546q25 0 38.5 -13.5t13.5 -37.5q0 -50 -52 -50t-52 50q0 24 13.5 37.5t38.5 13.5z" />
    <glyph glyph-name="Agrave" unicode="&#xc0;" horiz-adv-x="723" 
d="M7 7l283 733h143l283 -733v-7h-93l-84 217h-355l-84 -217h-93v7zM512 297l-94 243l-52 136h-9l-51 -136l-95 -243h301zM323 805l-99 148h96l75 -135z" />
    <glyph glyph-name="Aacute" unicode="&#xc1;" horiz-adv-x="723" 
d="M7 7l283 733h143l283 -733v-7h-93l-84 217h-355l-84 -217h-93v7zM512 297l-94 243l-52 136h-9l-51 -136l-95 -243h301zM321 812l74 141h96l-99 -148z" />
    <glyph glyph-name="Acircumflex" unicode="&#xc2;" horiz-adv-x="723" 
d="M7 7l283 733h143l283 -733v-7h-93l-84 217h-355l-84 -217h-93v7zM512 297l-94 243l-52 136h-9l-51 -136l-95 -243h301zM187 886l176 75l176 -75v-74l-176 75l-176 -75v74z" />
    <glyph glyph-name="Atilde" unicode="&#xc3;" horiz-adv-x="723" 
d="M7 7l283 733h143l283 -733v-7h-93l-84 217h-355l-84 -217h-93v7zM512 297l-94 243l-52 136h-9l-51 -136l-95 -243h301zM153 866q31 39 66 58t69 19q25 0 48 -6.5t44.5 -14t43.5 -14t46 -6.5q26 0 50 9t50 29l23 -29q-29 -38 -66.5 -57.5t-74.5 -19.5q-23 0 -45.5 6
t-45 13.5t-44.5 14t-44 6.5q-24 0 -47 -8t-49 -28z" />
    <glyph glyph-name="Adieresis" unicode="&#xc4;" horiz-adv-x="723" 
d="M7 7l283 733h143l283 -733v-7h-93l-84 217h-355l-84 -217h-93v7zM512 297l-94 243l-52 136h-9l-51 -136l-95 -243h301zM221 822q-59 0 -59 59q0 30 15 43.5t44 13.5t44 -13.5t15 -43.5q0 -59 -59 -59zM503 822q-59 0 -59 59q0 30 15 43.5t44 13.5t44.5 -13.5t15.5 -43.5
q0 -59 -60 -59z" />
    <glyph glyph-name="Aring" unicode="&#xc5;" horiz-adv-x="723" 
d="M7 7l283 733h143l283 -733v-7h-93l-84 217h-355l-84 -217h-93v7zM512 297l-94 243l-52 136h-9l-51 -136l-95 -243h301zM363 798q-27 0 -50.5 8t-41 22.5t-27 34.5t-9.5 44t9.5 44.5t27 35t41 23t50.5 8.5t50 -8.5t40.5 -23t27 -35t9.5 -44.5t-9.5 -44t-27 -34.5
t-40.5 -22.5t-50 -8zM363 843q77 0 77 64q0 32 -19.5 49t-57.5 17t-58 -17t-20 -49q0 -64 78 -64z" />
    <glyph glyph-name="AE" unicode="&#xc6;" horiz-adv-x="931" 
d="M6 8l321 732h543v-76h-347l13 -251h308v-77h-304l13 -260h329v-76h-423l-9 217h-258l-96 -217h-90v8zM227 297h220l-15 372h-40z" />
    <glyph glyph-name="Ccedilla" unicode="&#xc7;" horiz-adv-x="622" 
d="M329 -220q-20 0 -46 3.5t-49 8.5v62q31 -11 73 -11t59 13t17 45q0 20 -8 40.5t-28 52.5q-146 14 -219.5 108t-73.5 266q0 190 87 286.5t258 96.5q37 0 85.5 -5.5t96.5 -14.5v-79q-58 10 -99.5 14.5t-73.5 4.5q-132 0 -195.5 -74.5t-63.5 -227.5q0 -152 61.5 -225.5
t189.5 -73.5q18 0 42.5 2t50 5t49 7t39.5 8v-78q-35 -9 -81 -15t-84 -8q22 -35 29.5 -55t7.5 -42q0 -54 -32.5 -84t-91.5 -30z" />
    <glyph glyph-name="Egrave" unicode="&#xc8;" horiz-adv-x="654" 
d="M322 805l-99 148h96l75 -135zM94 740h497v-76h-404v-250h381v-77h-381v-261h413v-76h-506v740z" />
    <glyph glyph-name="Eacute" unicode="&#xc9;" horiz-adv-x="654" 
d="M301 812l74 141h96l-99 -148zM94 740h497v-76h-404v-250h381v-77h-381v-261h413v-76h-506v740z" />
    <glyph glyph-name="Ecircumflex" unicode="&#xca;" horiz-adv-x="654" 
d="M94 740h497v-76h-404v-250h381v-77h-381v-261h413v-76h-506v740zM175 886l176 75l176 -75v-74l-176 75l-176 -75v74z" />
    <glyph glyph-name="Edieresis" unicode="&#xcb;" horiz-adv-x="654" 
d="M207 822q-59 0 -59 59q0 30 15 43.5t44 13.5t44 -13.5t15 -43.5q0 -59 -59 -59zM489 822q-59 0 -59 59q0 30 15 43.5t44 13.5t44.5 -13.5t15.5 -43.5q0 -59 -60 -59zM94 740h497v-76h-404v-250h381v-77h-381v-261h413v-76h-506v740z" />
    <glyph glyph-name="Igrave" unicode="&#xcc;" horiz-adv-x="282" 
d="M94 740h93v-740h-93v740zM115 805l-99 148h96l75 -135z" />
    <glyph glyph-name="Iacute" unicode="&#xcd;" horiz-adv-x="282" 
d="M94 740h93v-740h-93v740zM100 812l74 141h96l-99 -148z" />
    <glyph glyph-name="Icircumflex" unicode="&#xce;" horiz-adv-x="282" 
d="M94 740h93v-740h-93v740zM-34 886l176 75l176 -75v-74l-176 75l-176 -75v74z" />
    <glyph glyph-name="Idieresis" unicode="&#xcf;" horiz-adv-x="282" 
d="M94 740h93v-740h-93v740zM1 822q-59 0 -59 59q0 30 15 43.5t44 13.5t44 -13.5t15 -43.5q0 -59 -59 -59zM283 822q-59 0 -59 59q0 30 15 43.5t44 13.5t44.5 -13.5t15.5 -43.5q0 -59 -60 -59z" />
    <glyph glyph-name="Eth" unicode="&#xd0;" horiz-adv-x="787" 
d="M6 408h99v331q26 2 57 3.5t61.5 3t58.5 2.5t48 1q208 0 305.5 -91.5t97.5 -287.5q0 -99 -24.5 -170.5t-75.5 -118t-130.5 -68.5t-189.5 -22q-34 0 -66 1t-59.5 3t-49 5t-33.5 7v325h-99v76zM342 68q155 0 225.5 72t70.5 230q0 157 -71 228.5t-227 71.5q-28 0 -68 -2
t-74 -5v-255h195v-76h-195v-253q41 -6 72.5 -8.5t71.5 -2.5z" />
    <glyph glyph-name="Ntilde" unicode="&#xd1;" horiz-adv-x="823" 
d="M202 866q31 39 66 58t69 19q25 0 48 -6.5t44.5 -14t43.5 -14t46 -6.5q26 0 50 9t50 29l23 -29q-29 -38 -66.5 -57.5t-74.5 -19.5q-23 0 -45.5 6t-45 13.5t-44.5 14t-44 6.5q-24 0 -47 -8t-49 -28zM94 740h79l402 -514l63 -90h7v604h84v-740h-79l-404 515l-62 87h-6v-602
h-84v740z" />
    <glyph glyph-name="Ograve" unicode="&#xd2;" horiz-adv-x="792" 
d="M357 805l-99 148h96l75 -135zM396 -10q-164 0 -253 96.5t-89 282.5t89 283.5t253 97.5q163 0 252 -97.5t89 -283.5t-89 -282.5t-252 -96.5zM396 68q246 0 246 301q0 152 -62 227.5t-184 75.5q-247 0 -247 -303q0 -301 247 -301z" />
    <glyph glyph-name="Oacute" unicode="&#xd3;" horiz-adv-x="792" 
d="M354 812l74 141h96l-99 -148zM396 -10q-164 0 -253 96.5t-89 282.5t89 283.5t253 97.5q163 0 252 -97.5t89 -283.5t-89 -282.5t-252 -96.5zM396 68q246 0 246 301q0 152 -62 227.5t-184 75.5q-247 0 -247 -303q0 -301 247 -301z" />
    <glyph glyph-name="Ocircumflex" unicode="&#xd4;" horiz-adv-x="792" 
d="M396 -10q-164 0 -253 96.5t-89 282.5t89 283.5t253 97.5q163 0 252 -97.5t89 -283.5t-89 -282.5t-252 -96.5zM396 68q246 0 246 301q0 152 -62 227.5t-184 75.5q-247 0 -247 -303q0 -301 247 -301zM219 886l176 75l176 -75v-74l-176 75l-176 -75v74z" />
    <glyph glyph-name="Otilde" unicode="&#xd5;" horiz-adv-x="792" 
d="M186 866q31 39 66 58t69 19q25 0 48 -6.5t44.5 -14t43.5 -14t46 -6.5q26 0 50 9t50 29l23 -29q-29 -38 -66.5 -57.5t-74.5 -19.5q-23 0 -45.5 6t-45 13.5t-44.5 14t-44 6.5q-24 0 -47 -8t-49 -28zM396 -10q-164 0 -253 96.5t-89 282.5t89 283.5t253 97.5q163 0 252 -97.5
t89 -283.5t-89 -282.5t-252 -96.5zM396 68q246 0 246 301q0 152 -62 227.5t-184 75.5q-247 0 -247 -303q0 -301 247 -301z" />
    <glyph glyph-name="Odieresis" unicode="&#xd6;" horiz-adv-x="792" 
d="M251 822q-59 0 -59 59q0 30 15 43.5t44 13.5t44 -13.5t15 -43.5q0 -59 -59 -59zM533 822q-59 0 -59 59q0 30 15 43.5t44 13.5t44.5 -13.5t15.5 -43.5q0 -59 -60 -59zM396 -10q-164 0 -253 96.5t-89 282.5t89 283.5t253 97.5q163 0 252 -97.5t89 -283.5t-89 -282.5
t-252 -96.5zM396 68q246 0 246 301q0 152 -62 227.5t-184 75.5q-247 0 -247 -303q0 -301 247 -301z" />
    <glyph glyph-name="multiply" unicode="&#xd7;" horiz-adv-x="482" 
d="M62 237l133 134l-133 133l45 46l133 -134l134 134l46 -46l-134 -134l134 -133l-45 -45l-134 133l-134 -133z" />
    <glyph glyph-name="Oslash" unicode="&#xd8;" horiz-adv-x="792" 
d="M130 103q-37 48 -56.5 114t-19.5 152q0 186 89 283.5t253 97.5q135 0 221 -69l49 59h78l-85 -101q78 -98 78 -270q0 -186 -88.5 -282.5t-252.5 -96.5q-139 0 -223 69l-50 -59h-79zM396 68q247 0 247 301q0 125 -44 199l-371 -443q61 -57 168 -57zM149 369q0 -121 41 -195
l371 441q-60 57 -165 57q-122 0 -184.5 -75.5t-62.5 -227.5z" />
    <glyph glyph-name="Ugrave" unicode="&#xd9;" horiz-adv-x="797" 
d="M362 805l-99 148h96l75 -135zM399 -10q-83 0 -142 18t-97 56t-56 97t-18 142v437h93v-436q0 -64 14 -108.5t41.5 -73t69 -41.5t95.5 -13t95 13t68 41.5t41 73t14 108.5v436h94v-437q0 -83 -18 -142t-56 -97t-97 -56t-141 -18z" />
    <glyph glyph-name="Uacute" unicode="&#xda;" horiz-adv-x="797" 
d="M348 812l74 141h96l-99 -148zM399 -10q-83 0 -142 18t-97 56t-56 97t-18 142v437h93v-436q0 -64 14 -108.5t41.5 -73t69 -41.5t95.5 -13t95 13t68 41.5t41 73t14 108.5v436h94v-437q0 -83 -18 -142t-56 -97t-97 -56t-141 -18z" />
    <glyph glyph-name="Ucircumflex" unicode="&#xdb;" horiz-adv-x="797" 
d="M399 -10q-83 0 -142 18t-97 56t-56 97t-18 142v437h93v-436q0 -64 14 -108.5t41.5 -73t69 -41.5t95.5 -13t95 13t68 41.5t41 73t14 108.5v436h94v-437q0 -83 -18 -142t-56 -97t-97 -56t-141 -18zM219 886l176 75l176 -75v-74l-176 75l-176 -75v74z" />
    <glyph glyph-name="Udieresis" unicode="&#xdc;" horiz-adv-x="797" 
d="M254 822q-59 0 -59 59q0 30 15 43.5t44 13.5t44 -13.5t15 -43.5q0 -59 -59 -59zM536 822q-59 0 -59 59q0 30 15 43.5t44 13.5t44.5 -13.5t15.5 -43.5q0 -59 -60 -59zM399 -10q-83 0 -142 18t-97 56t-56 97t-18 142v437h93v-436q0 -64 14 -108.5t41.5 -73t69 -41.5
t95.5 -13t95 13t68 41.5t41 73t14 108.5v436h94v-437q0 -83 -18 -142t-56 -97t-97 -56t-141 -18z" />
    <glyph glyph-name="Yacute" unicode="&#xdd;" horiz-adv-x="664" 
d="M286 247l-282 493h100l191 -338l32 -69h10l32 69l190 338h100l-280 -491v-249h-93v247zM292 812l74 141h96l-99 -148z" />
    <glyph glyph-name="Thorn" unicode="&#xde;" horiz-adv-x="688" 
d="M94 741h93v-123q27 2 54 3.5t53 1.5q184 0 269 -60.5t85 -191.5q0 -66 -20 -114t-62 -78.5t-108 -45t-157 -14.5q-26 0 -54 1t-60 4v-124h-93v741zM305 199q70 0 118 8.5t77.5 29t42 53.5t12.5 81q0 47 -13.5 79.5t-44 53t-80 29.5t-120.5 9q-12 0 -27.5 -0.5l-31 -1
t-29 -2t-22.5 -3.5v-327q5 -2 19 -3.5t31.5 -3t35.5 -2t32 -0.5z" />
    <glyph glyph-name="germandbls" unicode="&#xdf;" horiz-adv-x="699" 
d="M80 586q0 119 64 172t191 53q128 0 193 -54t65 -171v-103h-116q-63 0 -95 -21.5t-32 -62.5q0 -24 10.5 -39.5t29 -25t44 -15.5t55.5 -11q37 -6 69 -16.5t56 -28t38 -45t14 -68.5q0 -77 -56 -119t-159 -42q-39 0 -85 5.5t-113 18.5v69q110 -25 194 -25q128 0 128 88
q0 24 -9 40t-25.5 26.5t-39 16.5t-48.5 11q-33 6 -67.5 13t-62 23.5t-45.5 45.5t-18 77q0 73 56 114t156 41h28v33q0 79 -40 114t-124 35t-124 -34.5t-40 -114.5v-586h-92v586z" />
    <glyph glyph-name="agrave" unicode="&#xe0;" horiz-adv-x="561" 
d="M192 -5q-149 0 -149 142q0 79 50 120t161 50l140 11v33q0 36 -6.5 59.5t-22.5 37.5t-44 20t-71 6q-37 0 -77 -4t-91 -14l-7 70q57 11 102.5 15t93.5 4q110 0 162.5 -43.5t52.5 -135.5v-366h-75l-10 69h-6q-108 -74 -203 -74zM226 65q38 0 80.5 15.5t87.5 45.5v135
l-112 -10q-41 -4 -69 -11t-45 -19.5t-24.5 -31t-7.5 -44.5q0 -42 21.5 -61t68.5 -19zM247 616l-101 192h101l70 -182z" />
    <glyph glyph-name="aacute" unicode="&#xe1;" horiz-adv-x="561" 
d="M192 -5q-149 0 -149 142q0 79 50 120t161 50l140 11v33q0 36 -6.5 59.5t-22.5 37.5t-44 20t-71 6q-37 0 -77 -4t-91 -14l-7 70q57 11 102.5 15t93.5 4q110 0 162.5 -43.5t52.5 -135.5v-366h-75l-10 69h-6q-108 -74 -203 -74zM226 65q38 0 80.5 15.5t87.5 45.5v135
l-112 -10q-41 -4 -69 -11t-45 -19.5t-24.5 -31t-7.5 -44.5q0 -42 21.5 -61t68.5 -19zM248 616l70 185h95l-99 -192z" />
    <glyph glyph-name="acircumflex" unicode="&#xe2;" horiz-adv-x="561" 
d="M192 -5q-149 0 -149 142q0 79 50 120t161 50l140 11v33q0 36 -6.5 59.5t-22.5 37.5t-44 20t-71 6q-37 0 -77 -4t-91 -14l-7 70q57 11 102.5 15t93.5 4q110 0 162.5 -43.5t52.5 -135.5v-366h-75l-10 69h-6q-108 -74 -203 -74zM226 65q38 0 80.5 15.5t87.5 45.5v135
l-112 -10q-41 -4 -69 -11t-45 -19.5t-24.5 -31t-7.5 -44.5q0 -42 21.5 -61t68.5 -19zM107 703l175 75l176 -75v-73l-175 75l-176 -75v73z" />
    <glyph glyph-name="atilde" unicode="&#xe3;" horiz-adv-x="561" 
d="M192 -5q-149 0 -149 142q0 79 50 120t161 50l140 11v33q0 36 -6.5 59.5t-22.5 37.5t-44 20t-71 6q-37 0 -77 -4t-91 -14l-7 70q57 11 102.5 15t93.5 4q110 0 162.5 -43.5t52.5 -135.5v-366h-75l-10 69h-6q-108 -74 -203 -74zM226 65q38 0 80.5 15.5t87.5 45.5v135
l-112 -10q-41 -4 -69 -11t-45 -19.5t-24.5 -31t-7.5 -44.5q0 -42 21.5 -61t68.5 -19zM64 681q31 40 65.5 59t68.5 19q26 0 48.5 -6.5t44.5 -14t43.5 -14t45.5 -6.5q26 0 50 8.5t50 28.5l24 -28q-30 -38 -67 -58t-74 -20q-23 0 -46 6.5t-45.5 14t-44.5 14t-44 6.5
q-24 0 -47 -8.5t-48 -28.5z" />
    <glyph glyph-name="adieresis" unicode="&#xe4;" horiz-adv-x="561" 
d="M192 -5q-149 0 -149 142q0 79 50 120t161 50l140 11v33q0 36 -6.5 59.5t-22.5 37.5t-44 20t-71 6q-37 0 -77 -4t-91 -14l-7 70q57 11 102.5 15t93.5 4q110 0 162.5 -43.5t52.5 -135.5v-366h-75l-10 69h-6q-108 -74 -203 -74zM226 65q38 0 80.5 15.5t87.5 45.5v135
l-112 -10q-41 -4 -69 -11t-45 -19.5t-24.5 -31t-7.5 -44.5q0 -42 21.5 -61t68.5 -19zM155 655q-54 0 -54 54q0 52 54 52t54 -52q0 -54 -54 -54zM412 655q-54 0 -54 54q0 52 54 52q53 0 53 -52q0 -54 -53 -54z" />
    <glyph glyph-name="aring" unicode="&#xe5;" horiz-adv-x="561" 
d="M192 -5q-149 0 -149 142q0 79 50 120t161 50l140 11v33q0 36 -6.5 59.5t-22.5 37.5t-44 20t-71 6q-37 0 -77 -4t-91 -14l-7 70q57 11 102.5 15t93.5 4q110 0 162.5 -43.5t52.5 -135.5v-366h-75l-10 69h-6q-108 -74 -203 -74zM226 65q38 0 80.5 15.5t87.5 45.5v135
l-112 -10q-41 -4 -69 -11t-45 -19.5t-24.5 -31t-7.5 -44.5q0 -42 21.5 -61t68.5 -19zM282 598q-27 0 -51 8t-41 22.5t-27 34.5t-10 44t10 44.5t27 35t41 23t51 8.5t50 -8.5t40.5 -23t27 -35t9.5 -44.5t-9.5 -44t-27 -34.5t-40.5 -22.5t-50 -8zM282 643q76 0 76 64
q0 32 -19 49t-57 17t-58 -17t-20 -49q0 -64 78 -64z" />
    <glyph glyph-name="ae" unicode="&#xe6;" horiz-adv-x="924" 
d="M662 -11q-77 0 -130.5 24.5t-83.5 72.5l-5 1q-83 -51 -142 -71.5t-109 -20.5q-148 0 -148 142q0 78 50 118.5t160 49.5l141 11v41q0 33 -7 55.5t-24 36t-44.5 19.5t-68.5 6q-38 0 -77.5 -4t-90.5 -14l-8 70q57 11 102.5 15t93.5 4q149 0 184 -95h6q29 47 78 72t118 25
q106 0 161.5 -61t55.5 -178q0 -47 -6 -69h-380q4 -91 48.5 -133.5t135.5 -42.5q43 0 89 7t90 21l5 -70q-44 -15 -96 -23.5t-98 -8.5zM790 294q-2 99 -33.5 141.5t-102.5 42.5q-157 0 -166 -184h302zM227 64q37 0 80 15t88 45v139l-113 -10q-41 -4 -68.5 -11.5t-44.5 -20
t-24.5 -31.5t-7.5 -45q0 -42 21.5 -61.5t68.5 -19.5z" />
    <glyph glyph-name="ccedilla" unicode="&#xe7;" horiz-adv-x="506" 
d="M253 -220q-20 0 -46 3.5t-49 8.5v62q31 -11 73 -11t59 13t17 45q0 20 -8 40.5t-28 52.5q-221 23 -221 275q0 280 269 280q35 0 73.5 -4t67.5 -11v-77q-65 14 -131 14q-187 0 -187 -201q0 -106 44 -153.5t141 -47.5q38 0 68 2.5t65 9.5v-75q-22 -6 -54 -9.5t-66 -5.5
q22 -35 29.5 -55t7.5 -42q0 -54 -32.5 -84t-91.5 -30z" />
    <glyph glyph-name="egrave" unicode="&#xe8;" horiz-adv-x="577" 
d="M315 -9q-264 0 -264 273q0 138 65.5 211.5t190.5 73.5q220 0 220 -243q0 -22 -1.5 -39.5t-5.5 -29.5h-378q6 -92 50 -132t136 -40q42 0 88 7t88 20l5 -69q-43 -15 -94.5 -23.5t-99.5 -8.5zM305 479q-151 0 -163 -178h301q-3 96 -35 137t-103 41zM261 616l-101 192h101
l70 -182z" />
    <glyph glyph-name="eacute" unicode="&#xe9;" horiz-adv-x="577" 
d="M276 616l70 185h95l-99 -192zM315 -9q-264 0 -264 273q0 138 65.5 211.5t190.5 73.5q220 0 220 -243q0 -22 -1.5 -39.5t-5.5 -29.5h-378q6 -92 50 -132t136 -40q42 0 88 7t88 20l5 -69q-43 -15 -94.5 -23.5t-99.5 -8.5zM305 479q-151 0 -163 -178h301q-3 96 -35 137
t-103 41z" />
    <glyph glyph-name="ecircumflex" unicode="&#xea;" horiz-adv-x="577" 
d="M127 703l175 75l176 -75v-73l-175 75l-176 -75v73zM315 -9q-264 0 -264 273q0 138 65.5 211.5t190.5 73.5q220 0 220 -243q0 -22 -1.5 -39.5t-5.5 -29.5h-378q6 -92 50 -132t136 -40q42 0 88 7t88 20l5 -69q-43 -15 -94.5 -23.5t-99.5 -8.5zM305 479q-151 0 -163 -178
h301q-3 96 -35 137t-103 41z" />
    <glyph glyph-name="edieresis" unicode="&#xeb;" horiz-adv-x="577" 
d="M171 655q-54 0 -54 54q0 52 54 52t54 -52q0 -54 -54 -54zM428 655q-54 0 -54 54q0 52 54 52q53 0 53 -52q0 -54 -53 -54zM315 -9q-264 0 -264 273q0 138 65.5 211.5t190.5 73.5q220 0 220 -243q0 -22 -1.5 -39.5t-5.5 -29.5h-378q6 -92 50 -132t136 -40q42 0 88 7t88 20
l5 -69q-43 -15 -94.5 -23.5t-99.5 -8.5zM305 479q-151 0 -163 -178h301q-3 96 -35 137t-103 41z" />
    <glyph glyph-name="igrave" unicode="&#xec;" horiz-adv-x="254" 
d="M81 540h92v-540h-92v540zM86 616l-101 192h101l70 -182z" />
    <glyph glyph-name="iacute" unicode="&#xed;" horiz-adv-x="254" 
d="M96 616l70 185h95l-99 -192zM81 540h92v-540h-92v540z" />
    <glyph glyph-name="icircumflex" unicode="&#xee;" horiz-adv-x="254" 
d="M-41 703l169 75l170 -75v-73l-169 75l-170 -75v73zM81 540h92v-540h-92v540z" />
    <glyph glyph-name="idieresis" unicode="&#xef;" horiz-adv-x="254" 
d="M7 655q-54 0 -54 54q0 52 54 52q53 0 53 -52q0 -54 -53 -54zM250 655q-54 0 -54 54q0 52 54 52q53 0 53 -52q0 -54 -53 -54zM81 540h92v-540h-92v540z" />
    <glyph glyph-name="eth" unicode="&#xf0;" horiz-adv-x="643" 
d="M223 685l158 16q-36 54 -88 107h99q17 -20 35.5 -44.5t36.5 -53.5l159 16v-64l-125 -13q35 -68 58 -153t23 -190q0 -155 -68.5 -235.5t-196.5 -80.5t-196.5 72t-68.5 207t68 208t190 73q64 0 106 -24t71 -76q-20 103 -66 191l-195 -20v64zM315 64q88 0 129.5 55t41.5 170
q0 40 -11 74t-33 59t-54 39t-74 14q-89 0 -130 -50t-41 -155q0 -106 41 -156t131 -50z" />
    <glyph glyph-name="ntilde" unicode="&#xf1;" horiz-adv-x="646" 
d="M80 540h76l6 -64h6q45 20 81 34t65.5 23t55 13t49.5 4q72 0 111.5 -37.5t39.5 -112.5v-400h-92v367q0 58 -23 83t-71 25q-41 0 -95.5 -17t-116.5 -45v-413h-92v540zM110 681q31 40 65.5 59t68.5 19q26 0 48.5 -6.5t44.5 -14t43.5 -14t45.5 -6.5q26 0 50 8.5t50 28.5
l24 -28q-30 -38 -67 -58t-74 -20q-23 0 -46 6.5t-45.5 14t-44.5 14t-44 6.5q-24 0 -47 -8.5t-48 -28.5z" />
    <glyph glyph-name="ograve" unicode="&#xf2;" horiz-adv-x="629" 
d="M315 -10q-129 0 -197.5 72t-68.5 208t68.5 208t197.5 72q128 0 196 -72t68 -208t-68 -208t-196 -72zM315 64q89 0 130 50t41 156t-41 155.5t-130 49.5t-130.5 -49.5t-41.5 -155.5t41.5 -156t130.5 -50zM270 616l-101 192h101l70 -182z" />
    <glyph glyph-name="oacute" unicode="&#xf3;" horiz-adv-x="629" 
d="M279 616l70 185h95l-99 -192zM315 -10q-129 0 -197.5 72t-68.5 208t68.5 208t197.5 72q128 0 196 -72t68 -208t-68 -208t-196 -72zM315 64q89 0 130 50t41 156t-41 155.5t-130 49.5t-130.5 -49.5t-41.5 -155.5t41.5 -156t130.5 -50z" />
    <glyph glyph-name="ocircumflex" unicode="&#xf4;" horiz-adv-x="629" 
d="M137 703l175 75l176 -75v-73l-175 75l-176 -75v73zM315 -10q-129 0 -197.5 72t-68.5 208t68.5 208t197.5 72q128 0 196 -72t68 -208t-68 -208t-196 -72zM315 64q89 0 130 50t41 156t-41 155.5t-130 49.5t-130.5 -49.5t-41.5 -155.5t41.5 -156t130.5 -50z" />
    <glyph glyph-name="otilde" unicode="&#xf5;" horiz-adv-x="629" 
d="M315 -10q-129 0 -197.5 72t-68.5 208t68.5 208t197.5 72q128 0 196 -72t68 -208t-68 -208t-196 -72zM315 64q89 0 130 50t41 156t-41 155.5t-130 49.5t-130.5 -49.5t-41.5 -155.5t41.5 -156t130.5 -50zM96 681q31 40 65.5 59t68.5 19q26 0 48.5 -6.5t44.5 -14t43.5 -14
t45.5 -6.5q26 0 50 8.5t50 28.5l24 -28q-30 -38 -67 -58t-74 -20q-23 0 -46 6.5t-45.5 14t-44.5 14t-44 6.5q-24 0 -47 -8.5t-48 -28.5z" />
    <glyph glyph-name="odieresis" unicode="&#xf6;" horiz-adv-x="629" 
d="M185 655q-54 0 -54 54q0 52 54 52t54 -52q0 -54 -54 -54zM442 655q-54 0 -54 54q0 52 54 52q53 0 53 -52q0 -54 -53 -54zM315 -10q-129 0 -197.5 72t-68.5 208t68.5 208t197.5 72q128 0 196 -72t68 -208t-68 -208t-196 -72zM315 64q89 0 130 50t41 156t-41 155.5
t-130 49.5t-130.5 -49.5t-41.5 -155.5t41.5 -156t130.5 -50z" />
    <glyph glyph-name="divide" unicode="&#xf7;" horiz-adv-x="530" 
d="M268 160q-21 0 -34 12t-13 35t13 35t34 12t34 -12t13 -35t-13 -35t-34 -12zM67 402h397v-64h-397v64zM268 480q-21 0 -34 12t-13 35t13 35.5t34 12.5t34 -12.5t13 -35.5t-13 -35t-34 -12z" />
    <glyph glyph-name="oslash" unicode="&#xf8;" horiz-adv-x="635" 
d="M104 83q-51 70 -51 187q0 133 66.5 206.5t198.5 73.5q107 0 173 -51l39 41h80l-78 -84q51 -71 51 -186q0 -134 -67 -207t-198 -73q-108 0 -174 51l-38 -41h-80zM318 64q94 0 133 51.5t39 154.5q0 76 -20 120l-271 -290q42 -36 119 -36zM146 270q0 -76 19 -121l271 290
q-41 36 -118 36q-94 0 -133 -51t-39 -154z" />
    <glyph glyph-name="ugrave" unicode="&#xf9;" horiz-adv-x="646" 
d="M217 -10q-70 0 -105.5 38.5t-35.5 111.5v400h92v-369q0 -55 20 -79.5t67 -24.5q27 0 55 6.5t56.5 16t56 21.5t51.5 23v406h92v-540h-76l-6 69h-4q-47 -21 -81 -35.5t-63 -24.5t-56.5 -14.5t-62.5 -4.5zM276 616l-101 192h101l70 -182z" />
    <glyph glyph-name="uacute" unicode="&#xfa;" horiz-adv-x="646" 
d="M283 616l70 185h95l-99 -192zM217 -10q-70 0 -105.5 38.5t-35.5 111.5v400h92v-369q0 -55 20 -79.5t67 -24.5q27 0 55 6.5t56.5 16t56 21.5t51.5 23v406h92v-540h-76l-6 69h-4q-47 -21 -81 -35.5t-63 -24.5t-56.5 -14.5t-62.5 -4.5z" />
    <glyph glyph-name="ucircumflex" unicode="&#xfb;" horiz-adv-x="646" 
d="M144 703l175 75l176 -75v-73l-175 75l-176 -75v73zM217 -10q-70 0 -105.5 38.5t-35.5 111.5v400h92v-369q0 -55 20 -79.5t67 -24.5q27 0 55 6.5t56.5 16t56 21.5t51.5 23v406h92v-540h-76l-6 69h-4q-47 -21 -81 -35.5t-63 -24.5t-56.5 -14.5t-62.5 -4.5z" />
    <glyph glyph-name="udieresis" unicode="&#xfc;" horiz-adv-x="646" 
d="M190 655q-54 0 -54 54q0 52 54 52t54 -52q0 -54 -54 -54zM447 655q-54 0 -54 54q0 52 54 52q53 0 53 -52q0 -54 -53 -54zM217 -10q-70 0 -105.5 38.5t-35.5 111.5v400h92v-369q0 -55 20 -79.5t67 -24.5q27 0 55 6.5t56.5 16t56 21.5t51.5 23v406h92v-540h-76l-6 69h-4
q-47 -21 -81 -35.5t-63 -24.5t-56.5 -14.5t-62.5 -4.5z" />
    <glyph glyph-name="yacute" unicode="&#xfd;" horiz-adv-x="598" 
d="M164 -206l-1 11l89 201l-234 522v12h99l151 -358l28 -82h6l28 82l157 358h96v-12l-337 -748zM268 616l70 185h95l-99 -192z" />
    <glyph glyph-name="thorn" unicode="&#xfe;" horiz-adv-x="642" 
d="M80 808h91v-330q29 32 74.5 52t112.5 20q117 0 175.5 -66.5t58.5 -210.5q0 -143 -73.5 -213t-213.5 -70q-33 0 -69.5 4t-64.5 6v-220h-91v1028zM305 58q49 0 85.5 9.5t60.5 33.5t36 64t12 101q0 62 -10 103t-30 66t-51.5 35t-73.5 10q-76 0 -119.5 -42t-43.5 -122v-244
q30 -6 66.5 -10t67.5 -4z" />
    <glyph glyph-name="ydieresis" unicode="&#xff;" horiz-adv-x="598" 
d="M164 -206l-1 11l89 201l-234 522v12h99l151 -358l28 -82h6l28 82l157 358h96v-12l-337 -748zM170 655q-54 0 -54 54q0 52 54 52t54 -52q0 -54 -54 -54zM427 655q-54 0 -54 54q0 52 54 52q53 0 53 -52q0 -54 -53 -54z" />
    <glyph glyph-name="Amacron" unicode="&#x100;" horiz-adv-x="723" 
d="M7 7l283 733h143l283 -733v-7h-93l-84 217h-355l-84 -217h-93v7zM512 297l-94 243l-52 136h-9l-51 -136l-95 -243h301zM189 911h347v-69h-347v69z" />
    <glyph glyph-name="amacron" unicode="&#x101;" horiz-adv-x="561" 
d="M192 -5q-149 0 -149 142q0 79 50 120t161 50l140 11v33q0 36 -6.5 59.5t-22.5 37.5t-44 20t-71 6q-37 0 -77 -4t-91 -14l-7 70q57 11 102.5 15t93.5 4q110 0 162.5 -43.5t52.5 -135.5v-366h-75l-10 69h-6q-108 -74 -203 -74zM226 65q38 0 80.5 15.5t87.5 45.5v135
l-112 -10q-41 -4 -69 -11t-45 -19.5t-24.5 -31t-7.5 -44.5q0 -42 21.5 -61t68.5 -19zM114 718h348v-68h-348v68z" />
    <glyph glyph-name="Abreve" unicode="&#x102;" horiz-adv-x="723" 
d="M7 7l283 733h143l283 -733v-7h-93l-84 217h-355l-84 -217h-93v7zM512 297l-94 243l-52 136h-9l-51 -136l-95 -243h301zM362 815q-99 0 -145.5 41.5t-46.5 108.5h69q0 -45 30.5 -70t92.5 -25q63 0 93.5 25t30.5 70h68q0 -68 -47 -109t-145 -41z" />
    <glyph glyph-name="abreve" unicode="&#x103;" horiz-adv-x="561" 
d="M192 -5q-149 0 -149 142q0 79 50 120t161 50l140 11v33q0 36 -6.5 59.5t-22.5 37.5t-44 20t-71 6q-37 0 -77 -4t-91 -14l-7 70q57 11 102.5 15t93.5 4q110 0 162.5 -43.5t52.5 -135.5v-366h-75l-10 69h-6q-108 -74 -203 -74zM226 65q38 0 80.5 15.5t87.5 45.5v135
l-112 -10q-41 -4 -69 -11t-45 -19.5t-24.5 -31t-7.5 -44.5q0 -42 21.5 -61t68.5 -19zM283 618q-52 0 -88.5 11t-60 31.5t-34.5 49.5t-11 65h68q0 -57 31.5 -81t94.5 -24q62 0 93.5 24t31.5 81h67q0 -71 -44.5 -114t-147.5 -43z" />
    <glyph glyph-name="Aogonek" unicode="&#x104;" horiz-adv-x="722" 
d="M637 -220q-111 0 -111 83q0 38 25.5 69t87.5 68h-16l-84 217h-355l-84 -217h-93v7l283 733h143l283 -733v-25q-66 -32 -95 -59.5t-29 -54.5q0 -32 45 -32q15 0 36.5 3t41.5 8v-55q-15 -6 -35.5 -9t-42.5 -3zM512 297l-94 243l-52 136h-9l-51 -136l-95 -243h301z" />
    <glyph glyph-name="aogonek" unicode="&#x105;" horiz-adv-x="561" 
d="M407 -220q-111 0 -111 83q0 38 26.5 69t88.5 68l-10 69h-6q-108 -74 -203 -74q-149 0 -149 142q0 79 50 120t161 50l140 11v33q0 36 -6.5 59.5t-22.5 37.5t-44 20t-71 6q-37 0 -77 -4t-91 -14l-7 70q57 11 102.5 15t93.5 4q110 0 162.5 -43.5t52.5 -135.5v-384
q-66 -32 -95 -59.5t-29 -54.5q0 -32 45 -32q15 0 36.5 3t41.5 8v-55q-15 -6 -35.5 -9t-42.5 -3zM226 65q38 0 80.5 15.5t87.5 45.5v135l-112 -10q-41 -4 -69 -11t-45 -19.5t-24.5 -31t-7.5 -44.5q0 -42 21.5 -61t68.5 -19z" />
    <glyph glyph-name="Cacute" unicode="&#x106;" horiz-adv-x="622" 
d="M400 -9q-172 0 -259 95t-87 282q0 190 87 286.5t258 96.5q37 0 85.5 -5.5t96.5 -14.5v-79q-58 10 -99.5 14.5t-73.5 4.5q-132 0 -195.5 -74.5t-63.5 -227.5q0 -152 61.5 -225.5t189.5 -73.5q18 0 42.5 2t50 5t49 7t39.5 8v-78q-19 -5 -42.5 -9t-48 -7t-48 -5t-42.5 -2z
M321 812l74 141h96l-99 -148z" />
    <glyph glyph-name="cacute" unicode="&#x107;" horiz-adv-x="506" 
d="M264 616l70 185h95l-99 -192zM319 -9q-269 0 -269 278q0 280 269 280q35 0 73.5 -4t67.5 -11v-77q-65 14 -131 14q-187 0 -187 -201q0 -106 44 -153.5t141 -47.5q38 0 68 2.5t65 9.5v-75q-25 -7 -64 -11t-77 -4z" />
    <glyph glyph-name="Ccircumflex" unicode="&#x108;" horiz-adv-x="622" 
d="M400 -9q-172 0 -259 95t-87 282q0 190 87 286.5t258 96.5q37 0 85.5 -5.5t96.5 -14.5v-79q-58 10 -99.5 14.5t-73.5 4.5q-132 0 -195.5 -74.5t-63.5 -227.5q0 -152 61.5 -225.5t189.5 -73.5q18 0 42.5 2t50 5t49 7t39.5 8v-78q-19 -5 -42.5 -9t-48 -7t-48 -5t-42.5 -2z
M186 886l176 75l176 -75v-74l-176 75l-176 -75v74z" />
    <glyph glyph-name="ccircumflex" unicode="&#x109;" horiz-adv-x="506" 
d="M117 703l175 75l176 -75v-73l-175 75l-176 -75v73zM319 -9q-269 0 -269 278q0 280 269 280q35 0 73.5 -4t67.5 -11v-77q-65 14 -131 14q-187 0 -187 -201q0 -106 44 -153.5t141 -47.5q38 0 68 2.5t65 9.5v-75q-25 -7 -64 -11t-77 -4z" />
    <glyph glyph-name="Cdotaccent" unicode="&#x10a;" horiz-adv-x="622" 
d="M371 818q-30 0 -45 13.5t-15 44.5t15 44.5t45 13.5q29 0 44.5 -13.5t15.5 -44.5q0 -58 -60 -58zM400 -9q-172 0 -259 95t-87 282q0 190 87 286.5t258 96.5q37 0 85.5 -5.5t96.5 -14.5v-79q-58 10 -99.5 14.5t-73.5 4.5q-132 0 -195.5 -74.5t-63.5 -227.5
q0 -152 61.5 -225.5t189.5 -73.5q18 0 42.5 2t50 5t49 7t39.5 8v-78q-19 -5 -42.5 -9t-48 -7t-48 -5t-42.5 -2z" />
    <glyph glyph-name="cdotaccent" unicode="&#x10b;" horiz-adv-x="506" 
d="M319 -9q-269 0 -269 278q0 280 269 280q35 0 73.5 -4t67.5 -11v-77q-65 14 -131 14q-187 0 -187 -201q0 -106 44 -153.5t141 -47.5q38 0 68 2.5t65 9.5v-75q-25 -7 -64 -11t-77 -4zM291 650q-60 0 -60 59q0 58 60 58q59 0 59 -58q0 -59 -59 -59z" />
    <glyph glyph-name="Ccaron" unicode="&#x10c;" horiz-adv-x="622" 
d="M400 -9q-172 0 -259 95t-87 282q0 190 87 286.5t258 96.5q37 0 85.5 -5.5t96.5 -14.5v-79q-58 10 -99.5 14.5t-73.5 4.5q-132 0 -195.5 -74.5t-63.5 -227.5q0 -152 61.5 -225.5t189.5 -73.5q18 0 42.5 2t50 5t49 7t39.5 8v-78q-19 -5 -42.5 -9t-48 -7t-48 -5t-42.5 -2z
M187 961l176 -75l176 75v-74l-177 -75l-175 75v74z" />
    <glyph glyph-name="ccaron" unicode="&#x10d;" horiz-adv-x="506" 
d="M114 764l176 -75l176 75v-73l-176 -75l-176 75v73zM319 -9q-269 0 -269 278q0 280 269 280q35 0 73.5 -4t67.5 -11v-77q-65 14 -131 14q-187 0 -187 -201q0 -106 44 -153.5t141 -47.5q38 0 68 2.5t65 9.5v-75q-25 -7 -64 -11t-77 -4z" />
    <glyph glyph-name="Dcaron" unicode="&#x10e;" horiz-adv-x="777" 
d="M187 961l176 -75l176 75v-74l-177 -75l-175 75v74zM302 -9q-34 0 -66 1t-59.5 3t-49 5t-33.5 7v732q26 2 57 3.5t61.5 3t58.5 2.5t48 1q208 0 305.5 -91.5t97.5 -287.5q0 -99 -24.5 -170.5t-75.5 -118t-130.5 -68.5t-189.5 -22zM331 68q155 0 225.5 72t70.5 230
q0 157 -71 228.5t-227 71.5q-28 0 -68 -2t-74 -5v-584q41 -6 72.5 -8.5t71.5 -2.5z" />
    <glyph glyph-name="dcaron" unicode="&#x10f;" horiz-adv-x="643" 
d="M636 808h77l-30 -228h-47v228zM290 -10q-117 0 -178.5 66.5t-61.5 209.5q0 73 20.5 126.5t57.5 88.5t88.5 52t114.5 17q41 0 77 -4t64 -6v268h91v-808h-79l-8 70h-7q-59 -80 -179 -80zM311 63q32 0 61.5 8.5t51.5 24.5t35 38.5t13 51.5v282q-27 4 -64 8t-79 4
q-92 0 -139 -48t-47 -162q0 -56 10 -95.5t30.5 -64.5t52 -36t75.5 -11z" />
    <glyph glyph-name="Dcroat" unicode="&#x110;" horiz-adv-x="787" 
d="M6 408h99v331q26 2 57 3.5t61.5 3t58.5 2.5t48 1q208 0 305.5 -91.5t97.5 -287.5q0 -99 -24.5 -170.5t-75.5 -118t-130.5 -68.5t-189.5 -22q-34 0 -66 1t-59.5 3t-49 5t-33.5 7v325h-99v76zM342 68q155 0 225.5 72t70.5 230q0 157 -71 228.5t-227 71.5q-28 0 -68 -2
t-74 -5v-255h195v-76h-195v-253q41 -6 72.5 -8.5t71.5 -2.5z" />
    <glyph glyph-name="dcroat" unicode="&#x111;" horiz-adv-x="643" 
d="M271 704h201v104h91v-104h82v-60h-82v-644h-79l-8 70h-7q-59 -80 -179 -80q-117 0 -178.5 66.5t-61.5 209.5q0 73 20.5 126.5t57.5 88.5t88.5 52t114.5 17q41 0 77 -4t64 -6v104h-201v60zM311 63q32 0 61.5 8.5t51.5 24.5t35 38.5t13 51.5v282q-27 4 -64 8t-79 4
q-92 0 -139 -48t-47 -162q0 -56 10 -95.5t30.5 -64.5t52 -36t75.5 -11z" />
    <glyph glyph-name="Emacron" unicode="&#x112;" horiz-adv-x="654" 
d="M173 911h347v-69h-347v69zM94 740h497v-76h-404v-250h381v-77h-381v-261h413v-76h-506v740z" />
    <glyph glyph-name="emacron" unicode="&#x113;" horiz-adv-x="577" 
d="M315 -9q-264 0 -264 273q0 138 65.5 211.5t190.5 73.5q220 0 220 -243q0 -22 -1.5 -39.5t-5.5 -29.5h-378q6 -92 50 -132t136 -40q42 0 88 7t88 20l5 -69q-43 -15 -94.5 -23.5t-99.5 -8.5zM305 479q-151 0 -163 -178h301q-3 96 -35 137t-103 41zM130 718h348v-68h-348v68
z" />
    <glyph glyph-name="Ebreve" unicode="&#x114;" horiz-adv-x="654" 
d="M341 815q-99 0 -145.5 41.5t-46.5 108.5h69q0 -45 30.5 -70t92.5 -25q63 0 93.5 25t30.5 70h68q0 -68 -47 -109t-145 -41zM94 740h497v-76h-404v-250h381v-77h-381v-261h413v-76h-506v740z" />
    <glyph glyph-name="ebreve" unicode="&#x115;" horiz-adv-x="577" 
d="M315 -9q-264 0 -264 273q0 138 65.5 211.5t190.5 73.5q220 0 220 -243q0 -22 -1.5 -39.5t-5.5 -29.5h-378q6 -92 50 -132t136 -40q42 0 88 7t88 20l5 -69q-43 -15 -94.5 -23.5t-99.5 -8.5zM305 479q-151 0 -163 -178h301q-3 96 -35 137t-103 41zM301 618q-52 0 -88.5 11
t-60 31.5t-34.5 49.5t-11 65h68q0 -57 31.5 -81t94.5 -24q62 0 93.5 24t31.5 81h67q0 -71 -44.5 -114t-147.5 -43z" />
    <glyph glyph-name="Edotaccent" unicode="&#x116;" horiz-adv-x="654" 
d="M343 818q-30 0 -45 13.5t-15 44.5t15 44.5t45 13.5q29 0 44.5 -13.5t15.5 -44.5q0 -58 -60 -58zM94 740h497v-76h-404v-250h381v-77h-381v-261h413v-76h-506v740z" />
    <glyph glyph-name="edotaccent" unicode="&#x117;" horiz-adv-x="577" 
d="M315 -9q-264 0 -264 273q0 138 65.5 211.5t190.5 73.5q220 0 220 -243q0 -22 -1.5 -39.5t-5.5 -29.5h-378q6 -92 50 -132t136 -40q42 0 88 7t88 20l5 -69q-43 -15 -94.5 -23.5t-99.5 -8.5zM305 479q-151 0 -163 -178h301q-3 96 -35 137t-103 41zM304 650q-60 0 -60 59
q0 58 60 58q59 0 59 -58q0 -59 -59 -59z" />
    <glyph glyph-name="Eogonek" unicode="&#x118;" horiz-adv-x="654" 
d="M94 740h497v-76h-404v-250h381v-77h-381v-261h413v-94q-66 -32 -95 -59.5t-29 -54.5q0 -32 45 -32q15 0 36.5 3t41.5 8v-55q-15 -6 -35.5 -9t-42.5 -3q-111 0 -111 83q0 38 25.5 69t87.5 68h-429v740z" />
    <glyph glyph-name="eogonek" unicode="&#x119;" 
d="M315 -9q-264 0 -264 273q0 138 65.5 211.5t190.5 73.5q220 0 220 -243q0 -22 -1.5 -39.5t-5.5 -29.5h-378q6 -92 50 -132t136 -40q42 0 88 7t88 20l5 -69v-18q-66 -32 -95 -59.5t-29 -54.5q0 -32 45 -32q15 0 36.5 3t41.5 8v-55q-15 -6 -35.5 -9t-42.5 -3q-111 0 -111 83
q0 31 16.5 56.5t54.5 53.5q-20 -2 -38.5 -3.5t-36.5 -1.5zM305 479q-151 0 -163 -178h301q-3 96 -35 137t-103 41z" />
    <glyph glyph-name="Ecaron" unicode="&#x11a;" horiz-adv-x="654" 
d="M169 961l176 -75l176 75v-74l-177 -75l-175 75v74zM94 740h497v-76h-404v-250h381v-77h-381v-261h413v-76h-506v740z" />
    <glyph glyph-name="ecaron" unicode="&#x11b;" horiz-adv-x="577" 
d="M127 764l176 -75l176 75v-73l-176 -75l-176 75v73zM315 -9q-264 0 -264 273q0 138 65.5 211.5t190.5 73.5q220 0 220 -243q0 -22 -1.5 -39.5t-5.5 -29.5h-378q6 -92 50 -132t136 -40q42 0 88 7t88 20l5 -69q-43 -15 -94.5 -23.5t-99.5 -8.5zM305 479q-151 0 -163 -178
h301q-3 96 -35 137t-103 41z" />
    <glyph glyph-name="Gcircumflex" unicode="&#x11c;" horiz-adv-x="698" 
d="M410 -9q-177 0 -266.5 95t-89.5 282q0 189 92 286t274 97q49 0 100 -6.5t102 -20.5v-79q-33 7 -60 12t-50 8t-44 4.5t-42 1.5q-142 0 -209.5 -74.5t-67.5 -227.5q0 -152 64 -225.5t197 -73.5q26 0 63 4t69 9v293h88v-348q-24 -8 -53 -15t-58.5 -12t-58 -7.5t-50.5 -2.5z
M196 886l176 75l176 -75v-74l-176 75l-176 -75v74z" />
    <glyph glyph-name="gcircumflex" unicode="&#x11d;" horiz-adv-x="643" 
d="M157 703l175 75l176 -75v-73l-175 75l-176 -75v73zM283 -219q-51 0 -104 6t-92 17l6 72q38 -10 84.5 -17t92.5 -7q44 0 82 9t65.5 31t43.5 59t16 93v40h-6q-59 -83 -181 -83q-116 0 -178 65t-62 204q0 72 20.5 124.5t57.5 87t88.5 51.5t114.5 17q49 0 108 -6.5t125 -24.5
v-469q0 -82 -23.5 -134t-62.5 -82t-90 -41.5t-105 -11.5zM311 73q33 0 62.5 8.5t51 25t34.5 39.5t13 53v269q-27 4 -64 8t-79 4q-92 0 -139 -47t-47 -158q0 -55 10 -93.5t30.5 -62.5t52 -35t75.5 -11z" />
    <glyph glyph-name="Gbreve" unicode="&#x11e;" horiz-adv-x="698" 
d="M376 815q-99 0 -145.5 41.5t-46.5 108.5h69q0 -45 30.5 -70t92.5 -25q63 0 93.5 25t30.5 70h68q0 -68 -47 -109t-145 -41zM410 -9q-177 0 -266.5 95t-89.5 282q0 189 92 286t274 97q49 0 100 -6.5t102 -20.5v-79q-33 7 -60 12t-50 8t-44 4.5t-42 1.5q-142 0 -209.5 -74.5
t-67.5 -227.5q0 -152 64 -225.5t197 -73.5q26 0 63 4t69 9v293h88v-348q-24 -8 -53 -15t-58.5 -12t-58 -7.5t-50.5 -2.5z" />
    <glyph glyph-name="gbreve" unicode="&#x11f;" horiz-adv-x="643" 
d="M283 -219q-51 0 -104 6t-92 17l6 72q38 -10 84.5 -17t92.5 -7q44 0 82 9t65.5 31t43.5 59t16 93v40h-6q-59 -83 -181 -83q-116 0 -178 65t-62 204q0 72 20.5 124.5t57.5 87t88.5 51.5t114.5 17q49 0 108 -6.5t125 -24.5v-469q0 -82 -23.5 -134t-62.5 -82t-90 -41.5
t-105 -11.5zM311 73q33 0 62.5 8.5t51 25t34.5 39.5t13 53v269q-27 4 -64 8t-79 4q-92 0 -139 -47t-47 -158q0 -55 10 -93.5t30.5 -62.5t52 -35t75.5 -11zM329 618q-52 0 -88.5 11t-60 31.5t-34.5 49.5t-11 65h68q0 -57 31.5 -81t94.5 -24q62 0 93.5 24t31.5 81h67
q0 -71 -44.5 -114t-147.5 -43z" />
    <glyph glyph-name="Gdotaccent" unicode="&#x120;" horiz-adv-x="698" 
d="M379 818q-30 0 -45 13.5t-15 44.5t15 44.5t45 13.5q29 0 44.5 -13.5t15.5 -44.5q0 -58 -60 -58zM410 -9q-177 0 -266.5 95t-89.5 282q0 189 92 286t274 97q49 0 100 -6.5t102 -20.5v-79q-33 7 -60 12t-50 8t-44 4.5t-42 1.5q-142 0 -209.5 -74.5t-67.5 -227.5
q0 -152 64 -225.5t197 -73.5q26 0 63 4t69 9v293h88v-348q-24 -8 -53 -15t-58.5 -12t-58 -7.5t-50.5 -2.5z" />
    <glyph glyph-name="gdotaccent" unicode="&#x121;" horiz-adv-x="643" 
d="M283 -219q-51 0 -104 6t-92 17l6 72q38 -10 84.5 -17t92.5 -7q44 0 82 9t65.5 31t43.5 59t16 93v40h-6q-59 -83 -181 -83q-116 0 -178 65t-62 204q0 72 20.5 124.5t57.5 87t88.5 51.5t114.5 17q49 0 108 -6.5t125 -24.5v-469q0 -82 -23.5 -134t-62.5 -82t-90 -41.5
t-105 -11.5zM311 73q33 0 62.5 8.5t51 25t34.5 39.5t13 53v269q-27 4 -64 8t-79 4q-92 0 -139 -47t-47 -158q0 -55 10 -93.5t30.5 -62.5t52 -35t75.5 -11zM330 650q-60 0 -60 59q0 58 60 58q59 0 59 -58q0 -59 -59 -59z" />
    <glyph glyph-name="Gcommaaccent" unicode="&#x122;" horiz-adv-x="698" 
d="M334 -70h96l-68 -150h-76zM410 -9q-177 0 -266.5 95t-89.5 282q0 189 92 286t274 97q49 0 100 -6.5t102 -20.5v-79q-33 7 -60 12t-50 8t-44 4.5t-42 1.5q-142 0 -209.5 -74.5t-67.5 -227.5q0 -152 64 -225.5t197 -73.5q26 0 63 4t69 9v293h88v-348q-24 -8 -53 -15
t-58.5 -12t-58 -7.5t-50.5 -2.5z" />
    <glyph glyph-name="gcommaaccent" unicode="&#x123;" horiz-adv-x="643" 
d="M452 790l-47 -150h-97l69 150h75zM283 -219q-51 0 -104 6t-92 17l6 72q38 -10 84.5 -17t92.5 -7q44 0 82 9t65.5 31t43.5 59t16 93v40h-6q-59 -83 -181 -83q-116 0 -178 65t-62 204q0 72 20.5 124.5t57.5 87t88.5 51.5t114.5 17q49 0 108 -6.5t125 -24.5v-469
q0 -82 -23.5 -134t-62.5 -82t-90 -41.5t-105 -11.5zM311 73q33 0 62.5 8.5t51 25t34.5 39.5t13 53v269q-27 4 -64 8t-79 4q-92 0 -139 -47t-47 -158q0 -55 10 -93.5t30.5 -62.5t52 -35t75.5 -11z" />
    <glyph glyph-name="Hcircumflex" unicode="&#x124;" horiz-adv-x="815" 
d="M94 740h93v-322h440v322h93v-740h-93v342h-440v-342h-93v740zM226 886l176 75l176 -75v-74l-176 75l-176 -75v74z" />
    <glyph glyph-name="hcircumflex" unicode="&#x125;" horiz-adv-x="646" 
d="M163 910l175 75l176 -75v-73l-175 75l-176 -75v73zM80 808h91v-332q43 19 78.5 33t64.5 23t54.5 13.5t49.5 4.5q72 0 112 -37.5t40 -112.5v-400h-92v367q0 58 -23 83t-71 25q-40 0 -95 -17t-118 -45v-413h-91v808z" />
    <glyph glyph-name="Hbar" unicode="&#x126;" horiz-adv-x="825" 
d="M9 600h90v140h93v-140h440v140h93v-140h91v-55h-91v-545h-93v342h-440v-342h-93v545h-90v55zM632 418v127h-440v-127h440z" />
    <glyph glyph-name="hbar" unicode="&#x127;" horiz-adv-x="646" 
d="M-19 704h99v104h91v-104h184v-60h-184v-168q43 19 78.5 33t64.5 23t54.5 13.5t49.5 4.5q72 0 112 -37.5t40 -112.5v-400h-92v367q0 58 -23 83t-71 25q-40 0 -95 -17t-118 -45v-413h-91v644h-99v60z" />
    <glyph glyph-name="Itilde" unicode="&#x128;" horiz-adv-x="282" 
d="M94 740h93v-740h-93v740zM-68 866q31 39 66 58t69 19q25 0 48 -6.5t44.5 -14t43.5 -14t46 -6.5q26 0 50 9t50 29l23 -29q-29 -38 -66.5 -57.5t-74.5 -19.5q-23 0 -45.5 6t-45 13.5t-44.5 14t-44 6.5q-24 0 -47 -8t-49 -28z" />
    <glyph glyph-name="itilde" unicode="&#x129;" horiz-adv-x="254" 
d="M-84 681q29 40 62.5 59t67.5 19q24 0 46 -6.5t43 -14t42 -14t44 -6.5q24 0 47.5 8.5t48.5 28.5l24 -28q-29 -38 -65 -58t-71 -20q-22 0 -44 6.5t-43.5 14t-43 14t-42.5 6.5q-23 0 -46 -8.5t-47 -28.5zM81 540h92v-540h-92v540z" />
    <glyph glyph-name="Imacron" unicode="&#x12a;" horiz-adv-x="282" 
d="M94 740h93v-740h-93v740zM-30 911h347v-69h-347v69z" />
    <glyph glyph-name="imacron" unicode="&#x12b;" horiz-adv-x="254" 
d="M81 540h92v-540h-92v540zM-42 718h348v-68h-348v68z" />
    <glyph glyph-name="Ibreve" unicode="&#x12c;" horiz-adv-x="282" 
d="M94 740h93v-740h-93v740zM140 815q-99 0 -145.5 41.5t-46.5 108.5h69q0 -45 30.5 -70t92.5 -25q63 0 93.5 25t30.5 70h68q0 -68 -47 -109t-145 -41z" />
    <glyph glyph-name="ibreve" unicode="&#x12d;" horiz-adv-x="254" 
d="M129 618q-91 0 -132 42.5t-41 114.5h57q0 -57 29 -81t87 -24t87 24t29 81h56q0 -71 -40.5 -114t-131.5 -43zM81 540h92v-540h-92v540z" />
    <glyph glyph-name="Iogonek" unicode="&#x12e;" horiz-adv-x="282" 
d="M94 740h93v-758q-66 -32 -95 -59.5t-29 -54.5q0 -32 45 -32q15 0 36.5 3t41.5 8v-55q-15 -6 -35.5 -9t-42.5 -3q-111 0 -111 83q0 38 25.5 69t87.5 68h-16v740z" />
    <glyph glyph-name="iogonek" unicode="&#x12f;" horiz-adv-x="254" 
d="M81 540h92v-558q-66 -32 -95 -59.5t-29 -54.5q0 -32 45 -32q15 0 36.5 3t41.5 8v-55q-15 -6 -35.5 -9t-42.5 -3q-111 0 -111 83q0 38 25.5 69t87.5 68h-15v540zM127 649q-56 0 -56 55q0 56 56 56q57 0 57 -56q0 -55 -57 -55z" />
    <glyph glyph-name="Idotaccent" unicode="&#x130;" horiz-adv-x="282" 
d="M94 740h93v-740h-93v740zM142 818q-30 0 -45 13.5t-15 44.5t15 44.5t45 13.5q29 0 44.5 -13.5t15.5 -44.5q0 -58 -60 -58z" />
    <glyph glyph-name="dotlessi" unicode="&#x131;" horiz-adv-x="254" 
d="M81 540h92v-540h-92v540z" />
    <glyph glyph-name="IJ" unicode="&#x132;" horiz-adv-x="562" 
d="M94 740h93v-740h-93v740zM300 -160q22 47 37 88t24 81.5t13 83.5t4 94v553h93v-559q0 -51 -5 -93.5t-17.5 -85.5t-33 -89t-50.5 -103z" />
    <glyph glyph-name="ij" unicode="&#x133;" horiz-adv-x="505" 
d="M127 649q-56 0 -56 55q0 56 56 56q57 0 57 -56q0 -55 -57 -55zM81 540h92v-540h-92v540zM377 649q-30 0 -43.5 13t-13.5 42t13.5 42.5t43.5 13.5q56 0 56 -56q0 -55 -56 -55zM268 -200q18 37 30.5 73.5t20.5 76t12 84.5t4 100v33v68v87v90.5t-0.5 78t-0.5 49.5h91v-454
q-3 -85 -25.5 -161t-64.5 -145z" />
    <glyph glyph-name="Jcircumflex" unicode="&#x134;" horiz-adv-x="281" 
d="M18 -160q22 47 37 88t24 81.5t13 83.5t4 94v553h93v-559q0 -51 -5 -93.5t-17.5 -85.5t-33 -89t-50.5 -103zM-31 886l176 75l176 -75v-74l-176 75l-176 -75v74z" />
    <glyph glyph-name="jcircumflex" unicode="&#x135;" horiz-adv-x="250" 
d="M-45 707l169 75l171 -75v-73l-170 75l-170 -75v73zM14 -200q18 37 30.5 73.5t20.5 76t12 84.5t4 100v33v68v87v90.5t-0.5 78t-0.5 49.5h91v-454q-3 -85 -25.5 -161t-64.5 -145z" />
    <glyph glyph-name="Kcommaaccent" unicode="&#x136;" horiz-adv-x="703" 
d="M314 -70h96l-68 -150h-76zM94 740h93v-325h161l226 325h106l-234 -329l-34 -25v-7l37 -25l248 -354h-106l-233 338h-171v-338h-93v740z" />
    <glyph glyph-name="kcommaaccent" unicode="&#x137;" horiz-adv-x="586" 
d="M276 -70h96l-68 -150h-76zM80 808h91v-499h103l191 231h105l-213 -253l-19 -8v-4l20 -9l228 -266h-104l-210 246h-101v-246h-91v808z" />
    <glyph glyph-name="kgreenlandic" unicode="&#x138;" horiz-adv-x="592" 
d="M80 540h92v-231h139l156 231h103l-178 -253l-19 -8v-4l20 -9l194 -266h-103l-175 246h-137v-246h-92v540z" />
    <glyph glyph-name="Lacute" unicode="&#x139;" horiz-adv-x="569" 
d="M103 812l74 141h96l-99 -148zM94 740h93v-665h368v-75h-461v740z" />
    <glyph glyph-name="lacute" unicode="&#x13a;" horiz-adv-x="257" 
d="M95 844l70 185h95l-99 -192zM82 808h92v-808h-92v808z" />
    <glyph glyph-name="Lcommaaccent" unicode="&#x13b;" horiz-adv-x="569" 
d="M275 -70h96l-68 -150h-76zM94 740h93v-665h368v-75h-461v740z" />
    <glyph glyph-name="lcommaaccent" unicode="&#x13c;" horiz-adv-x="257" 
d="M90 -70h96l-68 -150h-76zM82 808h92v-808h-92v808z" />
    <glyph glyph-name="Lcaron" unicode="&#x13d;" horiz-adv-x="571" 
d="M417 760h77l-30 -228h-47v228zM94 740h93v-665h368v-75h-461v740z" />
    <glyph glyph-name="lcaron" unicode="&#x13e;" horiz-adv-x="258" 
d="M247 808h77l-30 -228h-47v228zM82 808h92v-808h-92v808z" />
    <glyph glyph-name="Ldot" unicode="&#x13f;" horiz-adv-x="577" 
d="M94 740h93v-665h368v-75h-461v740zM472 322q-30 0 -45 13.5t-15 44.5q0 59 60 59q59 0 59 -59q0 -58 -59 -58z" />
    <glyph glyph-name="ldot" unicode="&#x140;" horiz-adv-x="328" 
d="M82 808h92v-808h-92v808zM292 312q-30 0 -45 13.5t-15 44.5q0 59 60 59q59 0 59 -59q0 -58 -59 -58z" />
    <glyph glyph-name="Lslash" unicode="&#x141;" horiz-adv-x="590" 
d="M16 301l99 56v383h93v-330l179 103v-76l-179 -103v-259h368v-75h-461v281l-99 -56v76z" />
    <glyph glyph-name="lslash" unicode="&#x142;" horiz-adv-x="330" 
d="M26 340l96 52v416h92v-366l99 54v-75l-99 -55v-366h-92v316l-96 -53v77z" />
    <glyph glyph-name="Nacute" unicode="&#x143;" horiz-adv-x="823" 
d="M360 812l74 141h96l-99 -148zM94 740h79l402 -514l63 -90h7v604h84v-740h-79l-404 515l-62 87h-6v-602h-84v740z" />
    <glyph glyph-name="nacute" unicode="&#x144;" horiz-adv-x="646" 
d="M297 616l70 185h95l-99 -192zM80 540h76l6 -64h6q45 20 81 34t65.5 23t55 13t49.5 4q72 0 111.5 -37.5t39.5 -112.5v-400h-92v367q0 58 -23 83t-71 25q-41 0 -95.5 -17t-116.5 -45v-413h-92v540z" />
    <glyph glyph-name="Ncommaaccent" unicode="&#x145;" horiz-adv-x="823" 
d="M376 -70h96l-68 -150h-76zM94 740h79l402 -514l63 -90h7v604h84v-740h-79l-404 515l-62 87h-6v-602h-84v740z" />
    <glyph glyph-name="ncommaaccent" unicode="&#x146;" horiz-adv-x="646" 
d="M284 -70h96l-68 -150h-76zM80 540h76l6 -64h6q45 20 81 34t65.5 23t55 13t49.5 4q72 0 111.5 -37.5t39.5 -112.5v-400h-92v367q0 58 -23 83t-71 25q-41 0 -95.5 -17t-116.5 -45v-413h-92v540z" />
    <glyph glyph-name="Ncaron" unicode="&#x147;" horiz-adv-x="823" 
d="M236 961l176 -75l176 75v-74l-177 -75l-175 75v74zM94 740h79l402 -514l63 -90h7v604h84v-740h-79l-404 515l-62 87h-6v-602h-84v740z" />
    <glyph glyph-name="ncaron" unicode="&#x148;" horiz-adv-x="646" 
d="M146 764l176 -75l176 75v-73l-176 -75l-176 75v73zM80 540h76l6 -64h6q45 20 81 34t65.5 23t55 13t49.5 4q72 0 111.5 -37.5t39.5 -112.5v-400h-92v367q0 58 -23 83t-71 25q-41 0 -95.5 -17t-116.5 -45v-413h-92v540z" />
    <glyph glyph-name="napostrophe" unicode="&#x149;" horiz-adv-x="725" 
d="M119 808v-4l-33 -224h-48v228h81zM159 540h76l6 -64h6q45 20 81 34t65.5 23t55 13t49.5 4q72 0 111.5 -37.5t39.5 -112.5v-400h-92v367q0 58 -23 83t-71 25q-41 0 -95.5 -17t-116.5 -45v-413h-92v540z" />
    <glyph glyph-name="Eng" unicode="&#x14a;" horiz-adv-x="822" 
d="M562 -173q28 51 46.5 103.5t23.5 93.5l-383 491l-64 87h-6v-602h-85v740h76l402 -514l65 -90h7v604h85v-648q0 -31 -7.5 -68.5t-21 -76t-32 -75t-39.5 -65.5z" />
    <glyph glyph-name="eng" unicode="&#x14b;" horiz-adv-x="645" 
d="M415 -204q29 65 46 142.5t17 167.5v244q0 64 -21 89t-72 25q-41 0 -94.5 -14t-118.5 -43v-407h-92v540h76l6 -63h4q45 20 81.5 34t66.5 22.5t55.5 12.5t49.5 4q73 0 112 -38t39 -112v-334q-2 -38 -8.5 -77.5t-18 -77t-26 -71.5t-30.5 -59z" />
    <glyph glyph-name="Omacron" unicode="&#x14c;" horiz-adv-x="792" 
d="M222 911h347v-69h-347v69zM396 -10q-164 0 -253 96.5t-89 282.5t89 283.5t253 97.5q163 0 252 -97.5t89 -283.5t-89 -282.5t-252 -96.5zM396 68q246 0 246 301q0 152 -62 227.5t-184 75.5q-247 0 -247 -303q0 -301 247 -301z" />
    <glyph glyph-name="omacron" unicode="&#x14d;" horiz-adv-x="629" 
d="M144 718h348v-68h-348v68zM315 -10q-129 0 -197.5 72t-68.5 208t68.5 208t197.5 72q128 0 196 -72t68 -208t-68 -208t-196 -72zM315 64q89 0 130 50t41 156t-41 155.5t-130 49.5t-130.5 -49.5t-41.5 -155.5t41.5 -156t130.5 -50z" />
    <glyph glyph-name="Obreve" unicode="&#x14e;" horiz-adv-x="792" 
d="M394 815q-99 0 -145.5 41.5t-46.5 108.5h69q0 -45 30.5 -70t92.5 -25q63 0 93.5 25t30.5 70h68q0 -68 -47 -109t-145 -41zM396 -10q-164 0 -253 96.5t-89 282.5t89 283.5t253 97.5q163 0 252 -97.5t89 -283.5t-89 -282.5t-252 -96.5zM396 68q246 0 246 301
q0 152 -62 227.5t-184 75.5q-247 0 -247 -303q0 -301 247 -301z" />
    <glyph glyph-name="obreve" unicode="&#x14f;" horiz-adv-x="629" 
d="M315 -10q-129 0 -197.5 72t-68.5 208t68.5 208t197.5 72q128 0 196 -72t68 -208t-68 -208t-196 -72zM315 64q89 0 130 50t41 156t-41 155.5t-130 49.5t-130.5 -49.5t-41.5 -155.5t41.5 -156t130.5 -50zM315 618q-52 0 -88.5 11t-60 31.5t-34.5 49.5t-11 65h68
q0 -57 31.5 -81t94.5 -24q62 0 93.5 24t31.5 81h67q0 -71 -44.5 -114t-147.5 -43z" />
    <glyph glyph-name="Ohungarumlaut" unicode="&#x150;" horiz-adv-x="792" 
d="M396 -10q-164 0 -253 96.5t-89 282.5t89 283.5t253 97.5q163 0 252 -97.5t89 -283.5t-89 -282.5t-252 -96.5zM396 68q246 0 246 301q0 152 -62 227.5t-184 75.5q-247 0 -247 -303q0 -301 247 -301zM268 811l73 135h95l-99 -148zM431 811l74 135h96l-99 -148z" />
    <glyph glyph-name="ohungarumlaut" unicode="&#x151;" horiz-adv-x="629" 
d="M182 626l70 182h98l-101 -192zM378 626l70 182h97l-101 -192zM315 -10q-129 0 -197.5 72t-68.5 208t68.5 208t197.5 72q128 0 196 -72t68 -208t-68 -208t-196 -72zM315 64q89 0 130 50t41 156t-41 155.5t-130 49.5t-130.5 -49.5t-41.5 -155.5t41.5 -156t130.5 -50z" />
    <glyph glyph-name="OE" unicode="&#x152;" horiz-adv-x="1050" 
d="M399 -10q-165 0 -255.5 96.5t-90.5 282.5t90.5 283.5t255.5 97.5q32 0 58.5 -2t52.5 -8h476v-76h-383v-250h359v-77h-359v-261h392v-76h-485q-26 -5 -53 -7.5t-58 -2.5zM399 68q32 0 59.5 2t51.5 9v582q-25 7 -51.5 9t-59.5 2q-125 0 -188 -75.5t-63 -227.5
q0 -151 63 -226t188 -75z" />
    <glyph glyph-name="oe" unicode="&#x153;" horiz-adv-x="1015" 
d="M753 -9q-84 0 -138.5 30t-80.5 87h-5q-27 -57 -81.5 -87.5t-132.5 -30.5q-129 0 -197.5 72t-68.5 208t68.5 208t197.5 72q79 0 134 -32t81 -90h6q26 58 79.5 89.5t132.5 31.5q106 0 161 -61t55 -178q0 -22 -1 -39t-5 -30h-379q4 -91 48 -133.5t135 -42.5q42 0 88 6.5
t91 20.5l5 -69q-43 -15 -95 -23.5t-98 -8.5zM315 64q89 0 130 50t41 156t-41 155.5t-130 49.5t-130.5 -49.5t-41.5 -155.5t41.5 -156t130.5 -50zM881 296q-3 99 -35 141t-102 42q-157 0 -166 -183h303z" />
    <glyph glyph-name="Racute" unicode="&#x154;" horiz-adv-x="705" 
d="M391 275q-22 -2 -45 -3t-48 -1q-22 0 -51.5 2t-59.5 5v-278h-93v735q102 15 195 15q188 0 273.5 -57t85.5 -182q0 -88 -41 -142t-128 -78l197 -291h-105zM310 348q66 0 112.5 8.5t75.5 28t42 50.5t13 76q0 43 -13.5 74t-43.5 50.5t-77 29t-113 9.5q-30 0 -63.5 -2.5
t-55.5 -5.5v-308q13 -4 48.5 -7t74.5 -3zM307 812l74 141h96l-99 -148z" />
    <glyph glyph-name="racute" unicode="&#x155;" horiz-adv-x="417" 
d="M203 616l70 185h95l-99 -192zM80 540h76l6 -77h4q69 35 117 58t90 28h31v-84h-30q-46 -5 -98 -23.5t-104 -44.5v-397h-92v540z" />
    <glyph glyph-name="Rcommaaccent" unicode="&#x156;" horiz-adv-x="705" 
d="M319 -70h96l-68 -150h-76zM391 275q-22 -2 -45 -3t-48 -1q-22 0 -51.5 2t-59.5 5v-278h-93v735q102 15 195 15q188 0 273.5 -57t85.5 -182q0 -88 -41 -142t-128 -78l197 -291h-105zM310 348q66 0 112.5 8.5t75.5 28t42 50.5t13 76q0 43 -13.5 74t-43.5 50.5t-77 29
t-113 9.5q-30 0 -63.5 -2.5t-55.5 -5.5v-308q13 -4 48.5 -7t74.5 -3z" />
    <glyph glyph-name="rcommaaccent" unicode="&#x157;" horiz-adv-x="417" 
d="M85 -70h96l-68 -150h-76zM80 540h76l6 -77h4q69 35 117 58t90 28h31v-84h-30q-46 -5 -98 -23.5t-104 -44.5v-397h-92v540z" />
    <glyph glyph-name="Rcaron" unicode="&#x158;" horiz-adv-x="705" 
d="M175 961l176 -75l176 75v-74l-177 -75l-175 75v74zM391 275q-22 -2 -45 -3t-48 -1q-22 0 -51.5 2t-59.5 5v-278h-93v735q102 15 195 15q188 0 273.5 -57t85.5 -182q0 -88 -41 -142t-128 -78l197 -291h-105zM310 348q66 0 112.5 8.5t75.5 28t42 50.5t13 76q0 43 -13.5 74
t-43.5 50.5t-77 29t-113 9.5q-30 0 -63.5 -2.5t-55.5 -5.5v-308q13 -4 48.5 -7t74.5 -3z" />
    <glyph glyph-name="rcaron" unicode="&#x159;" horiz-adv-x="417" 
d="M61 764l176 -75l176 75v-73l-176 -75l-176 75v73zM80 540h76l6 -77h4q69 35 117 58t90 28h31v-84h-30q-46 -5 -98 -23.5t-104 -44.5v-397h-92v540z" />
    <glyph glyph-name="Sacute" unicode="&#x15a;" horiz-adv-x="616" 
d="M294 -11q-52 0 -118.5 8t-129.5 22v79q69 -15 132.5 -23.5t111.5 -8.5q93 0 141 31.5t48 90.5q0 36 -14 60t-38.5 39.5t-57 25.5t-69.5 19q-65 15 -111 34.5t-75 45.5t-42 60.5t-13 79.5q0 46 19 84t54 64.5t84.5 41t111.5 14.5q44 0 94.5 -6t113.5 -20v-79
q-49 14 -102.5 21t-97.5 7q-84 0 -131.5 -34t-47.5 -91q0 -28 9 -49t29.5 -38t54.5 -30.5t84 -25.5q51 -12 95 -27.5t77 -39.5t51.5 -60t18.5 -89q0 -101 -72 -153.5t-210 -52.5zM268 812l74 141h96l-99 -148z" />
    <glyph glyph-name="sacute" unicode="&#x15b;" horiz-adv-x="504" 
d="M212 616l70 185h95l-99 -192zM246 -11q-38 0 -84 5.5t-114 18.5v74q56 -12 103.5 -19.5t90.5 -7.5q129 0 129 85q0 24 -9 40t-25.5 26t-39 16t-48.5 11q-33 6 -67.5 13.5t-62.5 24t-46 45.5t-18 77q0 73 56.5 114t156.5 41q18 0 34.5 -1t36 -3.5t44 -6.5t57.5 -10l-5 -76
q-54 11 -92 17.5t-70 6.5q-64 0 -96 -21t-32 -60q0 -24 10.5 -39t29 -24.5t43.5 -15.5t55 -11q37 -6 69.5 -16.5t56.5 -28.5t37.5 -45.5t13.5 -68.5q0 -77 -55.5 -119t-158.5 -42z" />
    <glyph glyph-name="Scircumflex" unicode="&#x15c;" horiz-adv-x="616" 
d="M294 -11q-52 0 -118.5 8t-129.5 22v79q69 -15 132.5 -23.5t111.5 -8.5q93 0 141 31.5t48 90.5q0 36 -14 60t-38.5 39.5t-57 25.5t-69.5 19q-65 15 -111 34.5t-75 45.5t-42 60.5t-13 79.5q0 46 19 84t54 64.5t84.5 41t111.5 14.5q44 0 94.5 -6t113.5 -20v-79
q-49 14 -102.5 21t-97.5 7q-84 0 -131.5 -34t-47.5 -91q0 -28 9 -49t29.5 -38t54.5 -30.5t84 -25.5q51 -12 95 -27.5t77 -39.5t51.5 -60t18.5 -89q0 -101 -72 -153.5t-210 -52.5zM140 886l176 75l176 -75v-74l-176 75l-176 -75v74z" />
    <glyph glyph-name="scircumflex" unicode="&#x15d;" horiz-adv-x="504" 
d="M74 703l175 75l176 -75v-73l-175 75l-176 -75v73zM246 -11q-38 0 -84 5.5t-114 18.5v74q56 -12 103.5 -19.5t90.5 -7.5q129 0 129 85q0 24 -9 40t-25.5 26t-39 16t-48.5 11q-33 6 -67.5 13.5t-62.5 24t-46 45.5t-18 77q0 73 56.5 114t156.5 41q18 0 34.5 -1t36 -3.5
t44 -6.5t57.5 -10l-5 -76q-54 11 -92 17.5t-70 6.5q-64 0 -96 -21t-32 -60q0 -24 10.5 -39t29 -24.5t43.5 -15.5t55 -11q37 -6 69.5 -16.5t56.5 -28.5t37.5 -45.5t13.5 -68.5q0 -77 -55.5 -119t-158.5 -42z" />
    <glyph glyph-name="uni015E" unicode="&#x15e;" horiz-adv-x="616" 
d="M272 -220q-20 0 -46 3.5t-49 8.5v62q31 -11 73 -11t59 13t17 45q0 20 -7 39.5t-26 48.5q-52 0 -118.5 8t-128.5 22v79q69 -15 132.5 -23.5t111.5 -8.5q93 0 141 31.5t48 90.5q0 36 -14 60t-38.5 39.5t-57 25.5t-69.5 19q-65 15 -111 34.5t-75 45.5t-42 60.5t-13 79.5
q0 46 19 84t54 64.5t84.5 41t111.5 14.5q44 0 94.5 -6t113.5 -20v-79q-49 14 -102.5 21t-97.5 7q-84 0 -131.5 -34t-47.5 -91q0 -28 9 -49t29.5 -38t54.5 -30.5t84 -25.5q51 -12 95 -27.5t77 -39.5t51.5 -60t18.5 -89q0 -89 -55.5 -140t-162.5 -62q22 -35 30 -56t8 -43
q0 -54 -32.5 -84t-91.5 -30z" />
    <glyph glyph-name="uni015F" unicode="&#x15f;" horiz-adv-x="504" 
d="M213 -220q-20 0 -46 3.5t-49 8.5v62q31 -11 73 -11t59 13t17 45q0 20 -7 39.5t-26 48.5q-36 1 -79.5 7t-106.5 17v74q56 -12 103.5 -19.5t90.5 -7.5q129 0 129 85q0 24 -9 40t-25.5 26t-39 16t-48.5 11q-33 6 -67.5 13.5t-62.5 24t-46 45.5t-18 77q0 73 56.5 114
t156.5 41q18 0 34.5 -1t36 -3.5t44 -6.5t57.5 -10l-5 -76q-54 11 -92 17.5t-70 6.5q-64 0 -96 -21t-32 -60q0 -24 10.5 -39t29 -24.5t43.5 -15.5t55 -11q37 -6 69.5 -16.5t56.5 -28.5t37.5 -45.5t13.5 -68.5q0 -66 -41.5 -106.5t-119.5 -50.5q22 -35 30 -56t8 -43
q0 -54 -32.5 -84t-91.5 -30z" />
    <glyph glyph-name="Scaron" unicode="&#x160;" horiz-adv-x="616" 
d="M294 -11q-52 0 -118.5 8t-129.5 22v79q69 -15 132.5 -23.5t111.5 -8.5q93 0 141 31.5t48 90.5q0 36 -14 60t-38.5 39.5t-57 25.5t-69.5 19q-65 15 -111 34.5t-75 45.5t-42 60.5t-13 79.5q0 46 19 84t54 64.5t84.5 41t111.5 14.5q44 0 94.5 -6t113.5 -20v-79
q-49 14 -102.5 21t-97.5 7q-84 0 -131.5 -34t-47.5 -91q0 -28 9 -49t29.5 -38t54.5 -30.5t84 -25.5q51 -12 95 -27.5t77 -39.5t51.5 -60t18.5 -89q0 -101 -72 -153.5t-210 -52.5zM138 961l176 -75l176 75v-74l-177 -75l-175 75v74z" />
    <glyph glyph-name="scaron" unicode="&#x161;" horiz-adv-x="504" 
d="M74 764l176 -75l176 75v-73l-176 -75l-176 75v73zM246 -11q-38 0 -84 5.5t-114 18.5v74q56 -12 103.5 -19.5t90.5 -7.5q129 0 129 85q0 24 -9 40t-25.5 26t-39 16t-48.5 11q-33 6 -67.5 13.5t-62.5 24t-46 45.5t-18 77q0 73 56.5 114t156.5 41q18 0 34.5 -1t36 -3.5
t44 -6.5t57.5 -10l-5 -76q-54 11 -92 17.5t-70 6.5q-64 0 -96 -21t-32 -60q0 -24 10.5 -39t29 -24.5t43.5 -15.5t55 -11q37 -6 69.5 -16.5t56.5 -28.5t37.5 -45.5t13.5 -68.5q0 -77 -55.5 -119t-158.5 -42z" />
    <glyph glyph-name="uni0162" unicode="&#x162;" horiz-adv-x="641" 
d="M273 664h-255v76h606v-76h-257v-664h-13q25 -39 34 -61t9 -45q0 -54 -32.5 -84t-91.5 -30q-20 0 -46 3.5t-49 8.5v62q31 -11 73 -11t59 13t17 45q0 22 -8.5 43.5t-31.5 55.5h-14v664z" />
    <glyph glyph-name="uni0163" unicode="&#x163;" horiz-adv-x="421" 
d="M199 -220q-20 0 -46 3.5t-49 8.5v62q31 -11 73 -11t59 13t17 45q0 23 -10 46t-36 61q-72 35 -72 138v314h-117v80h122l14 135l72 9v-144h169v-80h-168v-294q0 -52 23 -77t74 -25q36 0 78 13v-73q-51 -14 -106 -14h-10q22 -34 29.5 -54t7.5 -42q0 -54 -32.5 -84t-91.5 -30
z" />
    <glyph glyph-name="Tcaron" unicode="&#x164;" horiz-adv-x="641" 
d="M145 961l176 -75l176 75v-74l-177 -75l-175 75v74zM273 664h-255v76h606v-76h-257v-664h-94v664z" />
    <glyph glyph-name="tcaron" unicode="&#x165;" horiz-adv-x="413" 
d="M296 -10q-79 0 -120 39.5t-41 116.5v314h-117v80h122l14 135l72 9v-144h119v-80h-118v-294q0 -52 23 -77t74 -25q36 0 78 13v-73q-51 -14 -106 -14zM323 808h77l-30 -228h-47v228z" />
    <glyph glyph-name="Tbar" unicode="&#x166;" horiz-adv-x="652" 
d="M134 412h143v252h-255v76h606v-76h-257v-252h155v-62h-155v-350h-94v350h-143v62z" />
    <glyph glyph-name="tbar" unicode="&#x167;" horiz-adv-x="432" 
d="M29 339h115v121h-117v80h122l14 135l72 9v-144h169v-80h-168v-121h150v-60h-150v-113q0 -52 23 -77t74 -25q36 0 78 13v-73q-51 -14 -106 -14q-79 0 -120 39.5t-41 116.5v133h-115v60z" />
    <glyph glyph-name="Utilde" unicode="&#x168;" horiz-adv-x="797" 
d="M186 866q31 39 66 58t69 19q25 0 48 -6.5t44.5 -14t43.5 -14t46 -6.5q26 0 50 9t50 29l23 -29q-29 -38 -66.5 -57.5t-74.5 -19.5q-23 0 -45.5 6t-45 13.5t-44.5 14t-44 6.5q-24 0 -47 -8t-49 -28zM399 -10q-83 0 -142 18t-97 56t-56 97t-18 142v437h93v-436
q0 -64 14 -108.5t41.5 -73t69 -41.5t95.5 -13t95 13t68 41.5t41 73t14 108.5v436h94v-437q0 -83 -18 -142t-56 -97t-97 -56t-141 -18z" />
    <glyph glyph-name="utilde" unicode="&#x169;" horiz-adv-x="646" 
d="M217 -10q-70 0 -105.5 38.5t-35.5 111.5v400h92v-369q0 -55 20 -79.5t67 -24.5q27 0 55 6.5t56.5 16t56 21.5t51.5 23v406h92v-540h-76l-6 69h-4q-47 -21 -81 -35.5t-63 -24.5t-56.5 -14.5t-62.5 -4.5zM102 681q31 40 65.5 59t68.5 19q26 0 48.5 -6.5t44.5 -14t43.5 -14
t45.5 -6.5q26 0 50 8.5t50 28.5l24 -28q-30 -38 -67 -58t-74 -20q-23 0 -46 6.5t-45.5 14t-44.5 14t-44 6.5q-24 0 -47 -8.5t-48 -28.5z" />
    <glyph glyph-name="Umacron" unicode="&#x16a;" horiz-adv-x="797" 
d="M221 911h347v-69h-347v69zM399 -10q-83 0 -142 18t-97 56t-56 97t-18 142v437h93v-436q0 -64 14 -108.5t41.5 -73t69 -41.5t95.5 -13t95 13t68 41.5t41 73t14 108.5v436h94v-437q0 -83 -18 -142t-56 -97t-97 -56t-141 -18z" />
    <glyph glyph-name="umacron" unicode="&#x16b;" horiz-adv-x="646" 
d="M217 -10q-70 0 -105.5 38.5t-35.5 111.5v400h92v-369q0 -55 20 -79.5t67 -24.5q27 0 55 6.5t56.5 16t56 21.5t51.5 23v406h92v-540h-76l-6 69h-4q-47 -21 -81 -35.5t-63 -24.5t-56.5 -14.5t-62.5 -4.5zM146 718h348v-68h-348v68z" />
    <glyph glyph-name="Ubreve" unicode="&#x16c;" horiz-adv-x="797" 
d="M395 815q-99 0 -145.5 41.5t-46.5 108.5h69q0 -45 30.5 -70t92.5 -25q63 0 93.5 25t30.5 70h68q0 -68 -47 -109t-145 -41zM399 -10q-83 0 -142 18t-97 56t-56 97t-18 142v437h93v-436q0 -64 14 -108.5t41.5 -73t69 -41.5t95.5 -13t95 13t68 41.5t41 73t14 108.5v436h94
v-437q0 -83 -18 -142t-56 -97t-97 -56t-141 -18z" />
    <glyph glyph-name="ubreve" unicode="&#x16d;" horiz-adv-x="646" 
d="M217 -10q-70 0 -105.5 38.5t-35.5 111.5v400h92v-369q0 -55 20 -79.5t67 -24.5q27 0 55 6.5t56.5 16t56 21.5t51.5 23v406h92v-540h-76l-6 69h-4q-47 -21 -81 -35.5t-63 -24.5t-56.5 -14.5t-62.5 -4.5zM316 618q-52 0 -88.5 11t-60 31.5t-34.5 49.5t-11 65h68
q0 -57 31.5 -81t94.5 -24q62 0 93.5 24t31.5 81h67q0 -71 -44.5 -114t-147.5 -43z" />
    <glyph glyph-name="Uring" unicode="&#x16e;" horiz-adv-x="797" 
d="M399 -10q-83 0 -142 18t-97 56t-56 97t-18 142v437h93v-436q0 -64 14 -108.5t41.5 -73t69 -41.5t95.5 -13t95 13t68 41.5t41 73t14 108.5v436h94v-437q0 -83 -18 -142t-56 -97t-97 -56t-141 -18zM397 798q-27 0 -50.5 8t-41 22.5t-27 34.5t-9.5 44t9.5 44.5t27 35t41 23
t50.5 8.5t50 -8.5t40.5 -23t27 -35t9.5 -44.5t-9.5 -44t-27 -34.5t-40.5 -22.5t-50 -8zM397 843q77 0 77 64q0 32 -19.5 49t-57.5 17t-58 -17t-20 -49q0 -64 78 -64z" />
    <glyph glyph-name="uring" unicode="&#x16f;" horiz-adv-x="646" 
d="M321 598q-27 0 -51 8t-41 22.5t-27 34.5t-10 44t10 44.5t27 35t41 23t51 8.5t50 -8.5t40.5 -23t27 -35t9.5 -44.5t-9.5 -44t-27 -34.5t-40.5 -22.5t-50 -8zM321 643q76 0 76 64q0 32 -19 49t-57 17t-58 -17t-20 -49q0 -64 78 -64zM217 -10q-70 0 -105.5 38.5t-35.5 111.5
v400h92v-369q0 -55 20 -79.5t67 -24.5q27 0 55 6.5t56.5 16t56 21.5t51.5 23v406h92v-540h-76l-6 69h-4q-47 -21 -81 -35.5t-63 -24.5t-56.5 -14.5t-62.5 -4.5z" />
    <glyph glyph-name="Uhungarumlaut" unicode="&#x170;" horiz-adv-x="797" 
d="M399 -10q-83 0 -142 18t-97 56t-56 97t-18 142v437h93v-436q0 -64 14 -108.5t41.5 -73t69 -41.5t95.5 -13t95 13t68 41.5t41 73t14 108.5v436h94v-437q0 -83 -18 -142t-56 -97t-97 -56t-141 -18zM274 811l73 135h95l-99 -148zM437 811l74 135h96l-99 -148z" />
    <glyph glyph-name="uhungarumlaut" unicode="&#x171;" horiz-adv-x="646" 
d="M217 -10q-70 0 -105.5 38.5t-35.5 111.5v400h92v-369q0 -55 20 -79.5t67 -24.5q27 0 55 6.5t56.5 16t56 21.5t51.5 23v406h92v-540h-76l-6 69h-4q-47 -21 -81 -35.5t-63 -24.5t-56.5 -14.5t-62.5 -4.5zM181 626l70 182h98l-101 -192zM377 626l70 182h97l-101 -192z" />
    <glyph glyph-name="Uogonek" unicode="&#x172;" horiz-adv-x="797" 
d="M392 -208q-111 0 -111 83q0 32 18 59.5t62 56.5q-73 4 -125 24t-85.5 58t-49 95t-15.5 135v437h93v-436q0 -64 14 -108.5t41.5 -73t69 -41.5t95.5 -13t95 13t68 41.5t41 73t14 108.5v436h94v-437q0 -146 -57 -220.5t-183 -88.5q-66 -32 -95 -59.5t-29 -54.5q0 -32 45 -32
q15 0 36.5 3t41.5 8v-55q-15 -6 -35.5 -9t-42.5 -3z" />
    <glyph glyph-name="uogonek" unicode="&#x173;" horiz-adv-x="646" 
d="M217 -10q-70 0 -105.5 38.5t-35.5 111.5v400h92v-369q0 -55 20 -79.5t67 -24.5q27 0 55 6.5t56.5 16t56 21.5t51.5 23v406h92v-558q-66 -32 -95 -59.5t-29 -54.5q0 -32 45 -32q15 0 36.5 3t41.5 8v-55q-15 -6 -35.5 -9t-42.5 -3q-111 0 -111 83q0 38 26 69t88 68l-6 69
h-4q-47 -21 -81 -35.5t-63 -24.5t-56.5 -14.5t-62.5 -4.5z" />
    <glyph glyph-name="Wcircumflex" unicode="&#x174;" horiz-adv-x="1063" 
d="M21 740h97l137 -501l37 -146h7l39 146l145 501h97l144 -501l41 -146h7l37 146l136 501h98l-210 -740h-127l-139 478l-32 140h-6l-32 -141l-139 -477h-128zM356 886l176 75l176 -75v-74l-176 75l-176 -75v74z" />
    <glyph glyph-name="wcircumflex" unicode="&#x175;" horiz-adv-x="836" 
d="M241 703l175 75l176 -75v-73l-175 75l-176 -75v73zM24 533v7h90l104 -372l19 -81h6l20 81l110 372h87l116 -372l21 -81h7l18 81l97 372h90v-7l-153 -533h-104l-113 358l-18 77h-7l-18 -77l-108 -358h-104z" />
    <glyph glyph-name="Ycircumflex" unicode="&#x176;" horiz-adv-x="664" 
d="M286 247l-282 493h100l191 -338l32 -69h10l32 69l190 338h100l-280 -491v-249h-93v247zM155 886l176 75l176 -75v-74l-176 75l-176 -75v74z" />
    <glyph glyph-name="ycircumflex" unicode="&#x177;" horiz-adv-x="598" 
d="M164 -206l-1 11l89 201l-234 522v12h99l151 -358l28 -82h6l28 82l157 358h96v-12l-337 -748zM123 703l175 75l176 -75v-73l-175 75l-176 -75v73z" />
    <glyph glyph-name="Ydieresis" unicode="&#x178;" horiz-adv-x="664" 
d="M286 247l-282 493h100l191 -338l32 -69h10l32 69l190 338h100l-280 -491v-249h-93v247zM190 822q-59 0 -59 59q0 30 15 43.5t44 13.5t44 -13.5t15 -43.5q0 -59 -59 -59zM472 822q-59 0 -59 59q0 30 15 43.5t44 13.5t44.5 -13.5t15.5 -43.5q0 -59 -60 -59z" />
    <glyph glyph-name="Zacute" unicode="&#x179;" horiz-adv-x="622" 
d="M35 67l422 589v5h-408v79h525v-64l-421 -592v-5h433v-79h-551v67zM280 812l74 141h96l-99 -148z" />
    <glyph glyph-name="zacute" unicode="&#x17a;" horiz-adv-x="524" 
d="M231 616l70 185h95l-99 -192zM40 62l314 397v6h-304v75h425v-57l-311 -400v-7h321v-75h-445v61z" />
    <glyph glyph-name="Zdotaccent" unicode="&#x17b;" horiz-adv-x="622" 
d="M316 818q-30 0 -45 13.5t-15 44.5t15 44.5t45 13.5q29 0 44.5 -13.5t15.5 -44.5q0 -58 -60 -58zM35 67l422 589v5h-408v79h525v-64l-421 -592v-5h433v-79h-551v67z" />
    <glyph glyph-name="zdotaccent" unicode="&#x17c;" horiz-adv-x="524" 
d="M40 62l314 397v6h-304v75h425v-57l-311 -400v-7h321v-75h-445v61zM256 650q-60 0 -60 59q0 58 60 58q59 0 59 -58q0 -59 -59 -59z" />
    <glyph glyph-name="Zcaron" unicode="&#x17d;" horiz-adv-x="622" 
d="M139 961l176 -75l176 75v-74l-177 -75l-175 75v74zM35 67l422 589v5h-408v79h525v-64l-421 -592v-5h433v-79h-551v67z" />
    <glyph glyph-name="zcaron" unicode="&#x17e;" horiz-adv-x="524" 
d="M85 764l176 -75l176 75v-73l-176 -75l-176 75v73zM40 62l314 397v6h-304v75h425v-57l-311 -400v-7h321v-75h-445v61z" />
    <glyph glyph-name="Schwa" unicode="&#x18f;" horiz-adv-x="728" 
d="M49 329q0 46 6 87h526q-3 67 -18.5 115t-44.5 78t-73.5 44t-105.5 14q-53 0 -117 -8.5t-140 -28.5l-5 78q25 9 58.5 17t69.5 13.5t72.5 8.5t66.5 3q328 0 328 -367q0 -94 -21 -167t-61.5 -123.5t-100 -76.5t-137.5 -26q-143 0 -223 87t-80 252zM351 67q114 0 169.5 67
t60.5 212h-443q-7 -133 45 -206t168 -73z" />
    <glyph glyph-name="florin" unicode="&#x192;" horiz-adv-x="442" 
d="M161 460h-130v80h131v23q0 74 12 121.5t42.5 75.5t83 40t132.5 14l5 -67q-57 -4 -92.5 -11.5t-55.5 -24t-28 -46t-9 -76.5v-49h158v-80h-158v-639l-91 -41v680z" />
    <glyph glyph-name="uni01C4" unicode="&#x1c4;" horiz-adv-x="1399" 
d="M915 961l176 -75l176 75v-74l-177 -75l-175 75v74zM812 67l422 589v5h-408v79h525v-64l-421 -592v-5h433v-79h-551v67zM302 -9q-34 0 -66 1t-59.5 3t-49 5t-33.5 7v732q26 2 57 3.5t61.5 3t58.5 2.5t48 1q208 0 305.5 -91.5t97.5 -287.5q0 -99 -24.5 -170.5t-75.5 -118
t-130.5 -68.5t-189.5 -22zM331 68q155 0 225.5 72t70.5 230q0 157 -71 228.5t-227 71.5q-28 0 -68 -2t-74 -5v-584q41 -6 72.5 -8.5t71.5 -2.5z" />
    <glyph glyph-name="uni01C5" unicode="&#x1c5;" horiz-adv-x="1301" 
d="M861 764l176 -75l176 75v-73l-176 -75l-176 75v73zM817 62l314 397v6h-304v75h425v-57l-311 -400v-7h321v-75h-445v61zM302 -9q-34 0 -66 1t-59.5 3t-49 5t-33.5 7v732q26 2 57 3.5t61.5 3t58.5 2.5t48 1q208 0 305.5 -91.5t97.5 -287.5q0 -99 -24.5 -170.5t-75.5 -118
t-130.5 -68.5t-189.5 -22zM331 68q155 0 225.5 72t70.5 230q0 157 -71 228.5t-227 71.5q-28 0 -68 -2t-74 -5v-584q41 -6 72.5 -8.5t71.5 -2.5z" />
    <glyph glyph-name="uni01C6" unicode="&#x1c6;" horiz-adv-x="1169" 
d="M728 764l176 -75l176 75v-73l-176 -75l-176 75v73zM683 62l314 397v6h-304v75h425v-57l-311 -400v-7h321v-75h-445v61zM290 -10q-117 0 -178.5 66.5t-61.5 209.5q0 73 20.5 126.5t57.5 88.5t88.5 52t114.5 17q41 0 77 -4t64 -6v268h91v-808h-79l-8 70h-7
q-59 -80 -179 -80zM311 63q32 0 61.5 8.5t51.5 24.5t35 38.5t13 51.5v282q-27 4 -64 8t-79 4q-92 0 -139 -48t-47 -162q0 -56 10 -95.5t30.5 -64.5t52 -36t75.5 -11z" />
    <glyph glyph-name="uni01C7" unicode="&#x1c7;" horiz-adv-x="850" 
d="M587 -160q22 47 37 88t24 81.5t13 83.5t4 94v553h93v-559q0 -51 -5 -93.5t-17.5 -85.5t-33 -89t-50.5 -103zM94 740h93v-665h368v-75h-461v740z" />
    <glyph glyph-name="uni01C8" unicode="&#x1c8;" horiz-adv-x="820" 
d="M692 649q-30 0 -43.5 13t-13.5 42t13.5 42.5t43.5 13.5q56 0 56 -56q0 -55 -56 -55zM583 -200q18 37 30.5 73.5t20.5 76t12 84.5t4 100v33v68v87v90.5t-0.5 78t-0.5 49.5h91v-454q-3 -85 -25.5 -161t-64.5 -145zM94 740h93v-665h368v-75h-461v740z" />
    <glyph glyph-name="uni01C9" unicode="&#x1c9;" horiz-adv-x="508" 
d="M380 649q-30 0 -43.5 13t-13.5 42t13.5 42.5t43.5 13.5q56 0 56 -56q0 -55 -56 -55zM271 -200q18 37 30.5 73.5t20.5 76t12 84.5t4 100v33v68v87v90.5t-0.5 78t-0.5 49.5h91v-454q-3 -85 -25.5 -161t-64.5 -145zM82 808h92v-808h-92v808z" />
    <glyph glyph-name="uni01CA" unicode="&#x1ca;" horiz-adv-x="1104" 
d="M841 -160q22 47 37 88t24 81.5t13 83.5t4 94v553h93v-559q0 -51 -5 -93.5t-17.5 -85.5t-33 -89t-50.5 -103zM94 740h79l402 -514l63 -90h7v604h84v-740h-79l-404 515l-62 87h-6v-602h-84v740z" />
    <glyph glyph-name="uni01CB" unicode="&#x1cb;" horiz-adv-x="1074" 
d="M946 649q-30 0 -43.5 13t-13.5 42t13.5 42.5t43.5 13.5q56 0 56 -56q0 -55 -56 -55zM837 -200q18 37 30.5 73.5t20.5 76t12 84.5t4 100v33v68v87v90.5t-0.5 78t-0.5 49.5h91v-454q-3 -85 -25.5 -161t-64.5 -145zM94 740h79l402 -514l63 -90h7v604h84v-740h-79l-404 515
l-62 87h-6v-602h-84v740z" />
    <glyph glyph-name="uni01CC" unicode="&#x1cc;" horiz-adv-x="898" 
d="M769 649q-30 0 -43.5 13t-13.5 42t13.5 42.5t43.5 13.5q56 0 56 -56q0 -55 -56 -55zM660 -200q18 37 30.5 73.5t20.5 76t12 84.5t4 100v33v68v87v90.5t-0.5 78t-0.5 49.5h91v-454q-3 -85 -25.5 -161t-64.5 -145zM80 540h76l6 -64h6q45 20 81 34t65.5 23t55 13t49.5 4
q72 0 111.5 -37.5t39.5 -112.5v-400h-92v367q0 58 -23 83t-71 25q-41 0 -95.5 -17t-116.5 -45v-413h-92v540z" />
    <glyph glyph-name="Oogonek" unicode="&#x1ea;" horiz-adv-x="792" 
d="M388 -206q-111 0 -111 83q0 32 18 59t60 56q-145 11 -223 107t-78 270q0 186 89 283.5t253 97.5q163 0 252 -97.5t89 -283.5q0 -165 -71 -259.5t-202 -114.5q-64 -32 -92.5 -59t-28.5 -54q0 -32 45 -32q15 0 36.5 3t41.5 8v-55q-15 -6 -35.5 -9t-42.5 -3zM396 68
q246 0 246 301q0 152 -62 227.5t-184 75.5q-247 0 -247 -303q0 -301 247 -301z" />
    <glyph glyph-name="oogonek" unicode="&#x1eb;" horiz-adv-x="629" 
d="M309 -205q-111 0 -111 83q0 32 17.5 58.5t59.5 55.5q-110 11 -168 82t-58 196q0 136 68.5 208t197.5 72q128 0 196 -72t68 -208q0 -115 -49 -184.5t-143 -88.5q-65 -32 -94 -59.5t-29 -54.5q0 -32 45 -32q15 0 36.5 3t41.5 8v-55q-15 -6 -35.5 -9t-42.5 -3zM315 64
q89 0 130 50t41 156t-41 155.5t-130 49.5t-130.5 -49.5t-41.5 -155.5t41.5 -156t130.5 -50z" />
    <glyph glyph-name="uni01F1" unicode="&#x1f1;" horiz-adv-x="1383" 
d="M796 67l422 589v5h-408v79h525v-64l-421 -592v-5h433v-79h-551v67zM302 -9q-34 0 -66 1t-59.5 3t-49 5t-33.5 7v732q26 2 57 3.5t61.5 3t58.5 2.5t48 1q208 0 305.5 -91.5t97.5 -287.5q0 -99 -24.5 -170.5t-75.5 -118t-130.5 -68.5t-189.5 -22zM331 68q155 0 225.5 72
t70.5 230q0 157 -71 228.5t-227 71.5q-28 0 -68 -2t-74 -5v-584q41 -6 72.5 -8.5t71.5 -2.5z" />
    <glyph glyph-name="uni01F2" unicode="&#x1f2;" horiz-adv-x="1298" 
d="M813 62l314 397v6h-304v75h425v-57l-311 -400v-7h321v-75h-445v61zM302 -9q-34 0 -66 1t-59.5 3t-49 5t-33.5 7v732q26 2 57 3.5t61.5 3t58.5 2.5t48 1q208 0 305.5 -91.5t97.5 -287.5q0 -99 -24.5 -170.5t-75.5 -118t-130.5 -68.5t-189.5 -22zM331 68q155 0 225.5 72
t70.5 230q0 157 -71 228.5t-227 71.5q-28 0 -68 -2t-74 -5v-584q41 -6 72.5 -8.5t71.5 -2.5z" />
    <glyph glyph-name="uni01F3" unicode="&#x1f3;" horiz-adv-x="1169" 
d="M683 62l314 397v6h-304v75h425v-57l-311 -400v-7h321v-75h-445v61zM290 -10q-117 0 -178.5 66.5t-61.5 209.5q0 73 20.5 126.5t57.5 88.5t88.5 52t114.5 17q41 0 77 -4t64 -6v268h91v-808h-79l-8 70h-7q-59 -80 -179 -80zM311 63q32 0 61.5 8.5t51.5 24.5t35 38.5
t13 51.5v282q-27 4 -64 8t-79 4q-92 0 -139 -48t-47 -162q0 -56 10 -95.5t30.5 -64.5t52 -36t75.5 -11z" />
    <glyph glyph-name="Gacute" unicode="&#x1f4;" horiz-adv-x="698" 
d="M329 812l74 141h96l-99 -148zM410 -9q-177 0 -266.5 95t-89.5 282q0 189 92 286t274 97q49 0 100 -6.5t102 -20.5v-79q-33 7 -60 12t-50 8t-44 4.5t-42 1.5q-142 0 -209.5 -74.5t-67.5 -227.5q0 -152 64 -225.5t197 -73.5q26 0 63 4t69 9v293h88v-348q-24 -8 -53 -15
t-58.5 -12t-58 -7.5t-50.5 -2.5z" />
    <glyph glyph-name="gacute" unicode="&#x1f5;" horiz-adv-x="643" 
d="M299 616l70 185h95l-99 -192zM283 -219q-51 0 -104 6t-92 17l6 72q38 -10 84.5 -17t92.5 -7q44 0 82 9t65.5 31t43.5 59t16 93v40h-6q-59 -83 -181 -83q-116 0 -178 65t-62 204q0 72 20.5 124.5t57.5 87t88.5 51.5t114.5 17q49 0 108 -6.5t125 -24.5v-469
q0 -82 -23.5 -134t-62.5 -82t-90 -41.5t-105 -11.5zM311 73q33 0 62.5 8.5t51 25t34.5 39.5t13 53v269q-27 4 -64 8t-79 4q-92 0 -139 -47t-47 -158q0 -55 10 -93.5t30.5 -62.5t52 -35t75.5 -11z" />
    <glyph glyph-name="Aringacute" unicode="&#x1fa;" horiz-adv-x="724" 
d="M8 7l254 661q-23 14 -36.5 36.5t-13.5 51.5q0 47 32.5 79t85.5 40l61 106h96l-74 -111q44 -11 70.5 -41.5t26.5 -72.5q0 -28 -13 -51t-35 -38l254 -660v-7h-92l-84 217h-355l-85 -217h-92v7zM362 689q38 0 61.5 18t23.5 49q0 32 -23.5 50t-61.5 18q-39 0 -62 -18t-23 -50
q0 -31 23 -49t62 -18zM512 297l-93 243l-35 91h-44l-36 -91l-93 -243h301z" />
    <glyph glyph-name="aringacute" unicode="&#x1fb;" horiz-adv-x="561" 
d="M192 -5q-149 0 -149 142q0 79 50 120t161 50l140 11v33q0 36 -6.5 59.5t-22.5 37.5t-44 20t-71 6q-37 0 -77 -4t-91 -14l-7 70q57 11 102.5 15t93.5 4q110 0 162.5 -43.5t52.5 -135.5v-366h-75l-10 69h-6q-108 -74 -203 -74zM281 598q-27 0 -51 8t-41 22.5t-27 34.5
t-10 44q0 46 34 76.5t85 33.5l60 159h95l-88 -170q32 -13 51 -39t19 -60q0 -24 -9.5 -44t-27 -34.5t-40.5 -22.5t-50 -8zM226 65q38 0 80.5 15.5t87.5 45.5v135l-112 -10q-41 -4 -69 -11t-45 -19.5t-24.5 -31t-7.5 -44.5q0 -42 21.5 -61t68.5 -19zM281 643q76 0 76 64
q0 32 -19 49t-57 17t-58 -17t-20 -49q0 -64 78 -64z" />
    <glyph glyph-name="AEacute" unicode="&#x1fc;" horiz-adv-x="931" 
d="M501 812l74 141h96l-99 -148zM6 8l321 732h543v-76h-347l13 -251h308v-77h-304l13 -260h329v-76h-423l-9 217h-258l-96 -217h-90v8zM227 297h220l-15 372h-40z" />
    <glyph glyph-name="aeacute" unicode="&#x1fd;" horiz-adv-x="924" 
d="M436 616l70 185h95l-99 -192zM662 -11q-77 0 -130.5 24.5t-83.5 72.5l-5 1q-83 -51 -142 -71.5t-109 -20.5q-148 0 -148 142q0 78 50 118.5t160 49.5l141 11v41q0 33 -7 55.5t-24 36t-44.5 19.5t-68.5 6q-38 0 -77.5 -4t-90.5 -14l-8 70q57 11 102.5 15t93.5 4
q149 0 184 -95h6q29 47 78 72t118 25q106 0 161.5 -61t55.5 -178q0 -47 -6 -69h-380q4 -91 48.5 -133.5t135.5 -42.5q43 0 89 7t90 21l5 -70q-44 -15 -96 -23.5t-98 -8.5zM790 294q-2 99 -33.5 141.5t-102.5 42.5q-157 0 -166 -184h302zM227 64q37 0 80 15t88 45v139
l-113 -10q-41 -4 -68.5 -11.5t-44.5 -20t-24.5 -31.5t-7.5 -45q0 -42 21.5 -61.5t68.5 -19.5z" />
    <glyph glyph-name="Oslashacute" unicode="&#x1fe;" horiz-adv-x="792" 
d="M130 103q-37 48 -56.5 114t-19.5 152q0 186 89 283.5t253 97.5q135 0 221 -69l49 59h78l-85 -101q78 -98 78 -270q0 -186 -88.5 -282.5t-252.5 -96.5q-139 0 -223 69l-50 -59h-79zM396 68q247 0 247 301q0 125 -44 199l-371 -443q61 -57 168 -57zM149 369q0 -121 41 -195
l371 441q-60 57 -165 57q-122 0 -184.5 -75.5t-62.5 -227.5zM352 812l74 141h96l-99 -148z" />
    <glyph glyph-name="oslashacute" unicode="&#x1ff;" horiz-adv-x="635" 
d="M104 83q-51 70 -51 187q0 133 66.5 206.5t198.5 73.5q107 0 173 -51l39 41h80l-78 -84q51 -71 51 -186q0 -134 -67 -207t-198 -73q-108 0 -174 51l-38 -41h-80zM318 64q94 0 133 51.5t39 154.5q0 76 -20 120l-271 -290q42 -36 119 -36zM146 270q0 -76 19 -121l271 290
q-41 36 -118 36q-94 0 -133 -51t-39 -154zM290 616l70 185h95l-99 -192z" />
    <glyph glyph-name="Adblgrave" unicode="&#x200;" horiz-adv-x="723" 
d="M7 7l283 733h143l283 -733v-7h-93l-84 217h-355l-84 -217h-93v7zM512 297l-94 243l-52 136h-9l-51 -136l-95 -243h301zM241 798l-99 148h96l73 -135zM406 798l-100 148h95l74 -135z" />
    <glyph glyph-name="adblgrave" unicode="&#x201;" horiz-adv-x="561" 
d="M192 -5q-149 0 -149 142q0 79 50 120t161 50l140 11v33q0 36 -6.5 59.5t-22.5 37.5t-44 20t-71 6q-37 0 -77 -4t-91 -14l-7 70q57 11 102.5 15t93.5 4q110 0 162.5 -43.5t52.5 -135.5v-366h-75l-10 69h-6q-108 -74 -203 -74zM226 65q38 0 80.5 15.5t87.5 45.5v135
l-112 -10q-41 -4 -69 -11t-45 -19.5t-24.5 -31t-7.5 -44.5q0 -42 21.5 -61t68.5 -19zM158 616l-102 192h98l70 -182zM354 616l-102 192h98l70 -182z" />
    <glyph glyph-name="Ainvertedbreve" unicode="&#x202;" horiz-adv-x="723" 
d="M7 7l283 733h143l283 -733v-7h-93l-84 217h-355l-84 -217h-93v7zM512 297l-94 243l-52 136h-9l-51 -136l-95 -243h301zM486 818q0 45 -30.5 70t-93.5 25q-62 0 -93 -25t-31 -70h-68q0 67 46.5 108.5t145.5 41.5q98 0 145 -41t47 -109h-68z" />
    <glyph glyph-name="ainvertedbreve" unicode="&#x203;" horiz-adv-x="561" 
d="M192 -5q-149 0 -149 142q0 79 50 120t161 50l140 11v33q0 36 -6.5 59.5t-22.5 37.5t-44 20t-71 6q-37 0 -77 -4t-91 -14l-7 70q57 11 102.5 15t93.5 4q110 0 162.5 -43.5t52.5 -135.5v-366h-75l-10 69h-6q-108 -74 -203 -74zM226 65q38 0 80.5 15.5t87.5 45.5v135
l-112 -10q-41 -4 -69 -11t-45 -19.5t-24.5 -31t-7.5 -44.5q0 -42 21.5 -61t68.5 -19zM89 628q0 36 11 65t34.5 49.5t60 31.5t88.5 11q103 0 148 -43t45 -114h-68q0 57 -31 81t-94 24t-94 -24t-31 -81h-69z" />
    <glyph glyph-name="Edblgrave" unicode="&#x204;" horiz-adv-x="654" 
d="M94 740h497v-76h-404v-250h381v-77h-381v-261h413v-76h-506v740zM226 798l-99 148h96l73 -135zM391 798l-100 148h95l74 -135z" />
    <glyph glyph-name="edblgrave" unicode="&#x205;" horiz-adv-x="577" 
d="M168 616l-102 192h98l70 -182zM364 616l-102 192h98l70 -182zM315 -9q-264 0 -264 273q0 138 65.5 211.5t190.5 73.5q220 0 220 -243q0 -22 -1.5 -39.5t-5.5 -29.5h-378q6 -92 50 -132t136 -40q42 0 88 7t88 20l5 -69q-43 -15 -94.5 -23.5t-99.5 -8.5zM305 479
q-151 0 -163 -178h301q-3 96 -35 137t-103 41z" />
    <glyph glyph-name="Einvertedbreve" unicode="&#x206;" horiz-adv-x="654" 
d="M94 740h497v-76h-404v-250h381v-77h-381v-261h413v-76h-506v740zM469 818q0 45 -30.5 70t-93.5 25q-62 0 -93 -25t-31 -70h-68q0 67 46.5 108.5t145.5 41.5q98 0 145 -41t47 -109h-68z" />
    <glyph glyph-name="einvertedbreve" unicode="&#x207;" horiz-adv-x="577" 
d="M107 628q0 36 11 65t34.5 49.5t60 31.5t88.5 11q103 0 148 -43t45 -114h-68q0 57 -31 81t-94 24t-94 -24t-31 -81h-69zM315 -9q-264 0 -264 273q0 138 65.5 211.5t190.5 73.5q220 0 220 -243q0 -22 -1.5 -39.5t-5.5 -29.5h-378q6 -92 50 -132t136 -40q42 0 88 7t88 20
l5 -69q-43 -15 -94.5 -23.5t-99.5 -8.5zM305 479q-151 0 -163 -178h301q-3 96 -35 137t-103 41z" />
    <glyph glyph-name="Idblgrave" unicode="&#x208;" horiz-adv-x="282" 
d="M94 740h93v-740h-93v740zM30 798l-99 148h96l73 -135zM195 798l-100 148h95l74 -135z" />
    <glyph glyph-name="idblgrave" unicode="&#x209;" horiz-adv-x="254" 
d="M-4 616l-102 192h98l70 -182zM192 616l-102 192h98l70 -182zM81 540h92v-540h-92v540z" />
    <glyph glyph-name="Iinvertedbreve" unicode="&#x20a;" horiz-adv-x="282" 
d="M94 740h93v-740h-93v740zM266 818q0 45 -30.5 70t-93.5 25q-62 0 -93 -25t-31 -70h-68q0 67 46.5 108.5t145.5 41.5q98 0 145 -41t47 -109h-68z" />
    <glyph glyph-name="iinvertedbreve" unicode="&#x20b;" horiz-adv-x="254" 
d="M-44 628q0 72 41 114.5t132 42.5t132 -43t41 -114h-57q0 57 -29 81t-87 24t-87 -24t-29 -81h-57zM81 540h92v-540h-92v540z" />
    <glyph glyph-name="Odblgrave" unicode="&#x20c;" horiz-adv-x="792" 
d="M396 -10q-164 0 -253 96.5t-89 282.5t89 283.5t253 97.5q163 0 252 -97.5t89 -283.5t-89 -282.5t-252 -96.5zM396 68q246 0 246 301q0 152 -62 227.5t-184 75.5q-247 0 -247 -303q0 -301 247 -301zM277 798l-99 148h96l73 -135zM442 798l-100 148h95l74 -135z" />
    <glyph glyph-name="odblgrave" unicode="&#x20d;" horiz-adv-x="629" 
d="M180 616l-102 192h98l70 -182zM376 616l-102 192h98l70 -182zM315 -10q-129 0 -197.5 72t-68.5 208t68.5 208t197.5 72q128 0 196 -72t68 -208t-68 -208t-196 -72zM315 64q89 0 130 50t41 156t-41 155.5t-130 49.5t-130.5 -49.5t-41.5 -155.5t41.5 -156t130.5 -50z" />
    <glyph glyph-name="Oinvertedbreve" unicode="&#x20e;" horiz-adv-x="792" 
d="M396 -10q-164 0 -253 96.5t-89 282.5t89 283.5t253 97.5q163 0 252 -97.5t89 -283.5t-89 -282.5t-252 -96.5zM396 68q246 0 246 301q0 152 -62 227.5t-184 75.5q-247 0 -247 -303q0 -301 247 -301zM518 818q0 45 -30.5 70t-93.5 25q-62 0 -93 -25t-31 -70h-68
q0 67 46.5 108.5t145.5 41.5q98 0 145 -41t47 -109h-68z" />
    <glyph glyph-name="oinvertedbreve" unicode="&#x20f;" horiz-adv-x="629" 
d="M121 628q0 36 11 65t34.5 49.5t60 31.5t88.5 11q103 0 148 -43t45 -114h-68q0 57 -31 81t-94 24t-94 -24t-31 -81h-69zM315 -10q-129 0 -197.5 72t-68.5 208t68.5 208t197.5 72q128 0 196 -72t68 -208t-68 -208t-196 -72zM315 64q89 0 130 50t41 156t-41 155.5t-130 49.5
t-130.5 -49.5t-41.5 -155.5t41.5 -156t130.5 -50z" />
    <glyph glyph-name="Rdblgrave" unicode="&#x210;" horiz-adv-x="705" 
d="M391 275q-22 -2 -45 -3t-48 -1q-22 0 -51.5 2t-59.5 5v-278h-93v735q102 15 195 15q188 0 273.5 -57t85.5 -182q0 -88 -41 -142t-128 -78l197 -291h-105zM310 348q66 0 112.5 8.5t75.5 28t42 50.5t13 76q0 43 -13.5 74t-43.5 50.5t-77 29t-113 9.5q-30 0 -63.5 -2.5
t-55.5 -5.5v-308q13 -4 48.5 -7t74.5 -3zM236 798l-99 148h96l73 -135zM401 798l-100 148h95l74 -135z" />
    <glyph glyph-name="rdblgrave" unicode="&#x211;" horiz-adv-x="417" 
d="M107 616l-102 192h98l70 -182zM303 616l-102 192h98l70 -182zM80 540h76l6 -77h4q69 35 117 58t90 28h31v-84h-30q-46 -5 -98 -23.5t-104 -44.5v-397h-92v540z" />
    <glyph glyph-name="Rinvertedbreve" unicode="&#x212;" horiz-adv-x="705" 
d="M391 275q-22 -2 -45 -3t-48 -1q-22 0 -51.5 2t-59.5 5v-278h-93v735q102 15 195 15q188 0 273.5 -57t85.5 -182q0 -88 -41 -142t-128 -78l197 -291h-105zM310 348q66 0 112.5 8.5t75.5 28t42 50.5t13 76q0 43 -13.5 74t-43.5 50.5t-77 29t-113 9.5q-30 0 -63.5 -2.5
t-55.5 -5.5v-308q13 -4 48.5 -7t74.5 -3zM475 818q0 45 -30.5 70t-93.5 25q-62 0 -93 -25t-31 -70h-68q0 67 46.5 108.5t145.5 41.5q98 0 145 -41t47 -109h-68z" />
    <glyph glyph-name="rinvertedbreve" unicode="&#x213;" horiz-adv-x="417" 
d="M44 628q0 36 11 65t34.5 49.5t60 31.5t88.5 11q103 0 148 -43t45 -114h-68q0 57 -31 81t-94 24t-94 -24t-31 -81h-69zM80 540h76l6 -77h4q69 35 117 58t90 28h31v-84h-30q-46 -5 -98 -23.5t-104 -44.5v-397h-92v540z" />
    <glyph glyph-name="Udblgrave" unicode="&#x214;" horiz-adv-x="797" 
d="M399 -10q-83 0 -142 18t-97 56t-56 97t-18 142v437h93v-436q0 -64 14 -108.5t41.5 -73t69 -41.5t95.5 -13t95 13t68 41.5t41 73t14 108.5v436h94v-437q0 -83 -18 -142t-56 -97t-97 -56t-141 -18zM278 798l-99 148h96l73 -135zM443 798l-100 148h95l74 -135z" />
    <glyph glyph-name="udblgrave" unicode="&#x215;" horiz-adv-x="646" 
d="M190 616l-102 192h98l70 -182zM386 616l-102 192h98l70 -182zM217 -10q-70 0 -105.5 38.5t-35.5 111.5v400h92v-369q0 -55 20 -79.5t67 -24.5q27 0 55 6.5t56.5 16t56 21.5t51.5 23v406h92v-540h-76l-6 69h-4q-47 -21 -81 -35.5t-63 -24.5t-56.5 -14.5t-62.5 -4.5z" />
    <glyph glyph-name="Uinvertedbreve" unicode="&#x216;" horiz-adv-x="797" 
d="M399 -10q-83 0 -142 18t-97 56t-56 97t-18 142v437h93v-436q0 -64 14 -108.5t41.5 -73t69 -41.5t95.5 -13t95 13t68 41.5t41 73t14 108.5v436h94v-437q0 -83 -18 -142t-56 -97t-97 -56t-141 -18zM517 818q0 45 -30.5 70t-93.5 25q-62 0 -93 -25t-31 -70h-68
q0 67 46.5 108.5t145.5 41.5q98 0 145 -41t47 -109h-68z" />
    <glyph glyph-name="uinvertedbreve" unicode="&#x217;" horiz-adv-x="646" 
d="M124 628q0 36 11 65t34.5 49.5t60 31.5t88.5 11q103 0 148 -43t45 -114h-68q0 57 -31 81t-94 24t-94 -24t-31 -81h-69zM217 -10q-70 0 -105.5 38.5t-35.5 111.5v400h92v-369q0 -55 20 -79.5t67 -24.5q27 0 55 6.5t56.5 16t56 21.5t51.5 23v406h92v-540h-76l-6 69h-4
q-47 -21 -81 -35.5t-63 -24.5t-56.5 -14.5t-62.5 -4.5z" />
    <glyph glyph-name="uni0218" unicode="&#x218;" horiz-adv-x="616" 
d="M255 -70h96l-68 -150h-76zM294 -11q-52 0 -118.5 8t-129.5 22v79q69 -15 132.5 -23.5t111.5 -8.5q93 0 141 31.5t48 90.5q0 36 -14 60t-38.5 39.5t-57 25.5t-69.5 19q-65 15 -111 34.5t-75 45.5t-42 60.5t-13 79.5q0 46 19 84t54 64.5t84.5 41t111.5 14.5q44 0 94.5 -6
t113.5 -20v-79q-49 14 -102.5 21t-97.5 7q-84 0 -131.5 -34t-47.5 -91q0 -28 9 -49t29.5 -38t54.5 -30.5t84 -25.5q51 -12 95 -27.5t77 -39.5t51.5 -60t18.5 -89q0 -101 -72 -153.5t-210 -52.5z" />
    <glyph glyph-name="uni0219" unicode="&#x219;" horiz-adv-x="504" 
d="M215 -70h96l-68 -150h-76zM246 -11q-38 0 -84 5.5t-114 18.5v74q56 -12 103.5 -19.5t90.5 -7.5q129 0 129 85q0 24 -9 40t-25.5 26t-39 16t-48.5 11q-33 6 -67.5 13.5t-62.5 24t-46 45.5t-18 77q0 73 56.5 114t156.5 41q18 0 34.5 -1t36 -3.5t44 -6.5t57.5 -10l-5 -76
q-54 11 -92 17.5t-70 6.5q-64 0 -96 -21t-32 -60q0 -24 10.5 -39t29 -24.5t43.5 -15.5t55 -11q37 -6 69.5 -16.5t56.5 -28.5t37.5 -45.5t13.5 -68.5q0 -77 -55.5 -119t-158.5 -42z" />
    <glyph glyph-name="uni021A" unicode="&#x21a;" horiz-adv-x="641" 
d="M272 -70h96l-68 -150h-76zM273 664h-255v76h606v-76h-257v-664h-94v664z" />
    <glyph glyph-name="uni021B" unicode="&#x21b;" horiz-adv-x="421" 
d="M232 -70h96l-68 -150h-76zM296 -10q-79 0 -120 39.5t-41 116.5v314h-117v80h122l14 135l72 9v-144h169v-80h-168v-294q0 -52 23 -77t74 -25q36 0 78 13v-73q-51 -14 -106 -14z" />
    <glyph glyph-name="dotlessj" unicode="&#x237;" horiz-adv-x="251" 
d="M14 -200q18 37 30.5 73.5t20.5 76t12 84.5t4 100v33v68v87v90.5t-0.5 78t-0.5 49.5h91v-454q-3 -85 -25.5 -161t-64.5 -145z" />
    <glyph glyph-name="schwa" unicode="&#x259;" horiz-adv-x="575" 
d="M260 549q131 0 197.5 -68.5t66.5 -202.5q0 -141 -65.5 -214t-193.5 -73q-111 0 -163.5 62t-52.5 187q0 23 1.5 37.5t3.5 26.5h380q-5 90 -48 130t-135 40q-41 0 -83 -6t-96 -20l-5 69q43 14 95 23t98 9zM269 63q81 0 120.5 44t44.5 135h-302q3 -97 34 -138t103 -41z" />
    <glyph glyph-name="apostrophe" unicode="&#x2bc;" horiz-adv-x="227" 
d="M158 808v-4l-33 -224h-48v228h81z" />
    <glyph glyph-name="circumflex" unicode="&#x2c6;" horiz-adv-x="486" 
d="M65 703l175 75l176 -75v-73l-175 75l-176 -75v73z" />
    <glyph glyph-name="caron" unicode="&#x2c7;" horiz-adv-x="450" 
d="M48 764l176 -75l176 75v-73l-176 -75l-176 75v73z" />
    <glyph glyph-name="uni02C9" unicode="&#x2c9;" horiz-adv-x="490" 
d="M71 718h348v-68h-348v68z" />
    <glyph glyph-name="breve" unicode="&#x2d8;" horiz-adv-x="508" 
d="M253 618q-52 0 -88.5 11t-60 31.5t-34.5 49.5t-11 65h68q0 -57 31.5 -81t94.5 -24q62 0 93.5 24t31.5 81h67q0 -71 -44.5 -114t-147.5 -43z" />
    <glyph glyph-name="dotaccent" unicode="&#x2d9;" horiz-adv-x="262" 
d="M125 650q-60 0 -60 59q0 58 60 58q59 0 59 -58q0 -59 -59 -59z" />
    <glyph glyph-name="ring" unicode="&#x2da;" horiz-adv-x="366" 
d="M182 598q-27 0 -51 8t-41 22.5t-27 34.5t-10 44t10 44.5t27 35t41 23t51 8.5t50 -8.5t40.5 -23t27 -35t9.5 -44.5t-9.5 -44t-27 -34.5t-40.5 -22.5t-50 -8zM182 643q76 0 76 64q0 32 -19 49t-57 17t-58 -17t-20 -49q0 -64 78 -64z" />
    <glyph glyph-name="ogonek" unicode="&#x2db;" horiz-adv-x="313" 
d="M171 -220q-111 0 -111 83q0 38 25.5 69t87.5 68h77v-18q-66 -32 -95 -59.5t-29 -54.5q0 -32 45 -32q15 0 36.5 3t41.5 8v-55q-15 -6 -35.5 -9t-42.5 -3z" />
    <glyph glyph-name="tilde" unicode="&#x2dc;" horiz-adv-x="533" 
d="M41 681q31 40 65.5 59t68.5 19q26 0 48.5 -6.5t44.5 -14t43.5 -14t45.5 -6.5q26 0 50 8.5t50 28.5l24 -28q-30 -38 -67 -58t-74 -20q-23 0 -46 6.5t-45.5 14t-44.5 14t-44 6.5q-24 0 -47 -8.5t-48 -28.5z" />
    <glyph glyph-name="hungarumlaut" unicode="&#x2dd;" horiz-adv-x="452" 
d="M51 626l70 182h98l-101 -192zM247 626l70 182h97l-101 -192z" />
    <glyph glyph-name="uni030F" unicode="&#x30f;" horiz-adv-x="461" 
d="M139 616l-102 192h98l70 -182zM335 616l-102 192h98l70 -182z" />
    <glyph glyph-name="uni0311" unicode="&#x311;" horiz-adv-x="509" 
d="M55 628q0 36 11 65t34.5 49.5t60 31.5t88.5 11q103 0 148 -43t45 -114h-68q0 57 -31 81t-94 24t-94 -24t-31 -81h-69v0z" />
    <glyph glyph-name="uni0394" unicode="&#x394;" horiz-adv-x="751" 
d="M320 740h111l316 -740h-743zM626 75l-250 586l-252 -586h502z" />
    <glyph glyph-name="uni03A9" unicode="&#x3a9;" horiz-adv-x="801" 
d="M51 71l204 -3q-93 57 -143 145t-50 197q0 77 24 139.5t68.5 107t106.5 69t139 24.5q76 0 138.5 -24.5t107 -69t68.5 -107t24 -139.5q0 -109 -50.5 -197t-142.5 -145l204 3v-71h-290v62q97 60 144 143.5t47 195.5q0 61 -17.5 111.5t-50 85.5t-79 54.5t-103.5 19.5
t-103 -19.5t-78.5 -54.5t-50 -85.5t-17.5 -111.5q0 -79 22 -137t53 -98.5t63 -65.5t53 -38v-62h-291v71z" />
    <glyph glyph-name="uni03BC" unicode="&#x3bc;" horiz-adv-x="650" 
d="M80 540h91v-381q0 -51 21.5 -74t63.5 -23q53 0 106 19.5t116 45.5v413h92v-540h-76l-7 69h-4q-46 -21 -79.5 -36t-63 -24.5t-57.5 -14t-63 -4.5q-28 0 -49 6v-216h-91v760z" />
    <glyph glyph-name="pi" unicode="&#x3c0;" horiz-adv-x="813" 
d="M218 465h-31q-48 0 -73.5 -17t-36.5 -58l-64 23q27 127 169 127h570l35 -28v-47h-158v-318q0 -36 20 -56.5t55 -20.5q5 0 15 1t15 3v-74q-8 -2 -25.5 -3.5t-28.5 -1.5q-69 0 -106 35t-37 101v334h-228v-572h-91v572z" />
    <glyph glyph-name="Ddotbelow" unicode="&#x1e0c;" horiz-adv-x="777" 
d="M371 -185q-26 0 -39.5 12t-13.5 40q0 53 53 53q54 0 54 -53q0 -28 -13.5 -40t-40.5 -12zM302 -9q-34 0 -66 1t-59.5 3t-49 5t-33.5 7v732q26 2 57 3.5t61.5 3t58.5 2.5t48 1q208 0 305.5 -91.5t97.5 -287.5q0 -99 -24.5 -170.5t-75.5 -118t-130.5 -68.5t-189.5 -22z
M331 68q155 0 225.5 72t70.5 230q0 157 -71 228.5t-227 71.5q-28 0 -68 -2t-74 -5v-584q41 -6 72.5 -8.5t71.5 -2.5z" />
    <glyph glyph-name="ddotbelow" unicode="&#x1e0d;" horiz-adv-x="643" 
d="M317 -185q-26 0 -39.5 12t-13.5 40q0 53 53 53q54 0 54 -53q0 -28 -13.5 -40t-40.5 -12zM290 -10q-117 0 -178.5 66.5t-61.5 209.5q0 73 20.5 126.5t57.5 88.5t88.5 52t114.5 17q41 0 77 -4t64 -6v268h91v-808h-79l-8 70h-7q-59 -80 -179 -80zM311 63q32 0 61.5 8.5
t51.5 24.5t35 38.5t13 51.5v282q-27 4 -64 8t-79 4q-92 0 -139 -48t-47 -162q0 -56 10 -95.5t30.5 -64.5t52 -36t75.5 -11z" />
    <glyph glyph-name="Hdotbelow" unicode="&#x1e24;" horiz-adv-x="815" 
d="M94 740h93v-322h440v322h93v-740h-93v342h-440v-342h-93v740zM415 -185q-26 0 -39.5 12t-13.5 40q0 53 53 53q54 0 54 -53q0 -28 -13.5 -40t-40.5 -12z" />
    <glyph glyph-name="hdotbelow" unicode="&#x1e25;" horiz-adv-x="646" 
d="M80 808h91v-332q43 19 78.5 33t64.5 23t54.5 13.5t49.5 4.5q72 0 112 -37.5t40 -112.5v-400h-92v367q0 58 -23 83t-71 25q-40 0 -95 -17t-118 -45v-413h-91v808zM325 -185q-26 0 -39.5 12t-13.5 40q0 53 53 53q54 0 54 -53q0 -28 -13.5 -40t-40.5 -12z" />
    <glyph glyph-name="Ndotaccent" unicode="&#x1e44;" horiz-adv-x="823" 
d="M412 818q-30 0 -45 13.5t-15 44.5t15 44.5t45 13.5q29 0 44.5 -13.5t15.5 -44.5q0 -58 -60 -58zM94 740h79l402 -514l63 -90h7v604h84v-740h-79l-404 515l-62 87h-6v-602h-84v740z" />
    <glyph glyph-name="ndotaccent" unicode="&#x1e45;" horiz-adv-x="646" 
d="M328 650q-60 0 -60 59q0 58 60 58q59 0 59 -58q0 -59 -59 -59zM80 540h76l6 -64h6q45 20 81 34t65.5 23t55 13t49.5 4q72 0 111.5 -37.5t39.5 -112.5v-400h-92v367q0 58 -23 83t-71 25q-41 0 -95.5 -17t-116.5 -45v-413h-92v540z" />
    <glyph glyph-name="Rdotbelow" unicode="&#x1e5a;" horiz-adv-x="705" 
d="M391 275q-22 -2 -45 -3t-48 -1q-22 0 -51.5 2t-59.5 5v-278h-93v735q102 15 195 15q188 0 273.5 -57t85.5 -182q0 -88 -41 -142t-128 -78l197 -291h-105zM310 348q66 0 112.5 8.5t75.5 28t42 50.5t13 76q0 43 -13.5 74t-43.5 50.5t-77 29t-113 9.5q-30 0 -63.5 -2.5
t-55.5 -5.5v-308q13 -4 48.5 -7t74.5 -3zM350 -185q-26 0 -39.5 12t-13.5 40q0 53 53 53q54 0 54 -53q0 -28 -13.5 -40t-40.5 -12z" />
    <glyph glyph-name="rdotbelow" unicode="&#x1e5b;" horiz-adv-x="417" 
d="M80 540h76l6 -77h4q69 35 117 58t90 28h31v-84h-30q-46 -5 -98 -23.5t-104 -44.5v-397h-92v540zM125 -185q-26 0 -39.5 12t-13.5 40q0 53 53 53q54 0 54 -53q0 -28 -13.5 -40t-40.5 -12z" />
    <glyph glyph-name="Sdotbelow" unicode="&#x1e62;" horiz-adv-x="616" 
d="M294 -11q-52 0 -118.5 8t-129.5 22v79q69 -15 132.5 -23.5t111.5 -8.5q93 0 141 31.5t48 90.5q0 36 -14 60t-38.5 39.5t-57 25.5t-69.5 19q-65 15 -111 34.5t-75 45.5t-42 60.5t-13 79.5q0 46 19 84t54 64.5t84.5 41t111.5 14.5q44 0 94.5 -6t113.5 -20v-79
q-49 14 -102.5 21t-97.5 7q-84 0 -131.5 -34t-47.5 -91q0 -28 9 -49t29.5 -38t54.5 -30.5t84 -25.5q51 -12 95 -27.5t77 -39.5t51.5 -60t18.5 -89q0 -101 -72 -153.5t-210 -52.5zM296 -185q-26 0 -39.5 12t-13.5 40q0 53 53 53q54 0 54 -53q0 -28 -13.5 -40t-40.5 -12z" />
    <glyph glyph-name="sdotbelow" unicode="&#x1e63;" horiz-adv-x="504" 
d="M246 -11q-38 0 -84 5.5t-114 18.5v74q56 -12 103.5 -19.5t90.5 -7.5q129 0 129 85q0 24 -9 40t-25.5 26t-39 16t-48.5 11q-33 6 -67.5 13.5t-62.5 24t-46 45.5t-18 77q0 73 56.5 114t156.5 41q18 0 34.5 -1t36 -3.5t44 -6.5t57.5 -10l-5 -76q-54 11 -92 17.5t-70 6.5
q-64 0 -96 -21t-32 -60q0 -24 10.5 -39t29 -24.5t43.5 -15.5t55 -11q37 -6 69.5 -16.5t56.5 -28.5t37.5 -45.5t13.5 -68.5q0 -77 -55.5 -119t-158.5 -42zM262 -185q-26 0 -39.5 12t-13.5 40q0 53 53 53q54 0 54 -53q0 -28 -13.5 -40t-40.5 -12z" />
    <glyph glyph-name="Tdotbelow" unicode="&#x1e6c;" horiz-adv-x="641" 
d="M321 -185q-26 0 -39.5 12t-13.5 40q0 53 53 53q54 0 54 -53q0 -28 -13.5 -40t-40.5 -12zM273 664h-255v76h606v-76h-257v-664h-94v664z" />
    <glyph glyph-name="tdotbelow" unicode="&#x1e6d;" horiz-adv-x="421" 
d="M272 -185q-26 0 -39.5 12t-13.5 40q0 53 53 53q54 0 54 -53q0 -28 -13.5 -40t-40.5 -12zM296 -10q-79 0 -120 39.5t-41 116.5v314h-117v80h122l14 135l72 9v-144h169v-80h-168v-294q0 -52 23 -77t74 -25q36 0 78 13v-73q-51 -14 -106 -14z" />
    <glyph glyph-name="Wgrave" unicode="&#x1e80;" horiz-adv-x="1063" 
d="M493 805l-99 148h96l75 -135zM21 740h97l137 -501l37 -146h7l39 146l145 501h97l144 -501l41 -146h7l37 146l136 501h98l-210 -740h-127l-139 478l-32 140h-6l-32 -141l-139 -477h-128z" />
    <glyph glyph-name="wgrave" unicode="&#x1e81;" horiz-adv-x="836" 
d="M24 533v7h90l104 -372l19 -81h6l20 81l110 372h87l116 -372l21 -81h7l18 81l97 372h90v-7l-153 -533h-104l-113 358l-18 77h-7l-18 -77l-108 -358h-104zM374 616l-101 192h101l70 -182z" />
    <glyph glyph-name="Wacute" unicode="&#x1e82;" horiz-adv-x="1063" 
d="M490 812l74 141h96l-99 -148zM21 740h97l137 -501l37 -146h7l39 146l145 501h97l144 -501l41 -146h7l37 146l136 501h98l-210 -740h-127l-139 478l-32 140h-6l-32 -141l-139 -477h-128z" />
    <glyph glyph-name="wacute" unicode="&#x1e83;" horiz-adv-x="836" 
d="M390 616l70 185h95l-99 -192zM24 533v7h90l104 -372l19 -81h6l20 81l110 372h87l116 -372l21 -81h7l18 81l97 372h90v-7l-153 -533h-104l-113 358l-18 77h-7l-18 -77l-108 -358h-104z" />
    <glyph glyph-name="Wdieresis" unicode="&#x1e84;" horiz-adv-x="1063" 
d="M390 822q-59 0 -59 59q0 30 15 43.5t44 13.5t44 -13.5t15 -43.5q0 -59 -59 -59zM672 822q-59 0 -59 59q0 30 15 43.5t44 13.5t44.5 -13.5t15.5 -43.5q0 -59 -60 -59zM21 740h97l137 -501l37 -146h7l39 146l145 501h97l144 -501l41 -146h7l37 146l136 501h98l-210 -740
h-127l-139 478l-32 140h-6l-32 -141l-139 -477h-128z" />
    <glyph glyph-name="wdieresis" unicode="&#x1e85;" horiz-adv-x="836" 
d="M289 655q-54 0 -54 54q0 52 54 52t54 -52q0 -54 -54 -54zM546 655q-54 0 -54 54q0 52 54 52q53 0 53 -52q0 -54 -53 -54zM24 533v7h90l104 -372l19 -81h6l20 81l110 372h87l116 -372l21 -81h7l18 81l97 372h90v-7l-153 -533h-104l-113 358l-18 77h-7l-18 -77l-108 -358
h-104z" />
    <glyph glyph-name="Zdotbelow" unicode="&#x1e92;" horiz-adv-x="622" 
d="M35 67l422 589v5h-408v79h525v-64l-421 -592v-5h433v-79h-551v67zM305 -185q-26 0 -39.5 12t-13.5 40q0 53 53 53q54 0 54 -53q0 -28 -13.5 -40t-40.5 -12z" />
    <glyph glyph-name="zdotbelow" unicode="&#x1e93;" horiz-adv-x="524" 
d="M40 62l314 397v6h-304v75h425v-57l-311 -400v-7h321v-75h-445v61zM257 -185q-26 0 -39.5 12t-13.5 40q0 53 53 53q54 0 54 -53q0 -28 -13.5 -40t-40.5 -12z" />
    <glyph glyph-name="Edotbelow" unicode="&#x1eb8;" horiz-adv-x="654" 
d="M94 740h497v-76h-404v-250h381v-77h-381v-261h413v-76h-506v740zM364 -185q-26 0 -39.5 12t-13.5 40q0 53 53 53q54 0 54 -53q0 -28 -13.5 -40t-40.5 -12z" />
    <glyph glyph-name="edotbelow" unicode="&#x1eb9;" horiz-adv-x="577" 
d="M315 -9q-264 0 -264 273q0 138 65.5 211.5t190.5 73.5q220 0 220 -243q0 -22 -1.5 -39.5t-5.5 -29.5h-378q6 -92 50 -132t136 -40q42 0 88 7t88 20l5 -69q-43 -15 -94.5 -23.5t-99.5 -8.5zM305 479q-151 0 -163 -178h301q-3 96 -35 137t-103 41zM315 -185q-26 0 -39.5 12
t-13.5 40q0 53 53 53q54 0 54 -53q0 -28 -13.5 -40t-40.5 -12z" />
    <glyph glyph-name="Etilde" unicode="&#x1ebc;" horiz-adv-x="654" 
d="M135 866q31 39 66 58t69 19q25 0 48 -6.5t44.5 -14t43.5 -14t46 -6.5q26 0 50 9t50 29l23 -29q-29 -38 -66.5 -57.5t-74.5 -19.5q-23 0 -45.5 6t-45 13.5t-44.5 14t-44 6.5q-24 0 -47 -8t-49 -28zM94 740h497v-76h-404v-250h381v-77h-381v-261h413v-76h-506v740z" />
    <glyph glyph-name="etilde" unicode="&#x1ebd;" horiz-adv-x="577" 
d="M315 -9q-264 0 -264 273q0 138 65.5 211.5t190.5 73.5q220 0 220 -243q0 -22 -1.5 -39.5t-5.5 -29.5h-378q6 -92 50 -132t136 -40q42 0 88 7t88 20l5 -69q-43 -15 -94.5 -23.5t-99.5 -8.5zM305 479q-151 0 -163 -178h301q-3 96 -35 137t-103 41zM82 681q31 40 65.5 59
t68.5 19q26 0 48.5 -6.5t44.5 -14t43.5 -14t45.5 -6.5q26 0 50 8.5t50 28.5l24 -28q-30 -38 -67 -58t-74 -20q-23 0 -46 6.5t-45.5 14t-44.5 14t-44 6.5q-24 0 -47 -8.5t-48 -28.5z" />
    <glyph glyph-name="Idotbelow" unicode="&#x1eca;" horiz-adv-x="282" 
d="M94 740h93v-740h-93v740zM141 -185q-26 0 -39.5 12t-13.5 40q0 53 53 53q54 0 54 -53q0 -28 -13.5 -40t-40.5 -12z" />
    <glyph glyph-name="idotbelow" unicode="&#x1ecb;" horiz-adv-x="254" 
d="M127 649q-56 0 -56 55q0 56 56 56q57 0 57 -56q0 -55 -57 -55zM81 540h92v-540h-92v540zM127 -185q-26 0 -39.5 12t-13.5 40q0 53 53 53q54 0 54 -53q0 -28 -13.5 -40t-40.5 -12z" />
    <glyph glyph-name="Odotbelow" unicode="&#x1ecc;" horiz-adv-x="792" 
d="M397 -185q-26 0 -39.5 12t-13.5 40q0 53 53 53q54 0 54 -53q0 -28 -13.5 -40t-40.5 -12zM396 -10q-164 0 -253 96.5t-89 282.5t89 283.5t253 97.5q163 0 252 -97.5t89 -283.5t-89 -282.5t-252 -96.5zM396 68q246 0 246 301q0 152 -62 227.5t-184 75.5q-247 0 -247 -303
q0 -301 247 -301z" />
    <glyph glyph-name="odotbelow" unicode="&#x1ecd;" horiz-adv-x="629" 
d="M316 -185q-26 0 -39.5 12t-13.5 40q0 53 53 53q54 0 54 -53q0 -28 -13.5 -40t-40.5 -12zM315 -10q-129 0 -197.5 72t-68.5 208t68.5 208t197.5 72q128 0 196 -72t68 -208t-68 -208t-196 -72zM315 64q89 0 130 50t41 156t-41 155.5t-130 49.5t-130.5 -49.5t-41.5 -155.5
t41.5 -156t130.5 -50z" />
    <glyph glyph-name="Udotbelow" unicode="&#x1ee4;" horiz-adv-x="797" 
d="M399 -10q-83 0 -142 18t-97 56t-56 97t-18 142v437h93v-436q0 -64 14 -108.5t41.5 -73t69 -41.5t95.5 -13t95 13t68 41.5t41 73t14 108.5v436h94v-437q0 -83 -18 -142t-56 -97t-97 -56t-141 -18zM393 -185q-26 0 -39.5 12t-13.5 40q0 53 53 53q54 0 54 -53
q0 -28 -13.5 -40t-40.5 -12z" />
    <glyph glyph-name="udotbelow" unicode="&#x1ee5;" horiz-adv-x="646" 
d="M217 -10q-70 0 -105.5 38.5t-35.5 111.5v400h92v-369q0 -55 20 -79.5t67 -24.5q27 0 55 6.5t56.5 16t56 21.5t51.5 23v406h92v-540h-76l-6 69h-4q-47 -21 -81 -35.5t-63 -24.5t-56.5 -14.5t-62.5 -4.5zM316 -185q-26 0 -39.5 12t-13.5 40q0 53 53 53q54 0 54 -53
q0 -28 -13.5 -40t-40.5 -12z" />
    <glyph glyph-name="Ygrave" unicode="&#x1ef2;" horiz-adv-x="664" 
d="M286 247l-282 493h100l191 -338l32 -69h10l32 69l190 338h100l-280 -491v-249h-93v247zM297 805l-99 148h96l75 -135z" />
    <glyph glyph-name="ygrave" unicode="&#x1ef3;" horiz-adv-x="598" 
d="M164 -206l-1 11l89 201l-234 522v12h99l151 -358l28 -82h6l28 82l157 358h96v-12l-337 -748zM256 616l-101 192h101l70 -182z" />
    <glyph glyph-name="Ytilde" unicode="&#x1ef8;" horiz-adv-x="664" 
d="M286 247l-282 493h100l191 -338l32 -69h10l32 69l190 338h100l-280 -491v-249h-93v247zM121 866q31 39 66 58t69 19q25 0 48 -6.5t44.5 -14t43.5 -14t46 -6.5q26 0 50 9t50 29l23 -29q-29 -38 -66.5 -57.5t-74.5 -19.5q-23 0 -45.5 6t-45 13.5t-44.5 14t-44 6.5
q-24 0 -47 -8t-49 -28z" />
    <glyph glyph-name="ytilde" unicode="&#x1ef9;" horiz-adv-x="598" 
d="M164 -206l-1 11l89 201l-234 522v12h99l151 -358l28 -82h6l28 82l157 358h96v-12l-337 -748zM78 681q31 40 65.5 59t68.5 19q26 0 48.5 -6.5t44.5 -14t43.5 -14t45.5 -6.5q26 0 50 8.5t50 28.5l24 -28q-30 -38 -67 -58t-74 -20q-23 0 -46 6.5t-45.5 14t-44.5 14t-44 6.5
q-24 0 -47 -8.5t-48 -28.5z" />
    <glyph glyph-name="endash" unicode="&#x2013;" horiz-adv-x="651" 
d="M71 318h509v-76h-509v76z" />
    <glyph glyph-name="emdash" unicode="&#x2014;" horiz-adv-x="822" 
d="M71 318h680v-76h-680v76z" />
    <glyph glyph-name="quoteleft" unicode="&#x2018;" horiz-adv-x="223" 
d="M70 515q-11 38 -11 87q0 51 16 107.5t45 100.5l52 -5q-17 -38 -26 -87t-9 -95q0 -26 4 -50t13 -51l-84 -7v0z" />
    <glyph glyph-name="quoteright" unicode="&#x2019;" horiz-adv-x="222" 
d="M155 810q12 -36 12 -87t-16 -107.5t-45 -100.5l-53 6q17 38 26.5 87t9.5 94q0 26 -4 50t-14 51z" />
    <glyph glyph-name="quotesinglbase" unicode="&#x201a;" horiz-adv-x="230" 
d="M145 152q12 -36 12 -87t-16 -107.5t-45 -100.5l-53 6q17 38 26.5 87t9.5 94q0 26 -4 50t-14 51z" />
    <glyph glyph-name="quotedblleft" unicode="&#x201c;" horiz-adv-x="445" 
d="M70 515q-11 38 -11 87q0 51 16 107.5t45 100.5l52 -5q-17 -38 -26 -87t-9 -95q0 -26 4 -50t13 -51zM293 515q-11 38 -11 87q0 51 16 107.5t45 100.5l52 -5q-17 -38 -26 -87t-9 -95q0 -26 4 -50t13 -51z" />
    <glyph glyph-name="quotedblright" unicode="&#x201d;" horiz-adv-x="444" 
d="M155 810q12 -36 12 -87t-16 -107.5t-45 -100.5l-53 6q17 38 26.5 87t9.5 94q0 26 -4 50t-14 51zM378 810q12 -36 12 -87t-16 -107.5t-45 -100.5l-53 6q17 38 26.5 87t9.5 94q0 26 -4 50t-14 51z" />
    <glyph glyph-name="quotedblbase" unicode="&#x201e;" horiz-adv-x="452" 
d="M145 152q12 -36 12 -87t-16 -107.5t-45 -100.5l-53 6q17 38 26.5 87t9.5 94q0 26 -4 50t-14 51zM368 152q12 -36 12 -87t-16 -107.5t-45 -100.5l-53 6q17 38 26.5 87t9.5 94q0 26 -4 50t-14 51z" />
    <glyph glyph-name="dagger" unicode="&#x2020;" horiz-adv-x="566" 
d="M243 265v80l17 169l-165 -12h-61v70h61l165 -12l-18 169v79h81v-79l-17 -169l165 12h61v-70h-61l-165 12l17 -169v-80l-17 -200h-45z" />
    <glyph glyph-name="daggerdbl" unicode="&#x2021;" horiz-adv-x="620" 
d="M270 -119l17 169l-165 -12h-61v70h61l165 -12l-18 169v81l18 168l-165 -12h-61v70h61l165 -12l-18 169v79h80v-79l-16 -169l164 12h61v-70h-61l-164 12l17 -169v-80l-17 -169l164 12h61v-70h-61l-164 12l17 -169v-80h-80v80z" />
    <glyph glyph-name="bullet" unicode="&#x2022;" horiz-adv-x="347" 
d="M174 286q-37 0 -61.5 19t-24.5 65t24.5 65.5t61.5 19.5q36 0 60 -19.5t24 -65.5t-24 -65t-60 -19z" />
    <glyph glyph-name="ellipsis" unicode="&#x2026;" horiz-adv-x="696" 
d="M124 -4q-27 0 -43 14.5t-16 42.5t16 41.5t43 13.5t43 -14t16 -41q0 -28 -16 -42.5t-43 -14.5zM352 -4q-27 0 -43 14.5t-16 42.5t16 41.5t43 13.5t43 -14t16 -41q0 -28 -16 -42.5t-43 -14.5zM573 -4q-27 0 -43 14.5t-16 42.5t16 41.5t43 13.5t43 -14t16 -41
q0 -28 -16 -42.5t-43 -14.5z" />
    <glyph glyph-name="perthousand" unicode="&#x2030;" horiz-adv-x="1457" 
d="M234 277q-94 0 -142.5 59.5t-48.5 177.5t48.5 177t142.5 59t142 -59t48 -177t-48 -177.5t-142 -59.5zM234 342q60 0 89.5 42t29.5 130t-29.5 130t-89.5 42t-89.5 -42t-29.5 -130t29.5 -130t89.5 -42zM788 -10q-94 0 -142.5 59.5t-48.5 177.5t48.5 177t142.5 59
q93 0 142 -59t49 -177t-49 -177.5t-142 -59.5zM788 54q60 0 89.5 42t29.5 131q0 88 -29.5 130t-89.5 42t-89.5 -42t-29.5 -130q0 -89 29.5 -131t89.5 -42zM1224 -10q-94 0 -142.5 59.5t-48.5 177.5q0 116 48.5 176t142.5 60t142 -60t48 -176q0 -118 -48 -177.5t-142 -59.5z
M1224 54q119 0 119 173q0 172 -119 172q-120 0 -120 -172q0 -173 120 -173zM655 740h85l-373 -740h-85z" />
    <glyph glyph-name="guilsinglleft" unicode="&#x2039;" horiz-adv-x="387" 
d="M34 268v4l208 238h98l-208 -238v-4l208 -238h-98z" />
    <glyph glyph-name="guilsinglright" unicode="&#x203a;" horiz-adv-x="387" 
d="M145 30h-97l208 238v4l-208 238h97l208 -238v-4z" />
    <glyph glyph-name="fraction" unicode="&#x2044;" horiz-adv-x="263" 
d="M276 740h84l-373 -740h-85z" />
    <glyph glyph-name="zerosuperior" unicode="&#x2070;" horiz-adv-x="545" 
d="M273 293q-110 0 -168 70t-58 210t58 210.5t168 70.5t167.5 -70.5t57.5 -210.5t-57.5 -210t-167.5 -70zM273 363q72 0 108.5 51.5t36.5 158.5q0 210 -145 210q-146 0 -146 -210q0 -107 36.5 -158.5t109.5 -51.5z" />
    <glyph glyph-name="foursuperior" unicode="&#x2074;" horiz-adv-x="497" 
d="M299 424h-261l-16 51l191 377l9 1l64 -9l5 -16l-180 -337h191l20 174h56v-174h92v-67h-92v-124h-79v124z" />
    <glyph glyph-name="fivesuperior" unicode="&#x2075;" horiz-adv-x="447" 
d="M179 292q-31 0 -65.5 3.5t-68.5 8.5v69h18q29 -5 55 -8t52 -3q78 0 116 23t38 80q0 53 -42 74t-135 23l-76 2l-12 10l22 272h300v-70h-237l-10 -152q73 -1 125 -9.5t85 -27t48 -49t15 -74.5q0 -48 -17 -81t-47 -53t-72 -29t-92 -9z" />
    <glyph glyph-name="sixsuperior" unicode="&#x2076;" horiz-adv-x="513" 
d="M267 293q-108 0 -164 62.5t-56 187.5q0 150 71.5 230.5t207.5 80.5q50 0 112 -13l-9 -67q-30 7 -54 10t-47 3q-88 0 -138.5 -51t-61.5 -146q36 25 77 38.5t79 13.5q43 0 78.5 -11.5t60.5 -32.5t38.5 -51.5t13.5 -67.5q0 -42 -15 -76.5t-42 -59t-65.5 -37.5t-85.5 -13z
M267 359q59 0 92 32t33 87q0 49 -32.5 75t-92.5 26q-35 0 -72.5 -13t-66.5 -36q2 -88 36.5 -129.5t102.5 -41.5z" />
    <glyph glyph-name="sevensuperior" unicode="&#x2077;" horiz-adv-x="404" 
d="M154 287l-55 11l-5 19l205 454h-270l-4 58l8 10h333l15 -36v-27l-206 -478z" />
    <glyph glyph-name="eightsuperior" unicode="&#x2078;" horiz-adv-x="512" 
d="M258 296q-101 0 -156.5 36t-55.5 114q0 29 8 51.5t20.5 39.5t28.5 29.5t33 20.5q-33 18 -53.5 47t-20.5 74q0 74 54 110t142 36q84 0 136.5 -36.5t52.5 -109.5q0 -26 -6.5 -46t-17.5 -36t-25 -27.5t-28 -19.5q42 -19 69.5 -49t27.5 -82q0 -76 -55 -114t-154 -38zM258 359
q59 0 93.5 22.5t34.5 68.5q0 22 -10.5 37.5t-29 27t-43.5 19t-53 15.5q-8 3 -19 6t-19 6q-9 -4 -23.5 -12t-28 -20.5t-23.5 -31t-10 -44.5q0 -48 35.5 -71t95.5 -23zM290 600q8 4 21 12.5t25 21t21 30.5t9 42q0 44 -30.5 64.5t-77.5 20.5q-50 0 -82.5 -20.5t-32.5 -63.5
q0 -24 10.5 -40.5t28.5 -28t41.5 -19t49.5 -14.5q3 -2 8.5 -3t8.5 -2z" />
    <glyph glyph-name="ninesuperior" unicode="&#x2079;" horiz-adv-x="512" 
d="M187 293q-48 0 -113 13l9 67q36 -7 58 -10t44 -3q88 0 138 51t61 146q-35 -25 -75.5 -38.5t-78.5 -13.5q-88 0 -140 44t-52 119q0 42 15 76.5t42 59t65.5 37.5t85.5 13q109 0 164 -63t55 -187q0 -151 -71.5 -231t-206.5 -80zM247 567q33 0 70.5 13.5t66.5 36.5
q-3 171 -138 171q-58 0 -92 -32t-34 -87q0 -49 33 -75.5t94 -26.5z" />
    <glyph glyph-name="zeroinferior" unicode="&#x2080;" horiz-adv-x="545" 
d="M273 -107q-110 0 -168 70t-58 210t58 210.5t168 70.5t167.5 -70.5t57.5 -210.5t-57.5 -210t-167.5 -70zM273 -37q72 0 108.5 51.5t36.5 158.5q0 210 -145 210q-146 0 -146 -210q0 -107 36.5 -158.5t109.5 -51.5z" />
    <glyph glyph-name="oneinferior" unicode="&#x2081;" horiz-adv-x="344" 
d="M181 358l-141 -61h-7l-10 45v10l179 94h58v-546h-79v458z" />
    <glyph glyph-name="twoinferior" unicode="&#x2082;" horiz-adv-x="462" 
d="M42 -22q0 67 40 115t133 92q34 16 56.5 29.5t36 26.5t19 26.5t5.5 28.5q0 85 -115 85q-30 0 -65.5 -4.5t-83.5 -14.5l-10 69q51 11 92 16t78 5q184 0 184 -151q0 -55 -34.5 -94t-115.5 -79q-34 -17 -57 -32t-37 -30t-20 -31t-6 -35v-29h272v-69h-372v76z" />
    <glyph glyph-name="threeinferior" unicode="&#x2083;" horiz-adv-x="440" 
d="M186 -108q-35 0 -72.5 3.5t-64.5 8.5v70h6q10 -2 25 -3.5t30.5 -3t31 -2.5t27.5 -1q75 0 110 25t35 74q0 42 -32 63t-103 21h-64v59h63q63 0 92 21.5t29 65.5q0 45 -30 67.5t-96 22.5q-20 0 -51.5 -3t-66.5 -8h-6v69q27 6 64.5 9.5t68.5 3.5q97 0 148 -40t51 -115
q0 -42 -19 -72.5t-54 -45.5q85 -29 85 -129q0 -78 -53 -119t-154 -41z" />
    <glyph glyph-name="fourinferior" unicode="&#x2084;" horiz-adv-x="497" 
d="M299 24h-261l-16 51l191 377l9 1l64 -9l5 -16l-180 -337h191l20 174h56v-174h92v-67h-92v-124h-79v124z" />
    <glyph glyph-name="fiveinferior" unicode="&#x2085;" horiz-adv-x="447" 
d="M179 -108q-31 0 -65.5 3.5t-68.5 8.5v68h18q29 -5 55 -7.5t52 -2.5q78 0 116 23t38 80q0 53 -42 74t-135 23l-76 2l-12 10l22 272h300v-70h-237l-10 -152q73 -1 125 -9.5t85 -27t48 -49t15 -74.5q0 -48 -17 -81t-47 -53t-72 -29t-92 -9z" />
    <glyph glyph-name="sixinferior" unicode="&#x2086;" horiz-adv-x="513" 
d="M267 -107q-108 0 -164 62.5t-56 187.5q0 150 71.5 230.5t207.5 80.5q50 0 112 -13l-9 -67q-30 7 -54 10t-47 3q-88 0 -138.5 -51t-61.5 -146q36 25 77 38.5t79 13.5q43 0 78.5 -11.5t60.5 -32.5t38.5 -51.5t13.5 -67.5q0 -42 -15 -76.5t-42 -59t-65.5 -37.5t-85.5 -13z
M267 -41q59 0 92 32t33 87q0 49 -32.5 75t-92.5 26q-35 0 -72.5 -13t-66.5 -36q2 -88 36.5 -129.5t102.5 -41.5z" />
    <glyph glyph-name="seveninferior" unicode="&#x2087;" horiz-adv-x="404" 
d="M154 -113l-55 11l-5 19l205 454h-270l-4 58l8 10h333l15 -36v-27l-206 -478z" />
    <glyph glyph-name="eightinferior" unicode="&#x2088;" horiz-adv-x="512" 
d="M258 -104q-101 0 -156.5 36t-55.5 114q0 29 8 51.5t20.5 39.5t28.5 29.5t33 20.5q-33 18 -53.5 47t-20.5 74q0 74 54 110t142 36q84 0 136.5 -36.5t52.5 -109.5q0 -26 -6.5 -46t-17.5 -36t-25 -27.5t-28 -19.5q42 -19 69.5 -49t27.5 -82q0 -76 -55 -114t-154 -38z
M258 -41q59 0 93.5 22.5t34.5 68.5q0 22 -10.5 37.5t-29 27t-43.5 19t-53 15.5q-8 3 -19 6t-19 6q-9 -4 -23.5 -12t-28 -20.5t-23.5 -31t-10 -44.5q0 -48 35.5 -71t95.5 -23zM290 200q8 4 21 12.5t25 21t21 30.5t9 42q0 44 -30.5 64.5t-77.5 20.5q-50 0 -82.5 -20.5
t-32.5 -63.5q0 -24 10.5 -40.5t28.5 -28t41.5 -19t49.5 -14.5q3 -2 8.5 -3t8.5 -2z" />
    <glyph glyph-name="nineinferior" unicode="&#x2089;" horiz-adv-x="512" 
d="M187 -107q-25 0 -52 3t-61 9l9 68q36 -7 58 -10t44 -3q88 0 138 51t61 146q-35 -25 -75.5 -38.5t-78.5 -13.5q-88 0 -140 44t-52 119q0 42 15 76.5t42 59t65.5 37.5t85.5 13q109 0 164 -63t55 -187q0 -151 -71.5 -231t-206.5 -80zM247 167q33 0 70.5 13.5t66.5 36.5
q-3 171 -138 171q-58 0 -92 -32t-34 -87q0 -49 33 -75.5t94 -26.5z" />
    <glyph glyph-name="colonmonetary" unicode="&#x20a1;" horiz-adv-x="636" 
d="M401 -9q-67 0 -121 15l-18 -58h-61l24 77q-170 81 -170 343q0 190 87 286.5t258 96.5q11 0 24 -0.5t26 -1.5l19 59h61l-21 -66q18 -2 36.5 -5t36.5 -6v-79q-28 5 -52 8.5t-45 5.5l-181 -583q40 -13 97 -13q18 0 42.5 2t50 5t49 7t39.5 8v-78q-19 -5 -42.5 -9t-48 -7
t-48 -5t-42.5 -2zM150 369q0 -193 101 -260l175 562h-17q-132 0 -195.5 -74.5t-63.5 -227.5z" />
    <glyph glyph-name="franc" unicode="&#x20a3;" horiz-adv-x="692" 
d="M35 189h114v551h498v-76h-404v-250h366v-77h-366v-148h128v-64h-128v-125h-94v125h-114v64z" />
    <glyph glyph-name="lira" unicode="&#x20a4;" horiz-adv-x="689" 
d="M63 476h166v45q0 114 56 169.5t179 55.5q39 0 80.5 -6.5t92.5 -21.5l-8 -76q-92 24 -156 24q-83 0 -116.5 -34t-33.5 -111v-45h227l-6 -57h-221v-105h219l-5 -57h-214v-175h301v-82h-561v82h166v175h-166v57h166v105h-166v57z" />
    <glyph glyph-name="uni20A6" unicode="&#x20a6;" horiz-adv-x="909" 
d="M53 495h82v245h79l191 -245h281v245h84v-245h88v-55h-88v-142h88v-55h-88v-243h-79l-191 243h-281v-243h-84v243h-82v55h82v142h-82v55zM219 298h238l-112 142h-126v-142zM559 298h127v142h-238zM686 136v107h-84l77 -107h7zM219 495h83l-77 107h-6v-107z" />
    <glyph glyph-name="uni20A9" unicode="&#x20a9;" horiz-adv-x="1138" 
d="M58 492h73l-70 248h97l68 -248h225l72 248h97l71 -248h227l67 248h98l-71 -248h67v-55h-82l-40 -141h122v-55h-138l-68 -241h-127l-70 241h-208l-70 -241h-128l-68 241h-144v55h128l-40 141h-88v55zM747 296h117l39 141h-196zM279 296h115l41 141h-194zM484 296h176
l-41 141h-94zM849 241h-86l42 -148h7zM378 241h-84l38 -148h7zM540 492h64l-29 126h-6z" />
    <glyph glyph-name="Euro" unicode="&#x20ac;" horiz-adv-x="671" 
d="M46 484h94q12 69 39.5 119.5t73 82.5t110.5 47.5t151 15.5q40 0 66 -3t47 -5l-31 -78q-8 2 -25.5 3.5t-37.5 1.5q-71 0 -123 -9.5t-88 -31.5t-57 -57t-30 -86h305l-17 -60h-295q-1 -13 -1.5 -26.5t-0.5 -27.5t0.5 -27.5t1.5 -26.5h273l-17 -60h-249q10 -50 31.5 -85
t57 -57.5t86.5 -32.5t120 -10q17 0 38 1.5t45 5.5v-81q-28 -7 -92 -7q-174 1 -265.5 65.5t-114.5 200.5h-95v60h88q-1 13 -1.5 26t-0.5 27t0.5 27.5t1.5 27.5h-88v60z" />
    <glyph glyph-name="uni20B9" unicode="&#x20b9;" horiz-adv-x="713" 
d="M73 539h367q-8 72 -64 101t-177 29q-32 0 -60 -1t-66 -4v76h610l-20 -61h-187q61 -53 68 -140h107l-20 -62h-88q-9 -69 -55.5 -115.5t-131.5 -66.5v-4l209 -291h-117l-193 276h-183v75h114q64 0 110 6.5t77 21t47 38.5t20 60h-367v62z" />
    <glyph glyph-name="uni20BA" unicode="&#x20ba;" horiz-adv-x="712" 
d="M51 477l164 33v230h102v-209l221 46v-61l-221 -46v-108l221 46v-61l-221 -46v-216h138q66 0 91.5 46t25.5 139h102q0 -139 -55 -204.5t-164 -65.5h-240v280l-164 -33v61l164 33v108l-164 -33v61z" />
    <glyph glyph-name="uni2113" unicode="&#x2113;" horiz-adv-x="449" 
d="M248 -1q-83 0 -83 176v28.5t1 21.5q-29 -26 -57 -50.5t-55 -44.5l-22 28q34 26 68.5 55.5t69.5 64.5q10 114 27.5 207t42 159t55.5 102.5t69 36.5q35 0 51 -30.5t16 -86.5q0 -44 -15 -91t-42.5 -96.5t-66 -100t-85.5 -99.5q-2 -22 -3 -45t-1 -49q0 -68 11 -108t33 -40
q17 0 33.5 19.5t26.5 44.5l33 -13q-5 -12 -14 -27t-22 -29t-31 -23.5t-40 -9.5zM228 341q71 82 110.5 161.5t39.5 145.5q0 40 -6 64.5t-19 28.5q-41 -20 -74 -124t-51 -276z" />
    <glyph glyph-name="uni2116" unicode="&#x2116;" horiz-adv-x="1300" 
d="M1063 407q27 0 49.5 6.5t38 22.5t24 43t8.5 67t-8.5 67t-24 43t-38 22.5t-49.5 6.5t-49.5 -6.5t-38.5 -22.5t-24.5 -43t-8.5 -67t8.5 -67t24.5 -43t38.5 -22.5t49.5 -6.5zM1063 345q-94 0 -146.5 49.5t-52.5 151.5t52.5 151.5t146.5 49.5t146.5 -49.5t52.5 -151.5
t-52.5 -151.5t-146.5 -49.5zM105 740h79l402 -514l63 -90h7v604h84v-740h-79l-404 515l-62 87h-6v-602h-84v740z" />
    <glyph glyph-name="servicemark" unicode="&#x2120;" horiz-adv-x="977" 
d="M214 312q-29 0 -68 4.5t-76 12.5v58q42 -9 78.5 -13.5t62.5 -4.5q47 0 71.5 15t24.5 44q0 18 -7.5 30.5t-20 21t-29 13.5t-35.5 10q-75 17 -106.5 45t-31.5 79q0 55 42 87t113 32q48 0 121 -16v-58q-30 8 -61.5 12.5t-54.5 4.5q-42 0 -66.5 -16t-24.5 -45q0 -26 19.5 -41
t70.5 -27q29 -7 54.5 -16t44 -23t29.5 -36t11 -54q0 -58 -41 -88.5t-120 -30.5zM453 740h81l141 -327l142 327h81v-420h-61v325l-134 -309h-55l-133 309v-325h-62v420z" />
    <glyph glyph-name="trademark" unicode="&#x2122;" horiz-adv-x="975" 
d="M449 740h81l141 -327l142 327h81v-420h-60v325l-135 -309h-54l-135 309v-325h-61v420zM181 684h-146v56h359v-56h-147v-364h-66v364z" />
    <glyph glyph-name="Omega" unicode="&#x2126;" horiz-adv-x="809" 
d="M56 71l203 -3q-92 57 -142 145t-50 197q0 77 24 139.5t68.5 107t106.5 69t139 24.5q76 0 138.5 -24.5t107 -69t68.5 -107t24 -139.5q0 -109 -50.5 -197t-143.5 -145l205 3v-71h-291v62q97 60 144.5 143.5t47.5 195.5q0 61 -17.5 111.5t-50.5 85.5t-79 54.5t-103 19.5
t-103 -19.5t-79 -54.5t-50.5 -85.5t-17.5 -111.5q0 -79 22 -137t53 -98.5t63 -65.5t53 -38v-62h-290v71z" />
    <glyph glyph-name="estimated" unicode="&#x212e;" horiz-adv-x="679" 
d="M346 1q-62 0 -114.5 23.5t-90.5 65.5t-60 99t-22 124q0 69 21 126.5t59 99t91 64.5t116 23t114.5 -22t89 -63t59.5 -98.5t25 -129.5h-447v-205q64 -66 159 -66q140 0 218 136l40 -24q-56 -80 -118 -116.5t-140 -36.5zM506 354v164q-71 68 -161 68q-93 0 -158 -68v-164
h319z" />
    <glyph glyph-name="onethird" unicode="&#x2153;" horiz-adv-x="1039" 
d="M608 740h84l-373 -740h-85zM188 658l-141 -61h-7l-10 45v10l179 94h58v-546h-79v458zM782 -8q-35 0 -72.5 3.5t-64.5 8.5v70h6q10 -2 25 -3.5t30.5 -3t31 -2.5t27.5 -1q75 0 110 25.5t35 73.5q0 42 -32 63t-103 21h-64v59h63q63 0 92 21.5t29 65.5q0 45 -30 67.5
t-96 22.5q-20 0 -51.5 -3t-66.5 -8h-6v69q27 6 64.5 9.5t68.5 3.5q97 0 148 -40t51 -115q0 -42 -19 -72.5t-54 -45.5q85 -29 85 -129q0 -78 -53 -119t-154 -41z" />
    <glyph glyph-name="twothirds" unicode="&#x2154;" horiz-adv-x="1135" 
d="M51 278q0 67 40 115t133 92q34 16 56.5 29.5t36 26.5t19 26.5t5.5 28.5q0 85 -115 85q-30 0 -65.5 -4.5t-83.5 -14.5l-10 69q51 11 92 16t78 5q184 0 184 -151q0 -55 -34.5 -94t-115.5 -79q-34 -17 -57 -32t-37 -30t-20 -31t-6 -35v-29h272v-69h-372v76zM726 740h84
l-373 -740h-85zM879 -8q-35 0 -72.5 3.5t-64.5 8.5v70h6q10 -2 25 -3.5t30.5 -3t31 -2.5t27.5 -1q75 0 110 25.5t35 73.5q0 42 -32 63t-103 21h-64v59h63q63 0 92 21.5t29 65.5q0 45 -30 67.5t-96 22.5q-20 0 -51.5 -3t-66.5 -8h-6v69q27 6 64.5 9.5t68.5 3.5q97 0 148 -40
t51 -115q0 -42 -19 -72.5t-54 -45.5q85 -29 85 -129q0 -78 -53 -119t-154 -41z" />
    <glyph glyph-name="oneeighth" unicode="&#x215b;" horiz-adv-x="1080" 
d="M823 -4q-101 0 -156.5 36t-55.5 114q0 29 8 51.5t20.5 39.5t28.5 29.5t33 20.5q-33 18 -53.5 47t-20.5 74q0 74 54 110t142 36q84 0 136.5 -36.5t52.5 -109.5q0 -26 -6.5 -46t-17.5 -36t-25 -27.5t-28 -19.5q42 -19 69.5 -49t27.5 -82q0 -76 -55 -114t-154 -38zM823 59
q59 0 93.5 22.5t34.5 68.5q0 22 -10.5 37.5t-29 27t-43.5 19t-53 15.5q-8 3 -19 6t-19 6q-9 -4 -23.5 -12t-28 -20.5t-23.5 -31t-10 -44.5q0 -48 35.5 -71t95.5 -23zM855 300q8 4 21 12.5t25 21t21 30.5t9 42q0 44 -30.5 64.5t-77.5 20.5q-50 0 -82.5 -20.5t-32.5 -63.5
q0 -24 10.5 -40.5t28.5 -28t41.5 -19t49.5 -14.5q3 -2 8.5 -3t8.5 -2zM608 740h84l-373 -740h-85zM188 658l-141 -61h-7l-10 45v10l179 94h58v-546h-79v458z" />
    <glyph glyph-name="threeeighths" unicode="&#x215c;" horiz-adv-x="1143" 
d="M197 192q-35 0 -72.5 3.5t-64.5 8.5v70h6q10 -2 25 -3.5t30.5 -3t31 -2.5t27.5 -1q75 0 110 25.5t35 73.5q0 42 -32 63t-103 21h-64v59h63q63 0 92 21.5t29 65.5q0 45 -30 67.5t-96 22.5q-20 0 -51.5 -3t-66.5 -8h-6v69q27 6 64.5 9.5t68.5 3.5q97 0 148 -40t51 -115
q0 -42 -19 -72.5t-54 -45.5q85 -29 85 -129q0 -78 -53 -119t-154 -41zM686 740h84l-373 -740h-85zM889 -4q-101 0 -156.5 36t-55.5 114q0 29 8 51.5t20.5 39.5t28.5 29.5t33 20.5q-33 18 -53.5 47t-20.5 74q0 74 54 110t142 36q84 0 136.5 -36.5t52.5 -109.5q0 -26 -6.5 -46
t-17.5 -36t-25 -27.5t-28 -19.5q42 -19 69.5 -49t27.5 -82q0 -76 -55 -114t-154 -38zM889 59q59 0 93.5 22.5t34.5 68.5q0 22 -10.5 37.5t-29 27t-43.5 19t-53 15.5q-8 3 -19 6t-19 6q-9 -4 -23.5 -12t-28 -20.5t-23.5 -31t-10 -44.5q0 -48 35.5 -71t95.5 -23zM921 300
q8 4 21 12.5t25 21t21 30.5t9 42q0 44 -30.5 64.5t-77.5 20.5q-50 0 -82.5 -20.5t-32.5 -63.5q0 -24 10.5 -40.5t28.5 -28t41.5 -19t49.5 -14.5q3 -2 8.5 -3t8.5 -2z" />
    <glyph glyph-name="fiveeighths" unicode="&#x215d;" horiz-adv-x="1153" 
d="M191 192q-31 0 -65.5 3.5t-68.5 8.5v69h18q29 -5 55 -8t52 -3q78 0 116 23t38 80q0 53 -42 74t-135 23l-76 2l-12 10l22 272h300v-70h-237l-10 -152q73 -1 125 -9.5t85 -27t48 -49t15 -74.5q0 -48 -17 -81t-47 -53t-72 -29t-92 -9zM699 740h84l-373 -740h-85zM899 -4
q-101 0 -156.5 36t-55.5 114q0 29 8 51.5t20.5 39.5t28.5 29.5t33 20.5q-33 18 -53.5 47t-20.5 74q0 74 54 110t142 36q84 0 136.5 -36.5t52.5 -109.5q0 -26 -6.5 -46t-17.5 -36t-25 -27.5t-28 -19.5q42 -19 69.5 -49t27.5 -82q0 -76 -55 -114t-154 -38zM899 59
q59 0 93.5 22.5t34.5 68.5q0 22 -10.5 37.5t-29 27t-43.5 19t-53 15.5q-8 3 -19 6t-19 6q-9 -4 -23.5 -12t-28 -20.5t-23.5 -31t-10 -44.5q0 -48 35.5 -71t95.5 -23zM931 300q8 4 21 12.5t25 21t21 30.5t9 42q0 44 -30.5 64.5t-77.5 20.5q-50 0 -82.5 -20.5t-32.5 -63.5
q0 -24 10.5 -40.5t28.5 -28t41.5 -19t49.5 -14.5q3 -2 8.5 -3t8.5 -2z" />
    <glyph glyph-name="seveneighths" unicode="&#x215e;" horiz-adv-x="1071" 
d="M599 740h84l-373 -740h-85zM816 -4q-101 0 -156.5 36t-55.5 114q0 29 8 51.5t20.5 39.5t28.5 29.5t33 20.5q-33 18 -53.5 47t-20.5 74q0 74 54 110t142 36q84 0 136.5 -36.5t52.5 -109.5q0 -26 -6.5 -46t-17.5 -36t-25 -27.5t-28 -19.5q42 -19 69.5 -49t27.5 -82
q0 -76 -55 -114t-154 -38zM816 59q59 0 93.5 22.5t34.5 68.5q0 22 -10.5 37.5t-29 27t-43.5 19t-53 15.5q-8 3 -19 6t-19 6q-9 -4 -23.5 -12t-28 -20.5t-23.5 -31t-10 -44.5q0 -48 35.5 -71t95.5 -23zM848 300q8 4 21 12.5t25 21t21 30.5t9 42q0 44 -30.5 64.5t-77.5 20.5
q-50 0 -82.5 -20.5t-32.5 -63.5q0 -24 10.5 -40.5t28.5 -28t41.5 -19t49.5 -14.5q3 -2 8.5 -3t8.5 -2zM159 187l-55 11l-5 19l205 454h-270l-4 58l8 10h333l15 -36v-27l-206 -478z" />
    <glyph glyph-name="arrowleft" unicode="&#x2190;" horiz-adv-x="735" 
d="M31 394v22l285 287l50 -49l-230 -216l546 4v-74l-546 4l230 -216l-50 -49z" />
    <glyph glyph-name="arrowup" unicode="&#x2191;" horiz-adv-x="653" 
d="M294 621l-216 -230l-49 50l287 285h22l287 -285l-50 -50l-215 230l4 -546h-74z" />
    <glyph glyph-name="arrowright" unicode="&#x2192;" horiz-adv-x="735" 
d="M371 156l229 216l-546 -4v74l546 -4l-229 216l49 49l285 -287v-22l-285 -287z" />
    <glyph glyph-name="arrowdown" unicode="&#x2193;" horiz-adv-x="652" 
d="M28 360l50 50l215 -230l-4 546h74l-4 -546l216 230l49 -50l-287 -285h-22z" />
    <glyph glyph-name="partialdiff" unicode="&#x2202;" horiz-adv-x="603" 
d="M295 -4q-57 0 -102.5 20.5t-77 56t-48.5 83.5t-17 103q0 52 16.5 95.5t47 75t73 49.5t94.5 18q48 0 89.5 -18.5t76.5 -50.5q-11 122 -57.5 186.5t-121.5 64.5q-18 0 -39.5 -4.5t-43 -12.5t-41.5 -18.5t-35 -22.5l-29 49q16 16 39.5 30t49.5 24.5t53 16.5t51 6
q63 0 112 -28t83 -81t52 -130.5t18 -176.5q0 -81 -17.5 -143t-49 -105t-76.5 -65t-100 -22zM294 69q75 0 116 62t41 193v38q-32 32 -69.5 50.5t-84.5 18.5q-35 0 -64 -12.5t-51 -35t-34 -54.5t-12 -70q0 -41 11 -75.5t31.5 -60t49.5 -40t66 -14.5z" />
    <glyph glyph-name="Delta" unicode="&#x2206;" horiz-adv-x="795" 
d="M342 740h111l316 -740h-743zM648 75l-250 586l-252 -586h502z" />
    <glyph glyph-name="product" unicode="&#x220f;" horiz-adv-x="793" 
d="M101 740h591v-847h-92v773h-408v-773h-91v847z" />
    <glyph glyph-name="summation" unicode="&#x2211;" horiz-adv-x="620" 
d="M40 -46l272 365l-272 365v56h531v-75h-420l254 -346l-254 -346h420v-74h-531v55z" />
    <glyph glyph-name="minus" unicode="&#x2212;" horiz-adv-x="544" 
d="M74 402h397v-64h-397v64z" />
    <glyph glyph-name="uni2215" unicode="&#x2215;" horiz-adv-x="467" 
d="M378 740h85l-375 -740h-85z" />
    <glyph glyph-name="uni2219" unicode="&#x2219;" horiz-adv-x="252" 
d="M126 210q-27 0 -43 14.5t-16 42.5t16 41.5t43 13.5t43 -14t16 -41q0 -28 -16 -42.5t-43 -14.5z" />
    <glyph glyph-name="radical" unicode="&#x221a;" horiz-adv-x="720" 
d="M138 411l-95 -42l-29 68l173 74l207 -442l226 782h88l-253 -851h-117z" />
    <glyph glyph-name="infinity" unicode="&#x221e;" horiz-adv-x="917" 
d="M246 137q-42 0 -77 13t-60 36.5t-39 56t-14 71.5q0 36 14.5 67t40 53.5t60 35.5t75.5 13q60 0 114 -29.5t98 -85.5q45 52 97.5 83.5t116.5 31.5q41 0 75.5 -13t60 -35.5t40 -53.5t14.5 -68q0 -38 -14 -70.5t-39.5 -56t-60.5 -36.5t-76 -13q-29 0 -54.5 6.5t-51 21.5
t-52 39t-56.5 60q-23 -25 -46 -48t-48 -40.5t-53.5 -28t-64.5 -10.5zM253 198q20 0 38.5 6t38.5 20t42.5 36t49.5 55q-77 108 -170 108q-52 0 -85.5 -30.5t-33.5 -78.5q0 -51 33.5 -83.5t86.5 -32.5zM666 198q53 0 85.5 31.5t32.5 83.5q0 23 -9 43t-25.5 35t-38.5 23.5
t-47 8.5q-47 0 -90 -27.5t-79 -81.5q27 -33 49.5 -55t42.5 -35.5t39 -19.5t40 -6z" />
    <glyph glyph-name="integral" unicode="&#x222b;" horiz-adv-x="337" 
d="M102 -203q-20 0 -40.5 3.5t-40.5 9.5l11 55q19 -3 32 -4.5t25 -1.5q31 0 50 14t19 52v11l-52 684q-1 5 -1 10v10q0 63 30.5 93.5t83.5 30.5q22 0 45 -3t52 -11q-1 -3 -2.5 -11t-3 -17t-3 -16.5t-1.5 -9.5q-20 5 -33 7.5t-26 2.5q-28 0 -46 -15.5t-18 -54.5v-14l52 -694
q0 -3 0.5 -7.5t0.5 -7.5q0 -32 -10 -54t-28 -36t-42.5 -20t-53.5 -6z" />
    <glyph glyph-name="approxequal" unicode="&#x2248;" horiz-adv-x="535" 
d="M74 480q26 9 53 19t59 10q22 0 42.5 -5.5t40 -12t40 -12t43.5 -5.5q32 0 58 8t52 21v-60l-52 -22t-58 -11q-23 0 -43.5 5.5t-40 12.5t-40 12.5t-42.5 5.5q-32 0 -59 -8t-53 -20v62zM74 273q26 10 53 19.5t59 9.5q22 0 42.5 -5.5t40 -12t40 -12t43.5 -5.5q32 0 58 8t52 21
v-60q-26 -10 -52 -21t-58 -11q-23 0 -43.5 5.5t-40 12t-40 12t-42.5 5.5q-32 0 -59 -7.5t-53 -20.5v62z" />
    <glyph glyph-name="notequal" unicode="&#x2260;" horiz-adv-x="488" 
d="M49 495h199l26 98l62 -16l-22 -82h123v-65h-141l-40 -149h181v-66h-199l-28 -106l-61 16l24 90h-124v66h141l40 149h-181v65z" />
    <glyph glyph-name="lessequal" unicode="&#x2264;" horiz-adv-x="551" 
d="M73 418l402 163v-71l-316 -122l313 -122v-70l-399 162v60zM73 141h400v-64h-400v64z" />
    <glyph glyph-name="greaterequal" unicode="&#x2265;" horiz-adv-x="550" 
d="M81 581l401 -163v-60l-399 -162v70l313 122l-315 122v71zM73 141h400v-64h-400v64z" />
    <glyph glyph-name="lozenge" unicode="&#x25ca;" horiz-adv-x="593" 
d="M36 365v11l201 364h119l200 -364v-11l-200 -365h-119zM465 370l-168 312l-171 -312l171 -312z" />
    <glyph glyph-name="commaaccent" unicode="&#xf6c3;" horiz-adv-x="256" 
d="M105 -70h96l-68 -150h-76z" />
    <glyph glyph-name="AE.sc" horiz-adv-x="842" 
d="M14 7l282 570h485v-69h-302l9 -185h271v-62h-265l11 -192h288v-69h-378l-7 160h-227l-80 -160h-87v7zM214 224h190l-12 287h-34z" />
    <glyph glyph-name="acute.cap" horiz-adv-x="373" 
d="M147 812l74 141h96l-99 -148z" />
    <glyph glyph-name="AEacute.sc" horiz-adv-x="842" 
d="M14 7l282 570h485v-69h-302l9 -185h271v-62h-265l11 -192h288v-69h-378l-7 160h-227l-80 -160h-87v7zM404 224l-12 287h-34l-144 -287h190zM446 635l64 116h92l-88 -122z" />
    <glyph glyph-name="Aacute.sc" horiz-adv-x="654" 
d="M13 6l246 571h137l245 -571v-6h-89l-71 160h-307l-72 -160h-89v6zM458 229l-82 186l-45 102h-8l-44 -103l-83 -185h262zM289 635l63 116h92l-88 -122z" />
    <glyph glyph-name="breve.cap" horiz-adv-x="489" 
d="M243 815q-99 0 -145.5 41.5t-46.5 108.5h69q0 -45 30.5 -70t92.5 -25q63 0 93.5 25t30.5 70h68q0 -68 -47 -109t-145 -41z" />
    <glyph glyph-name="Abreve.sc" horiz-adv-x="654" 
d="M328 635q-90 0 -131.5 35t-41.5 89h65q0 -35 26.5 -54.5t81.5 -19.5t81.5 19.5t26.5 54.5h63q0 -55 -41 -89.5t-130 -34.5zM13 6l246 571h137l245 -571v-6h-89l-71 160h-307l-72 -160h-89v6zM458 229l-82 186l-45 102h-8l-44 -103l-83 -185h262z" />
    <glyph glyph-name="circumflex.cap" horiz-adv-x="482" 
d="M63 886l176 75l176 -75v-74l-176 75l-176 -75v74z" />
    <glyph glyph-name="Acircumflex.sc" horiz-adv-x="654" 
d="M13 6l246 571h137l245 -571v-6h-89l-71 160h-307l-72 -160h-89v6zM458 229l-82 186l-45 102h-8l-44 -103l-83 -185h262zM171 698l157 60l158 -60v-66l-157 59l-158 -59v66z" />
    <glyph glyph-name="uni030F.cap" horiz-adv-x="579" 
d="M184 798l-99 148h96l73 -135zM349 798l-100 148h95l74 -135z" />
    <glyph glyph-name="Adblgrave.sc" horiz-adv-x="654" 
d="M13 6l246 571h137l245 -571v-6h-89l-71 160h-307l-72 -160h-89v6zM458 229l-82 186l-45 102h-8l-44 -103l-83 -185h262zM127 746h93l62 -112l-67 -10zM276 746h91l63 -112l-66 -10z" />
    <glyph glyph-name="dieresis.cap" horiz-adv-x="465" 
d="M91 822q-59 0 -59 59q0 30 15 43.5t44 13.5t44 -13.5t15 -43.5q0 -59 -59 -59zM373 822q-59 0 -59 59q0 30 15 43.5t44 13.5t44.5 -13.5t15.5 -43.5q0 -59 -60 -59z" />
    <glyph glyph-name="Adieresis.sc" horiz-adv-x="654" 
d="M202 639q-55 0 -55 53q0 52 55 52q56 0 56 -52q0 -53 -56 -53zM453 639q-56 0 -56 53q0 52 56 52q55 0 55 -52q0 -53 -55 -53zM13 6l246 571h137l245 -571v-6h-89l-71 160h-307l-72 -160h-89v6zM458 229l-82 186l-45 102h-8l-44 -103l-83 -185h262z" />
    <glyph glyph-name="grave.cap" horiz-adv-x="375" 
d="M154 805l-99 148h96l75 -135z" />
    <glyph glyph-name="Agrave.sc" horiz-adv-x="654" 
d="M13 6l246 571h137l245 -571v-6h-89l-71 160h-307l-72 -160h-89v6zM458 229l-82 186l-45 102h-8l-44 -103l-83 -185h262zM290 629l-89 122h93l63 -112z" />
    <glyph glyph-name="uni0311.cap" horiz-adv-x="486" 
d="M366 818q0 45 -30.5 70t-93.5 25q-62 0 -93 -25t-31 -70h-68q0 67 46.5 108.5t145.5 41.5q98 0 145 -41t47 -109h-68z" />
    <glyph glyph-name="Ainvertedbreve.sc" horiz-adv-x="654" 
d="M155 638q0 53 41.5 88.5t131.5 35.5q89 0 130 -34.5t41 -89.5h-63q0 35 -26.5 54t-81.5 19t-81.5 -19t-26.5 -54h-65zM13 6l246 571h137l245 -571v-6h-89l-71 160h-307l-72 -160h-89v6zM458 229l-82 186l-45 102h-8l-44 -103l-83 -185h262z" />
    <glyph glyph-name="macron.cap" horiz-adv-x="486" 
d="M69 911h347v-69h-347v69z" />
    <glyph glyph-name="Amacron.sc" horiz-adv-x="654" 
d="M13 6l246 571h137l245 -571v-6h-89l-71 160h-307l-72 -160h-89v6zM458 229l-82 186l-45 102h-8l-44 -103l-83 -185h262zM172 720h312v-63h-312v63z" />
    <glyph glyph-name="Aogonek.sc" horiz-adv-x="653" 
d="M568 -170q-98 0 -98 66q0 28 20.5 52.5t70.5 51.5h-11l-70 160h-307l-72 -160h-89v6l246 571h137l245 -571v-16q-59 -23 -83.5 -41.5t-24.5 -40.5q0 -16 10 -21t28 -5q14 0 34.5 2t35.5 7v-51q-16 -5 -35 -7.5t-37 -2.5zM456 229l-81 188l-45 100h-8l-44 -101l-84 -187
h262z" />
    <glyph glyph-name="ring.cap" horiz-adv-x="441" 
d="M221 798q-27 0 -50.5 8t-41 22.5t-27 34.5t-9.5 44t9.5 44.5t27 35t41 23t50.5 8.5t50 -8.5t40.5 -23t27 -35t9.5 -44.5t-9.5 -44t-27 -34.5t-40.5 -22.5t-50 -8zM221 843q77 0 77 64q0 32 -19.5 49t-57.5 17t-58 -17t-20 -49q0 -64 78 -64z" />
    <glyph glyph-name="Aring.sc" horiz-adv-x="654" 
d="M13 6l246 571h137l245 -571v-6h-89l-71 160h-307l-72 -160h-89v6zM458 229l-82 186l-45 102h-8l-44 -103l-83 -185h262zM330 624q-49 0 -81.5 24t-32.5 62t32.5 63t81.5 25q48 0 80 -25t32 -63t-32 -62t-80 -24zM330 662q66 0 66 48q0 49 -66 49q-68 0 -68 -49
q0 -48 68 -48z" />
    <glyph glyph-name="Aringacute.sc" horiz-adv-x="655" 
d="M14 6l221 517q-42 25 -42 68q0 38 28.5 63.5t76.5 32.5l52 85h92l-66 -89q39 -10 63 -34.5t24 -57.5q0 -22 -11.5 -39.5t-31.5 -29.5l222 -516v-6h-89l-71 160h-308l-71 -160h-89v6zM328 541q35 0 54.5 13.5t19.5 36.5q0 24 -19.5 37.5t-54.5 13.5t-55 -13.5t-20 -37.5
q0 -23 20.5 -36.5t54.5 -13.5zM459 229l-83 186l-30 72h-37l-29 -73l-83 -185h262z" />
    <glyph glyph-name="tilde.cap" horiz-adv-x="501" 
d="M40 866q31 39 66 58t69 19q25 0 48 -6.5t44.5 -14t43.5 -14t46 -6.5q26 0 50 9t50 29l23 -29q-29 -38 -66.5 -57.5t-74.5 -19.5q-23 0 -45.5 6t-45 13.5t-44.5 14t-44 6.5q-24 0 -47 -8t-49 -28z" />
    <glyph glyph-name="Atilde.sc" horiz-adv-x="654" 
d="M13 6l246 571h137l245 -571v-6h-89l-71 160h-307l-72 -160h-89v6zM458 229l-82 186l-45 102h-8l-44 -103l-83 -185h262zM141 676q27 35 58.5 52t62.5 17q22 0 42.5 -5t40 -10.5t38.5 -10.5t40 -5q22 0 43.5 6.5t45.5 21.5l20 -23q-27 -34 -60 -51.5t-65 -17.5
q-21 0 -41 5t-40.5 10.5t-40.5 10.5t-39 5q-21 0 -41.5 -6t-43.5 -23z" />
    <glyph glyph-name="B.sc" horiz-adv-x="634" 
d="M319 -8q-53 0 -108.5 3t-122.5 9v569q66 5 118 8t100 3q136 0 196 -37t60 -120q0 -51 -31 -85.5t-85 -45.5v-3q68 -12 103 -47.5t35 -92.5q0 -161 -265 -161zM315 57q93 0 136 25t43 79q0 52 -39 77t-120 25h-160v-199q23 -4 54.5 -5.5t85.5 -1.5zM327 322q79 0 113 22.5
t34 76.5q0 27 -9 46t-28.5 30.5t-51 16.5t-77.5 5q-42 0 -74.5 -1t-58.5 -5v-191h152z" />
    <glyph glyph-name="C.sc" horiz-adv-x="564" 
d="M360 -8q-153 0 -229.5 74.5t-76.5 220.5q0 149 76.5 224t227.5 75q35 0 77.5 -4t83.5 -11v-75q-47 8 -83.5 11.5t-68.5 3.5q-115 0 -168 -54.5t-53 -168.5q0 -113 51 -166.5t163 -53.5q16 0 37.5 1.5t44 3.5t43 5t34.5 6v-74q-17 -4 -37.5 -7t-42 -5.5t-42 -4t-37.5 -1.5
z" />
    <glyph glyph-name="A.sc" horiz-adv-x="654" 
d="M13 6l246 571h137l245 -571v-6h-89l-71 160h-307l-72 -160h-89v6zM458 226l-82 189l-45 102h-8l-44 -103l-84 -188h263z" />
    <glyph glyph-name="Cacute.sc" horiz-adv-x="564" 
d="M360 -8q-153 0 -229.5 74.5t-76.5 220.5q0 149 76.5 224t227.5 75q32 0 74 -3.5t87 -11.5v-75q-54 8 -89.5 11.5t-63.5 3.5q-113 0 -166.5 -54t-53.5 -169q0 -114 51.5 -167t162.5 -53q15 0 37 1.5t44.5 3.5t43 5t34.5 6v-74q-17 -4 -38 -7t-42.5 -5.5t-42 -4t-36.5 -1.5
zM284 635l64 116h92l-87 -122z" />
    <glyph glyph-name="caron.cap" horiz-adv-x="479" 
d="M63 961l176 -75l176 75v-74l-177 -75l-175 75v74z" />
    <glyph glyph-name="Ccaron.sc" horiz-adv-x="564" 
d="M360 -8q-153 0 -229.5 74.5t-76.5 220.5q0 149 76.5 224t227.5 75q32 0 74 -3.5t87 -11.5v-75q-54 8 -89.5 11.5t-63.5 3.5q-113 0 -166.5 -54t-53.5 -169q0 -114 51.5 -167t162.5 -53q15 0 37 1.5t44.5 3.5t43 5t34.5 6v-74q-17 -4 -38 -7t-42.5 -5.5t-42 -4t-36.5 -1.5
zM167 758l158 -59l158 59v-66l-159 -59l-157 59v66z" />
    <glyph glyph-name="Ccedilla.sc" horiz-adv-x="564" 
d="M299 -172q-17 0 -39.5 2.5t-45.5 7.5v56q15 -4 31.5 -6.5t35.5 -2.5q36 0 49 11t13 35q0 11 -5.5 24t-21.5 38q-131 8 -196.5 82.5t-65.5 211.5q0 149 76.5 224t227.5 75q32 0 74 -3.5t87 -11.5v-75q-54 8 -89.5 11.5t-62.5 3.5q-114 0 -167.5 -54t-53.5 -169
q0 -114 51.5 -167t162.5 -53q16 0 37.5 1.5t44 3.5t43 5t34.5 6v-74q-29 -7 -68 -11.5t-71 -6.5q16 -26 22 -41.5t6 -31.5q0 -44 -28.5 -67.5t-80.5 -23.5z" />
    <glyph glyph-name="Ccircumflex.sc" horiz-adv-x="564" 
d="M360 -8q-153 0 -229.5 74.5t-76.5 220.5q0 149 76.5 224t227.5 75q32 0 74 -3.5t87 -11.5v-75q-54 8 -89.5 11.5t-63.5 3.5q-113 0 -166.5 -54t-53.5 -169q0 -114 51.5 -167t162.5 -53q15 0 37 1.5t44.5 3.5t43 5t34.5 6v-74q-17 -4 -38 -7t-42.5 -5.5t-42 -4t-36.5 -1.5
zM166 698l158 60l159 -60v-66l-158 59l-159 -59v66z" />
    <glyph glyph-name="dotaccent.cap" horiz-adv-x="372" 
d="M186 818q-30 0 -45 13.5t-15 44.5t15 44.5t45 13.5q29 0 44.5 -13.5t15.5 -44.5q0 -58 -60 -58z" />
    <glyph glyph-name="Cdotaccent.sc" horiz-adv-x="564" 
d="M360 -8q-153 0 -229.5 74.5t-76.5 220.5q0 149 76.5 224t227.5 75q32 0 74 -3.5t87 -11.5v-75q-54 8 -89.5 11.5t-63.5 3.5q-113 0 -166.5 -54t-53.5 -169q0 -114 51.5 -167t162.5 -53q15 0 37 1.5t44.5 3.5t43 5t34.5 6v-74q-17 -4 -38 -7t-42.5 -5.5t-42 -4t-36.5 -1.5
zM334 636q-29 0 -42.5 12t-13.5 41q0 28 13.5 40t42.5 12q55 0 55 -52q0 -53 -55 -53z" />
    <glyph glyph-name="D.sc" horiz-adv-x="699" 
d="M291 -7q-32 0 -62.5 1t-57.5 2.5t-48.5 4t-34.5 5.5v570q24 2 51.5 3.5t55 2.5t52.5 1.5t44 0.5q183 0 269 -71.5t86 -224.5q0 -152 -86 -223.5t-269 -71.5zM304 66q132 0 191.5 53t59.5 169q0 117 -60 169.5t-194 52.5q-24 0 -59 -1.5t-64 -3.5v-431q35 -5 62.5 -6.5
t63.5 -1.5z" />
    <glyph glyph-name="Dcaron.sc" horiz-adv-x="700" 
d="M291 -7q-32 0 -62.5 1t-57.5 2.5t-48.5 4t-34.5 5.5v570q24 2 51.5 3.5t55 2.5t52.5 1.5t44 0.5q183 0 269 -71.5t86 -224.5q0 -152 -86 -223.5t-269 -71.5zM304 66q132 0 191.5 53t59.5 169q0 117 -60 169.5t-194 52.5q-24 0 -59 -1.5t-64 -3.5v-431q35 -5 62.5 -6.5
t63.5 -1.5zM172 692v66l158 -59l158 59v-66l-159 -59z" />
    <glyph glyph-name="Dcroat.sc" horiz-adv-x="713" 
d="M16 325h85v251q24 2 52 3.5t55.5 2.5t52 1.5t42.5 0.5q184 0 270 -71.5t86 -224.5q0 -77 -21.5 -133t-67 -92t-116 -53t-168.5 -17q-60 0 -111.5 3.5t-73.5 9.5v247h-85v72zM316 66q133 0 192 52.5t59 169.5t-60 169.5t-194 52.5q-23 0 -57.5 -1.5t-64.5 -3.5v-180h165
v-72h-165v-179q35 -5 62.5 -6.5t62.5 -1.5z" />
    <glyph glyph-name="dotbelow" horiz-adv-x="242" 
d="M120 -185q-26 0 -39.5 12t-13.5 40q0 53 53 53q54 0 54 -53q0 -28 -13.5 -40t-40.5 -12z" />
    <glyph glyph-name="Ddotbelow.sc" horiz-adv-x="700" 
d="M291 -7q-32 0 -62.5 1t-57.5 2.5t-48.5 4t-34.5 5.5v570q24 2 51.5 3.5t55 2.5t52.5 1.5t44 0.5q183 0 269 -71.5t86 -224.5q0 -152 -86 -223.5t-269 -71.5zM304 66q132 0 191.5 53t59.5 169q0 117 -60 169.5t-194 52.5q-24 0 -59 -1.5t-64 -3.5v-431q35 -5 62.5 -6.5
t63.5 -1.5zM337 -149q-49 0 -49 45q0 46 49 46q48 0 48 -46q0 -45 -48 -45z" />
    <glyph glyph-name="E.sc" horiz-adv-x="593" 
d="M89 577h443v-69h-353v-183h331v-63h-331v-193h360v-69h-450v577z" />
    <glyph glyph-name="Eacute.sc" horiz-adv-x="592" 
d="M89 577h443v-69h-353v-183h331v-63h-331v-193h360v-69h-450v577zM270 635l63 116h92l-86 -122z" />
    <glyph glyph-name="Ebreve.sc" horiz-adv-x="592" 
d="M309 635q-90 0 -131 35t-41 89h64q0 -35 26.5 -54.5t81.5 -19.5t81.5 19.5t26.5 54.5h63q0 -55 -41 -89.5t-130 -34.5zM89 577h443v-69h-353v-183h331v-63h-331v-193h360v-69h-450v577z" />
    <glyph glyph-name="Ecaron.sc" horiz-adv-x="592" 
d="M89 577h443v-69h-353v-183h331v-63h-331v-193h360v-69h-450v577zM154 692v66l158 -59l157 59v-66l-158 -59z" />
    <glyph glyph-name="Ecircumflex.sc" horiz-adv-x="592" 
d="M89 577h443v-69h-353v-183h331v-63h-331v-193h360v-69h-450v577zM161 698l157 60l158 -60v-66l-157 59l-158 -59v66z" />
    <glyph glyph-name="Edblgrave.sc" horiz-adv-x="592" 
d="M89 577h443v-69h-353v-183h331v-63h-331v-193h360v-69h-450v577zM116 746h91l63 -112l-68 -10zM263 746h91l64 -112l-67 -10z" />
    <glyph glyph-name="Edieresis.sc" horiz-adv-x="592" 
d="M191 639q-56 0 -56 53q0 52 56 52t56 -52q0 -53 -56 -53zM442 639q-56 0 -56 53q0 52 56 52q54 0 54 -52q0 -53 -54 -53zM89 577h443v-69h-353v-183h331v-63h-331v-193h360v-69h-450v577z" />
    <glyph glyph-name="Edotaccent.sc" horiz-adv-x="592" 
d="M310 636q-29 0 -42.5 12t-13.5 41q0 28 13.5 40t42.5 12q55 0 55 -52q0 -53 -55 -53zM89 577h443v-69h-353v-183h331v-63h-331v-193h360v-69h-450v577z" />
    <glyph glyph-name="Edotbelow.sc" horiz-adv-x="592" 
d="M329 -149q-49 0 -49 45q0 46 49 46t49 -46q0 -45 -49 -45zM89 577h443v-69h-353v-183h331v-63h-331v-193h360v-69h-450v577z" />
    <glyph glyph-name="Egrave.sc" horiz-adv-x="592" 
d="M89 577h443v-69h-353v-183h331v-63h-331v-193h360v-69h-450v577zM203 751h92l63 -112l-67 -10z" />
    <glyph glyph-name="Einvertedbreve.sc" horiz-adv-x="592" 
d="M140 638q0 53 41.5 88.5t130.5 35.5t130.5 -34.5t41.5 -89.5h-64q0 35 -26 54t-82 19q-55 0 -81 -19t-26 -54h-65zM89 577h443v-69h-353v-183h331v-63h-331v-193h360v-69h-450v577z" />
    <glyph glyph-name="Emacron.sc" horiz-adv-x="592" 
d="M89 577h443v-69h-353v-183h331v-63h-331v-193h360v-69h-450v577zM158 720h312v-63h-312v63z" />
    <glyph glyph-name="Eng.sc" horiz-adv-x="731" 
d="M495 -135q24 43 39.5 82.5t20.5 68.5l-322 365l-57 70h-6v-451h-81v577h72l336 -382l58 -70h5v452h83v-499q0 -26 -6.5 -55.5t-17.5 -60.5t-26.5 -61t-34.5 -56z" />
    <glyph glyph-name="Eogonek.sc" horiz-adv-x="592" 
d="M467 -172q-51 0 -74.5 16.5t-23.5 49.5q0 31 20.5 54t73.5 52h-374v577h443v-69h-353v-183h331v-63h-331v-193h360v-82q-58 -23 -83.5 -41t-25.5 -41q0 -15 10.5 -20.5t29.5 -5.5q14 0 34 2.5t34 6.5v-50q-15 -5 -33.5 -7.5t-37.5 -2.5z" />
    <glyph glyph-name="Eth.sc" horiz-adv-x="712" 
d="M15 322h85v254q24 2 52 3.5t55.5 2.5t52.5 1.5t43 0.5q183 0 269 -71.5t86 -224.5q0 -77 -21.5 -133t-67 -92t-116 -53t-168.5 -17q-60 0 -111.5 3.5t-73.5 9.5v249h-85v67zM315 66q133 0 192 52.5t59 169.5t-60 169.5t-194 52.5q-23 0 -57.5 -1.5t-64.5 -3.5v-183h165
v-67h-165v-181q35 -5 62.5 -6.5t62.5 -1.5z" />
    <glyph glyph-name="Etilde.sc" horiz-adv-x="592" 
d="M125 676q28 35 59 52t62 17q22 0 42.5 -5t40 -10.5t39.5 -10.5t41 -5q22 0 43.5 6.5t44.5 21.5l21 -23q-27 -34 -61 -51.5t-66 -17.5q-21 0 -41 5t-40 10.5t-40 10.5t-40 5q-21 0 -41.5 -6t-42.5 -23zM89 577h443v-69h-353v-183h331v-63h-331v-193h360v-69h-450v577z" />
    <glyph glyph-name="Euro.tab" 
d="M13 484h90q11 70 37 120t69.5 82t105 47.5t142.5 15.5q38 0 64 -3t46 -5l-29 -78q-8 2 -25.5 3.5t-36.5 1.5q-65 0 -113 -10t-81.5 -32t-54 -57t-29.5 -85h286l-15 -60h-281q-1 -11 -1.5 -26t-0.5 -28t0.5 -28t1.5 -26h260l-16 -60h-234q20 -97 85 -141t191 -44
q17 0 37 1.5t43 5.5v-81q-28 -7 -90 -7q-164 1 -251.5 65t-109.5 201h-90v60h82q0 11 -0.5 26t-0.5 27v28.5t1 26.5h-82v60z" />
    <glyph glyph-name="F.sc" horiz-adv-x="569" 
d="M89 577h443v-71h-353v-191h319v-65h-319v-250h-90v577z" />
    <glyph glyph-name="F_B.sc" horiz-adv-x="1184" 
d="M89 577h443v-71h-353v-191h319v-65h-319v-250h-90v577zM868 -8q-53 0 -108.5 3t-122.5 9v569q66 5 118 8t100 3q136 0 196 -37t60 -120q0 -51 -31 -85.5t-85 -45.5v-3q68 -12 103 -47.5t35 -92.5q0 -161 -265 -161zM864 57q93 0 136 25t43 79q0 52 -39 77t-120 25h-160
v-199q23 -4 54.5 -5.5t85.5 -1.5zM876 322q79 0 113 22.5t34 76.5q0 27 -9 46t-28.5 30.5t-51 16.5t-77.5 5q-42 0 -74.5 -1t-58.5 -5v-191h152z" />
    <glyph glyph-name="F_F.sc" horiz-adv-x="1117" 
d="M89 577h443v-71h-353v-191h319v-65h-319v-250h-90v577zM637 577h443v-71h-353v-191h319v-65h-319v-250h-90v577z" />
    <glyph glyph-name="F_F_B.sc" horiz-adv-x="1731" 
d="M89 577h443v-71h-353v-191h319v-65h-319v-250h-90v577zM637 577h443v-71h-353v-191h319v-65h-319v-250h-90v577zM1416 -8q-53 0 -108.5 3t-122.5 9v569q66 5 118 8t100 3q136 0 196 -37t60 -120q0 -51 -31 -85.5t-85 -45.5v-3q68 -12 103 -47.5t35 -92.5
q0 -161 -265 -161zM1412 57q93 0 136 25t43 79q0 52 -39 77t-120 25h-160v-199q23 -4 54.5 -5.5t85.5 -1.5zM1424 322q79 0 113 22.5t34 76.5q0 27 -9 46t-28.5 30.5t-51 16.5t-77.5 5q-42 0 -74.5 -1t-58.5 -5v-191h152z" />
    <glyph glyph-name="F_F_H.sc" horiz-adv-x="1831" 
d="M89 577h443v-71h-353v-191h319v-65h-319v-250h-90v577zM637 577h443v-71h-353v-191h319v-65h-319v-250h-90v577zM1185 577h90v-245h377v245h90v-577h-90v261h-377v-261h-90v577z" />
    <glyph glyph-name="H.sc" horiz-adv-x="735" 
d="M89 577h90v-245h377v245h90v-577h-90v261h-377v-261h-90v577z" />
    <glyph glyph-name="F_F_I.sc" horiz-adv-x="1364" 
d="M89 577h443v-71h-353v-191h319v-65h-319v-250h-90v577zM637 577h443v-71h-353v-191h319v-65h-319v-250h-90v577zM1185 577h90v-577h-90v577z" />
    <glyph glyph-name="I.sc" horiz-adv-x="269" 
d="M89 577h90v-577h-90v577z" />
    <glyph glyph-name="F_F_J.sc" horiz-adv-x="1371" 
d="M89 577h443v-71h-353v-191h319v-65h-319v-250h-90v577zM637 577h443v-71h-353v-191h319v-65h-319v-250h-90v577zM1128 -124q19 37 32 69t20.5 63.5t11 65t3.5 73.5v430h90v-435q0 -40 -4.5 -74t-15.5 -68t-29.5 -70.5t-45.5 -81.5z" />
    <glyph glyph-name="J.sc" horiz-adv-x="268" 
d="M24 -124q19 37 32 69t20.5 63.5t11 65t3.5 73.5v430h90v-435q0 -40 -4.5 -74t-15.5 -68t-29.5 -70.5t-45.5 -81.5z" />
    <glyph glyph-name="F_F_K.sc" horiz-adv-x="1733" 
d="M89 577h443v-71h-353v-191h319v-65h-319v-250h-90v577zM637 577h443v-71h-353v-191h319v-65h-319v-250h-90v577zM1185 577h90v-249h137l192 249h102l-200 -255l-31 -19v-6l33 -20l213 -277h-103l-197 257h-146v-257h-90v577z" />
    <glyph glyph-name="K.sc" horiz-adv-x="637" 
d="M89 577h90v-249h137l192 249h102l-200 -255l-31 -19v-6l33 -20l213 -277h-103l-197 257h-146v-257h-90v577z" />
    <glyph glyph-name="F_F_L.sc" horiz-adv-x="1614" 
d="M1185 577h90v-506h320v-71h-410v577zM89 577h443v-71h-353v-191h319v-65h-319v-250h-90v577zM637 577h443v-71h-353v-191h319v-65h-319v-250h-90v577z" />
    <glyph glyph-name="L.sc" horiz-adv-x="518" 
d="M89 577h90v-506h320v-71h-410v577z" />
    <glyph glyph-name="F_F_T.sc" horiz-adv-x="1666" 
d="M1332 506h-222v71h534v-71h-222v-506h-90v506zM89 577h443v-71h-353v-191h319v-65h-319v-250h-90v577zM637 577h443v-71h-353v-191h319v-65h-319v-250h-90v577z" />
    <glyph glyph-name="T.sc" 
d="M244 506h-222v71h534v-71h-222v-506h-90v506z" />
    <glyph glyph-name="F_H.sc" horiz-adv-x="1283" 
d="M89 577h443v-71h-353v-191h319v-65h-319v-250h-90v577zM637 577h90v-245h377v245h90v-577h-90v261h-377v-261h-90v577z" />
    <glyph glyph-name="F_I.sc" horiz-adv-x="816" 
d="M89 577h443v-71h-353v-191h319v-65h-319v-250h-90v577zM637 577h90v-577h-90v577z" />
    <glyph glyph-name="F_J.sc" horiz-adv-x="824" 
d="M89 577h443v-71h-353v-191h319v-65h-319v-250h-90v577zM579 -124q19 37 32 69t20.5 63.5t11 65t3.5 73.5v430h90v-435q0 -40 -4.5 -74t-15.5 -68t-29.5 -70.5t-45.5 -81.5z" />
    <glyph glyph-name="F_K.sc" horiz-adv-x="1185" 
d="M89 577h443v-71h-353v-191h319v-65h-319v-250h-90v577zM637 577h90v-249h137l192 249h102l-200 -255l-31 -19v-6l33 -20l213 -277h-103l-197 257h-146v-257h-90v577z" />
    <glyph glyph-name="F_L.sc" horiz-adv-x="1067" 
d="M637 577h90v-506h320v-71h-410v577zM89 577h443v-71h-353v-191h319v-65h-319v-250h-90v577z" />
    <glyph glyph-name="F_T.sc" horiz-adv-x="1118" 
d="M785 506h-222v71h534v-71h-222v-506h-90v506zM89 577h443v-71h-353v-191h319v-65h-319v-250h-90v577z" />
    <glyph glyph-name="G.sc" horiz-adv-x="630" 
d="M368 -8q-156 0 -235 74.5t-79 220.5q0 148 81 223.5t242 75.5q44 0 90 -5t90 -16v-73q-60 11 -98.5 15t-75.5 4q-124 0 -180.5 -55t-56.5 -168t53 -166.5t170 -53.5q10 0 24.5 1t30.5 2.5t31 3.5t25 5v213h85v-270q-22 -7 -48 -12.5t-52.5 -9.5t-51.5 -6.5t-45 -2.5z" />
    <glyph glyph-name="Gacute.sc" horiz-adv-x="630" 
d="M368 -8q-156 0 -235 74t-79 221q0 149 81 224t242 75q45 0 90.5 -5t89.5 -16v-75q-30 6 -54 10t-44.5 6.5t-39 3.5t-36.5 1q-122 0 -179.5 -54t-57.5 -169q0 -114 54 -167t169 -53q10 0 24.5 1t30.5 2.5t31 3.5t25 5v213h85v-270q-22 -7 -48 -12.5t-52 -9.5t-51.5 -6.5
t-45.5 -2.5zM294 635l62 116h93l-87 -122z" />
    <glyph glyph-name="Gbreve.sc" horiz-adv-x="630" 
d="M368 -8q-156 0 -235 74t-79 221q0 149 81 224t242 75q45 0 90.5 -5t89.5 -16v-75q-30 6 -54 10t-44.5 6.5t-39 3.5t-36.5 1q-122 0 -179.5 -54t-57.5 -169q0 -114 54 -167t169 -53q10 0 24.5 1t30.5 2.5t31 3.5t25 5v213h85v-270q-22 -7 -48 -12.5t-52 -9.5t-51.5 -6.5
t-45.5 -2.5zM339 635q-90 0 -131 35t-41 89h64q0 -35 26.5 -54.5t81.5 -19.5t81 19.5t26 54.5h64q0 -55 -41 -89.5t-130 -34.5z" />
    <glyph glyph-name="Gcircumflex.sc" horiz-adv-x="630" 
d="M368 -8q-156 0 -235 74t-79 221q0 149 81 224t242 75q45 0 90.5 -5t89.5 -16v-75q-30 6 -54 10t-44.5 6.5t-39 3.5t-36.5 1q-122 0 -179.5 -54t-57.5 -169q0 -114 54 -167t169 -53q10 0 24.5 1t30.5 2.5t31 3.5t25 5v213h85v-270q-22 -7 -48 -12.5t-52 -9.5t-51.5 -6.5
t-45.5 -2.5zM176 698l157 60l158 -60v-66l-157 59l-158 -59v66z" />
    <glyph glyph-name="Gcommaaccent.sc" horiz-adv-x="630" 
d="M368 -8q-156 0 -235 74t-79 221q0 149 81 224t242 75q45 0 90.5 -5t89.5 -16v-75q-30 6 -54 10t-44.5 6.5t-39 3.5t-36.5 1q-122 0 -179.5 -54t-57.5 -169q0 -114 54 -167t169 -53q10 0 24.5 1t30.5 2.5t31 3.5t25 5v213h85v-270q-22 -7 -48 -12.5t-52 -9.5t-51.5 -6.5
t-45.5 -2.5zM296 -55h93l-61 -117h-72z" />
    <glyph glyph-name="Gdotaccent.sc" horiz-adv-x="630" 
d="M368 -8q-156 0 -235 74t-79 221q0 149 81 224t242 75q45 0 90.5 -5t89.5 -16v-75q-30 6 -54 10t-44.5 6.5t-39 3.5t-36.5 1q-122 0 -179.5 -54t-57.5 -169q0 -114 54 -167t169 -53q10 0 24.5 1t30.5 2.5t31 3.5t25 5v213h85v-270q-22 -7 -48 -12.5t-52 -9.5t-51.5 -6.5
t-45.5 -2.5zM341 636q-28 0 -42 12t-14 41q0 28 14 40t42 12q55 0 55 -52q0 -53 -55 -53z" />
    <glyph glyph-name="Hbar.sc" horiz-adv-x="744" 
d="M17 473h77v104h89v-104h378v104h89v-104h78v-49h-78v-424h-89v255h-378v-255h-89v424h-77v49zM561 326v98h-378v-98h378z" />
    <glyph glyph-name="Hcircumflex.sc" horiz-adv-x="735" 
d="M89 577h90v-245h377v245h90v-577h-90v261h-377v-261h-90v577zM206 698l157 60l158 -60v-66l-157 59l-158 -59v66z" />
    <glyph glyph-name="Hdotbelow.sc" horiz-adv-x="735" 
d="M89 577h90v-245h377v245h90v-577h-90v261h-377v-261h-90v577zM374 -149q-48 0 -48 45q0 46 48 46q49 0 49 -46q0 -45 -49 -45z" />
    <glyph glyph-name="Iacute.sc" horiz-adv-x="269" 
d="M89 577h90v-577h-90v577zM95 635l64 116h91l-87 -122z" />
    <glyph glyph-name="Ibreve.sc" horiz-adv-x="269" 
d="M89 577h90v-577h-90v577zM134 635q-90 0 -131 35t-41 89h64q0 -35 26.5 -54.5t81.5 -19.5t81.5 19.5t26.5 54.5h63q0 -55 -41 -89.5t-130 -34.5z" />
    <glyph glyph-name="Icircumflex.sc" horiz-adv-x="269" 
d="M89 577h90v-577h-90v577zM-22 698l157 60l157 -60v-66l-156 59l-158 -59v66z" />
    <glyph glyph-name="Idblgrave.sc" horiz-adv-x="269" 
d="M89 577h90v-577h-90v577zM33 624l-88 122h92l63 -112zM182 624l-88 122h91l63 -112z" />
    <glyph glyph-name="Idieresis.sc" horiz-adv-x="269" 
d="M89 577h90v-577h-90v577zM11 639q-56 0 -56 53q0 52 56 52t56 -52q0 -53 -56 -53zM261 639q-55 0 -55 53q0 52 55 52t55 -52q0 -53 -55 -53z" />
    <glyph glyph-name="Idotaccent.sc" horiz-adv-x="269" 
d="M89 577h90v-577h-90v577zM135 636q-29 0 -42.5 12t-13.5 41q0 28 13.5 40t42.5 12q55 0 55 -52q0 -53 -55 -53z" />
    <glyph glyph-name="Idotbelow.sc" horiz-adv-x="269" 
d="M89 577h90v-577h-90v577zM135 -149q-48 0 -48 45q0 46 48 46q49 0 49 -46q0 -45 -49 -45z" />
    <glyph glyph-name="Igrave.sc" horiz-adv-x="269" 
d="M89 577h90v-577h-90v577zM110 629l-88 122h92l63 -112z" />
    <glyph glyph-name="Iinvertedbreve.sc" horiz-adv-x="269" 
d="M89 577h90v-577h-90v577zM243 638q0 35 -26 54t-81 19t-81.5 -19t-26.5 -54h-65q0 53 41.5 88.5t131.5 35.5q89 0 130 -34.5t41 -89.5h-64z" />
    <glyph glyph-name="Imacron.sc" horiz-adv-x="269" 
d="M89 577h90v-577h-90v577zM-19 720h312v-63h-312v63z" />
    <glyph glyph-name="Iogonek.sc" horiz-adv-x="269" 
d="M89 577h90v-590q-58 -23 -83.5 -41t-25.5 -41q0 -15 10 -20.5t30 -5.5q14 0 33.5 2.5t34.5 6.5v-50q-15 -5 -34 -7.5t-38 -2.5q-98 0 -98 66q0 15 5 28t16 25.5t29 25.5t44 27h-13v577z" />
    <glyph glyph-name="Itilde.sc" horiz-adv-x="269" 
d="M89 577h90v-577h-90v577zM-53 676q28 35 59 52t62 17q22 0 42.5 -5t40 -10.5t39.5 -10.5t41 -5q23 0 43.5 6.5t43.5 21.5l20 -23q-26 -34 -59.5 -51.5t-65.5 -17.5q-21 0 -41 5t-40 10.5t-40 10.5t-40 5q-21 0 -41.5 -6t-43.5 -23z" />
    <glyph glyph-name="Jcircumflex.sc" horiz-adv-x="268" 
d="M23 -124q19 37 32 69t20.5 63.5t11 65t3.5 73.5v430h90v-435q0 -40 -4.5 -74t-15.5 -68t-29.5 -70.5t-45.5 -81.5zM-20 698l157 60l158 -60v-66l-157 59l-158 -59v66z" />
    <glyph glyph-name="Kcommaaccent.sc" horiz-adv-x="637" 
d="M89 577h90v-249h137l192 249h102l-200 -255l-31 -19v-6l33 -20l213 -277h-103l-197 257h-146v-257h-90v577zM293 -55h93l-61 -117h-72z" />
    <glyph glyph-name="Lacute.sc" horiz-adv-x="519" 
d="M89 577h90v-506h321v-71h-411v577zM99 635l63 116h92l-88 -122z" />
    <glyph glyph-name="caron.alt" horiz-adv-x="227" 
d="M67 808h77l-30 -228h-47v228z" />
    <glyph glyph-name="Lcaron.sc" horiz-adv-x="520" 
d="M89 577h90v-506h320v-71h-410v577zM374 599h72l-27 -178h-45v178z" />
    <glyph glyph-name="Lcommaaccent.sc" horiz-adv-x="518" 
d="M89 577h90v-506h320v-71h-410v577zM245 -55h93l-62 -117h-72z" />
    <glyph glyph-name="Ldot.sc" horiz-adv-x="525" 
d="M89 577h90v-506h320v-71h-410v577zM428 247q-56 0 -56 53t56 53q55 0 55 -53t-55 -53z" />
    <glyph glyph-name="Lslash.sc" horiz-adv-x="537" 
d="M22 246l85 44v287h89v-252l157 83v-70l-157 -81v-186h322v-71h-411v220l-85 -44v70z" />
    <glyph glyph-name="M.sc" horiz-adv-x="875" 
d="M89 577h118l164 -319l63 -138h7l64 138l163 319h118v-577h-81v478h-6l-90 -194l-133 -262h-77l-133 262l-90 194h-6v-478h-81v577z" />
    <glyph glyph-name="N.sc" horiz-adv-x="732" 
d="M89 577h72l336 -382l58 -70h5v452h83v-577h-73l-337 381l-57 70h-6v-451h-81v577z" />
    <glyph glyph-name="Nacute.sc" horiz-adv-x="732" 
d="M89 577h72l336 -382l58 -70h5v452h83v-577h-73l-337 381l-57 70h-6v-451h-81v577zM317 635l63 116h92l-87 -122z" />
    <glyph glyph-name="Ncaron.sc" horiz-adv-x="732" 
d="M89 577h72l336 -382l58 -70h5v452h83v-577h-73l-337 381l-57 70h-6v-451h-81v577zM208 692v66l158 -59l157 59v-66l-158 -59z" />
    <glyph glyph-name="Ncommaaccent.sc" horiz-adv-x="732" 
d="M89 577h72l336 -382l58 -70h5v452h83v-577h-73l-337 381l-57 70h-6v-451h-81v577zM329 -55h93l-62 -117h-71z" />
    <glyph glyph-name="Ndotaccent.sc" horiz-adv-x="732" 
d="M89 577h72l336 -382l58 -70h5v452h83v-577h-73l-337 381l-57 70h-6v-451h-81v577zM367 636q-29 0 -42.5 12t-13.5 41q0 28 13.5 40t42.5 12q55 0 55 -52q0 -53 -55 -53z" />
    <glyph glyph-name="Ntilde.sc" horiz-adv-x="732" 
d="M179 676q27 35 58.5 52t62.5 17q22 0 42.5 -5t40 -10.5t39.5 -10.5t41 -5q22 0 43 6.5t45 21.5l20 -23q-27 -34 -60.5 -51.5t-65.5 -17.5q-21 0 -41 5t-40.5 10.5t-40.5 10.5t-39 5q-22 0 -42 -6t-43 -23zM89 577h72l336 -382l58 -70h5v452h83v-577h-73l-337 381l-57 70
h-6v-451h-81v577z" />
    <glyph glyph-name="O.sc" horiz-adv-x="712" 
d="M357 -8q-145 0 -224.5 75t-79.5 221q0 145 79 221t225 76q143 0 222 -76t79 -221t-79 -220.5t-222 -75.5zM357 65q108 0 159.5 55.5t51.5 167.5q0 224 -211 224q-212 0 -212 -224q0 -112 51.5 -167.5t160.5 -55.5z" />
    <glyph glyph-name="OE.sc" horiz-adv-x="946" 
d="M359 -8q-146 0 -225.5 75t-79.5 221q0 145 79.5 221t225.5 76q29 0 52.5 -1.5t46.5 -6.5h427v-69h-337v-183h315v-63h-315v-193h344v-69h-434q-23 -4 -47 -6t-52 -2zM359 65q30 0 54 1.5t45 6.5v431q-21 5 -44.5 6.5t-54.5 1.5q-106 0 -160 -54.5t-54 -169.5t54 -169
t160 -54z" />
    <glyph glyph-name="Oacute.sc" horiz-adv-x="712" 
d="M357 -8q-145 0 -224 75t-79 221q0 145 79 221t224 76q143 0 222.5 -76t79.5 -221t-79.5 -220.5t-222.5 -75.5zM357 65q108 0 159.5 55.5t51.5 167.5q0 224 -211 224q-212 0 -212 -224q0 -223 212 -223zM318 635l63 116h92l-88 -122z" />
    <glyph glyph-name="Obreve.sc" horiz-adv-x="712" 
d="M357 -8q-145 0 -224 75t-79 221q0 145 79 221t224 76q143 0 222.5 -76t79.5 -221t-79.5 -220.5t-222.5 -75.5zM357 65q108 0 159.5 55.5t51.5 167.5q0 224 -211 224q-212 0 -212 -224q0 -223 212 -223zM356 635q-83 0 -128 32.5t-45 91.5h65q0 -37 27.5 -55.5t80.5 -18.5
q52 0 79.5 18.5t27.5 55.5h63q0 -60 -44 -92t-126 -32z" />
    <glyph glyph-name="Ocircumflex.sc" horiz-adv-x="712" 
d="M357 -8q-145 0 -224 75t-79 221q0 145 79 221t224 76q143 0 222.5 -76t79.5 -221t-79.5 -220.5t-222.5 -75.5zM357 65q108 0 159.5 55.5t51.5 167.5q0 224 -211 224q-212 0 -212 -224q0 -223 212 -223zM198 698l157 60l158 -60v-66l-157 59l-158 -59v66z" />
    <glyph glyph-name="Odblgrave.sc" horiz-adv-x="712" 
d="M357 -8q-145 0 -224 75t-79 221q0 145 79 221t224 76q143 0 222.5 -76t79.5 -221t-79.5 -220.5t-222.5 -75.5zM357 65q108 0 159.5 55.5t51.5 167.5q0 224 -211 224q-212 0 -212 -224q0 -223 212 -223zM247 624l-88 122h93l62 -112zM396 624l-89 122h92l63 -112z" />
    <glyph glyph-name="Odieresis.sc" horiz-adv-x="712" 
d="M357 -8q-145 0 -224 75t-79 221q0 145 79 221t224 76q143 0 222.5 -76t79.5 -221t-79.5 -220.5t-222.5 -75.5zM357 65q108 0 159.5 55.5t51.5 167.5q0 224 -211 224q-212 0 -212 -224q0 -223 212 -223zM228 639q-28 0 -42 12t-14 41q0 28 14 40t42 12q26 0 41 -12t15 -40
q0 -29 -14.5 -41t-41.5 -12zM478 639q-28 0 -41.5 12t-13.5 41q0 28 14 40t41 12q26 0 40.5 -12t14.5 -40q0 -29 -14 -41t-41 -12z" />
    <glyph glyph-name="Odotbelow.sc" horiz-adv-x="712" 
d="M357 -8q-145 0 -224.5 75.5t-79.5 220.5t79 221t225 76q143 0 222 -76t79 -221t-79 -220.5t-222 -75.5zM357 65q106 0 158.5 54.5t52.5 168.5q0 224 -211 224q-106 0 -159 -54.5t-53 -169.5q0 -114 53 -168.5t159 -54.5zM358 -149q-48 0 -48 45q0 46 48 46q49 0 49 -46
q0 -45 -49 -45z" />
    <glyph glyph-name="Ograve.sc" horiz-adv-x="712" 
d="M357 -8q-145 0 -224.5 75.5t-79.5 220.5t79 221t225 76q143 0 222 -76t79 -221t-79 -220.5t-222 -75.5zM357 65q106 0 158.5 54.5t52.5 168.5q0 224 -211 224q-106 0 -159 -54.5t-53 -169.5q0 -114 53 -168.5t159 -54.5zM319 629l-88 122h93l63 -112z" />
    <glyph glyph-name="hungarumlaut.cap" horiz-adv-x="576" 
d="M159 811l73 135h95l-99 -148zM322 811l74 135h96l-99 -148z" />
    <glyph glyph-name="Ohungarumlaut.sc" horiz-adv-x="712" 
d="M357 -8q-145 0 -224.5 75.5t-79.5 220.5t79 221t225 76q143 0 222 -76t79 -221t-79 -220.5t-222 -75.5zM357 65q106 0 158.5 54.5t52.5 168.5q0 224 -211 224q-106 0 -159 -54.5t-53 -169.5q0 -114 53 -168.5t159 -54.5zM237 634l64 112h92l-89 -122zM386 634l63 112h91
l-87 -122z" />
    <glyph glyph-name="Oinvertedbreve.sc" horiz-adv-x="712" 
d="M357 -8q-145 0 -224.5 75.5t-79.5 220.5t79 221t225 76q143 0 222 -76t79 -221t-79 -220.5t-222 -75.5zM357 65q106 0 158.5 54.5t52.5 168.5q0 224 -211 224q-106 0 -159 -54.5t-53 -169.5q0 -114 53 -168.5t159 -54.5zM463 638q0 35 -26.5 54t-80.5 19q-55 0 -81.5 -19
t-26.5 -54h-65q0 53 41.5 88.5t131.5 35.5q89 0 129.5 -34.5t40.5 -89.5h-63z" />
    <glyph glyph-name="Omacron.sc" horiz-adv-x="712" 
d="M357 -8q-145 0 -224.5 75.5t-79.5 220.5t79 221t225 76q143 0 222 -76t79 -221t-79 -220.5t-222 -75.5zM357 65q106 0 158.5 54.5t52.5 168.5q0 224 -211 224q-106 0 -159 -54.5t-53 -169.5q0 -114 53 -168.5t159 -54.5zM200 720h312v-63h-312v63z" />
    <glyph glyph-name="Oogonek.sc" horiz-adv-x="712" 
d="M350 -161q-100 0 -100 65q0 25 15.5 46.5t51.5 43.5q-126 9 -194.5 83.5t-68.5 210.5q0 145 79 221t224 76q143 0 222.5 -76t79.5 -221q0 -73 -19 -125.5t-52 -87.5t-76 -53.5t-91 -24.5q-58 -23 -83 -40.5t-25 -40.5q0 -17 10.5 -22t28.5 -5q14 0 34 3t35 6v-50
q-15 -5 -33.5 -7t-37.5 -2zM357 65q106 0 158.5 54.5t52.5 168.5q0 224 -211 224q-106 0 -159 -54.5t-53 -169.5q0 -114 53 -168.5t159 -54.5z" />
    <glyph glyph-name="Oslash.sc" horiz-adv-x="712" 
d="M121 80q-67 75 -67 208q0 145 79 221t224 76q60 0 108 -14t85 -40l42 46h73l-75 -78q69 -77 69 -211q0 -145 -79 -220.5t-223 -75.5q-120 0 -195 55l-43 -47h-74zM357 65q106 0 158.5 54.5t52.5 168.5q0 93 -41 149l-304 -330q53 -42 134 -42zM145 288q0 -90 40 -147
l303 330q-50 41 -131 41q-105 0 -158.5 -54.5t-53.5 -169.5z" />
    <glyph glyph-name="Oslashacute.sc" horiz-adv-x="712" 
d="M121 80q-67 75 -67 208q0 145 79 221t224 76q60 0 108 -14t85 -40l42 46h73l-75 -78q69 -77 69 -211q0 -145 -79 -220.5t-223 -75.5q-120 0 -195 55l-43 -47h-74zM357 65q106 0 158.5 54.5t52.5 168.5q0 93 -41 149l-304 -330q53 -42 134 -42zM315 635l63 116h93
l-88 -122zM145 288q0 -90 40 -147l303 330q-50 41 -131 41q-105 0 -158.5 -54.5t-53.5 -169.5z" />
    <glyph glyph-name="Otilde.sc" horiz-adv-x="712" 
d="M357 -8q-145 0 -224.5 75.5t-79.5 220.5t79 221t225 76q143 0 222 -76t79 -221t-79 -220.5t-222 -75.5zM357 65q106 0 158.5 54.5t52.5 168.5q0 224 -211 224q-106 0 -159 -54.5t-53 -169.5q0 -114 53 -168.5t159 -54.5zM168 676q29 35 60 52t62 17q22 0 42.5 -5
t40 -10.5t39 -10.5t41.5 -5t43 6.5t44 21.5l20 -23q-26 -34 -59.5 -51.5t-66.5 -17.5q-20 0 -40 5t-40.5 10.5t-40.5 10.5t-40 5t-40.5 -6t-42.5 -23z" />
    <glyph glyph-name="P.sc" horiz-adv-x="620" 
d="M88 573q93 12 175 12q167 0 242.5 -48.5t75.5 -154.5q0 -104 -75 -153t-235 -49q-17 0 -41 1t-52 4v-185h-90v573zM287 248q56 0 95 7t63 23t34.5 41.5t10.5 62.5q0 70 -47.5 101.5t-161.5 31.5q-25 0 -52.5 -1.5t-50.5 -4.5v-253q7 -2 19.5 -3t27.5 -2.5t31 -2t31 -0.5z
" />
    <glyph glyph-name="Q.sc" horiz-adv-x="711" 
d="M631 -106q-165 26 -275.5 59t-178 79t-96 108t-28.5 148q0 141 79.5 219t224.5 78q143 0 222.5 -78t79.5 -219q0 -135 -72 -204t-214 -69v-5q49 -9 85 -15t66.5 -10.5t58 -7.5t59.5 -5zM357 66q106 0 158.5 56.5t52.5 165.5q0 110 -52.5 167t-158.5 57q-105 0 -159 -57
t-54 -167q0 -109 53.5 -165.5t159.5 -56.5z" />
    <glyph glyph-name="R.sc" horiz-adv-x="638" 
d="M353 210q-17 -2 -36 -3t-39 -1q-22 0 -46.5 2t-53.5 5v-213h-90v573q94 12 175 12q166 0 242 -45t76 -145q0 -67 -34.5 -108.5t-109.5 -61.5l171 -225h-104zM283 274q58 0 97.5 6.5t64.5 20.5t36 37t11 56q0 66 -49 94.5t-162 28.5q-26 0 -55.5 -2t-47.5 -6v-228
q5 -2 16.5 -3t26 -2t31 -1.5t31.5 -0.5z" />
    <glyph glyph-name="Racute.sc" horiz-adv-x="638" 
d="M88 573q94 12 175 12q166 0 242 -45t76 -145q0 -67 -34.5 -108.5t-109.5 -61.5l171 -225h-104l-151 210q-17 -2 -36 -3t-39 -1q-22 0 -46.5 2t-53.5 5v-213h-90v573zM283 274q58 0 97.5 6.5t64.5 20.5t36 37t11 56q0 66 -49 94.5t-162 28.5q-26 0 -55.5 -2t-47.5 -6v-228
q5 -2 16.5 -3t26 -2t31 -1.5t31.5 -0.5zM275 635l64 116h92l-87 -122z" />
    <glyph glyph-name="Rcaron.sc" horiz-adv-x="638" 
d="M88 573q94 12 175 12q166 0 242 -45t76 -145q0 -67 -34.5 -108.5t-109.5 -61.5l171 -225h-104l-151 210q-17 -2 -36 -3t-39 -1q-22 0 -46.5 2t-53.5 5v-213h-90v573zM283 274q58 0 97.5 6.5t64.5 20.5t36 37t11 56q0 66 -49 94.5t-162 28.5q-26 0 -55.5 -2t-47.5 -6v-228
q5 -2 16.5 -3t26 -2t31 -1.5t31.5 -0.5zM159 692v66l158 -59l157 59v-66l-158 -59z" />
    <glyph glyph-name="Rcommaaccent.sc" horiz-adv-x="638" 
d="M353 210q-17 -2 -36 -3t-39 -1q-22 0 -46.5 2t-53.5 5v-213h-90v573q94 12 175 12q166 0 242 -45t76 -145q0 -67 -34.5 -108.5t-109.5 -61.5l171 -225h-104zM285 -55h93l-62 -117h-72zM283 274q58 0 97.5 6.5t64.5 20.5t36 37t11 56q0 66 -49 94.5t-162 28.5
q-26 0 -55.5 -2t-47.5 -6v-228q5 -2 16.5 -3t26 -2t31 -1.5t31.5 -0.5z" />
    <glyph glyph-name="Rdblgrave.sc" horiz-adv-x="638" 
d="M88 573q94 12 175 12q166 0 242 -45t76 -145q0 -67 -34.5 -108.5t-109.5 -61.5l171 -225h-104l-151 210q-17 -2 -36 -3t-39 -1q-22 0 -46.5 2t-53.5 5v-213h-90v573zM283 274q58 0 97.5 6.5t64.5 20.5t36 37t11 56q0 66 -49 94.5t-162 28.5q-26 0 -55.5 -2t-47.5 -6v-228
q5 -2 16.5 -3t26 -2t31 -1.5t31.5 -0.5zM128 746h92l64 -112l-68 -10zM277 746h91l63 -112l-67 -10z" />
    <glyph glyph-name="Rdotbelow.sc" horiz-adv-x="638" 
d="M88 573q94 12 175 12q166 0 242 -45t76 -145q0 -67 -34.5 -108.5t-109.5 -61.5l171 -225h-104l-151 210q-17 -2 -36 -3t-39 -1q-22 0 -46.5 2t-53.5 5v-213h-90v573zM283 274q58 0 97.5 6.5t64.5 20.5t36 37t11 56q0 66 -49 94.5t-162 28.5q-26 0 -55.5 -2t-47.5 -6v-228
q5 -2 16.5 -3t26 -2t31 -1.5t31.5 -0.5zM315 -149q-48 0 -48 45q0 46 48 46q50 0 50 -46q0 -45 -50 -45z" />
    <glyph glyph-name="Rinvertedbreve.sc" horiz-adv-x="638" 
d="M88 573q94 12 175 12q166 0 242 -45t76 -145q0 -67 -34.5 -108.5t-109.5 -61.5l171 -225h-104l-151 210q-17 -2 -36 -3t-39 -1q-22 0 -46.5 2t-53.5 5v-213h-90v573zM145 638q0 53 41.5 88.5t131.5 35.5q89 0 130 -34.5t41 -89.5h-64q0 35 -26 54t-81 19t-81.5 -19
t-26.5 -54h-65zM283 274q58 0 97.5 6.5t64.5 20.5t36 37t11 56q0 66 -49 94.5t-162 28.5q-26 0 -55.5 -2t-47.5 -6v-228q5 -2 16.5 -3t26 -2t31 -1.5t31.5 -0.5z" />
    <glyph glyph-name="S.sc" horiz-adv-x="562" 
d="M269 -9q-46 0 -105.5 6.5t-115.5 17.5v74q61 -12 117 -18.5t100 -6.5q77 0 119 23.5t42 65.5q0 26 -12 43t-32.5 28t-48.5 18t-59 14q-58 10 -99 25t-66.5 35t-37 47.5t-11.5 63.5q0 75 64.5 118.5t174.5 43.5q39 0 84 -5t102 -16v-73q-43 11 -91 16.5t-87 5.5
q-74 0 -114 -24t-40 -66q0 -40 34.5 -62.5t117.5 -40.5q45 -8 84 -19t68 -30t46 -48t17 -71q0 -81 -63.5 -123t-187.5 -42z" />
    <glyph glyph-name="Sacute.sc" horiz-adv-x="562" 
d="M269 -9q-46 0 -105.5 6.5t-115.5 17.5v74q61 -12 117 -18.5t100 -6.5q77 0 119 23.5t42 65.5q0 26 -12 43t-32.5 28t-48.5 18t-59 14q-58 10 -99 25t-66.5 35t-37 47.5t-11.5 63.5q0 75 64.5 118.5t174.5 43.5q39 0 84 -5t102 -16v-73q-43 11 -91 16.5t-87 5.5
q-74 0 -114 -24t-40 -66q0 -40 34.5 -62.5t117.5 -40.5q45 -8 84 -19t68 -30t46 -48t17 -71q0 -81 -63.5 -123t-187.5 -42zM243 635l64 116h91l-87 -122z" />
    <glyph glyph-name="Scaron.sc" horiz-adv-x="562" 
d="M269 -9q-46 0 -105.5 6.5t-115.5 17.5v74q61 -12 117 -18.5t100 -6.5q77 0 119 23.5t42 65.5q0 26 -12 43t-32.5 28t-48.5 18t-59 14q-58 10 -99 25t-66.5 35t-37 47.5t-11.5 63.5q0 75 64.5 118.5t174.5 43.5q39 0 84 -5t102 -16v-73q-43 11 -91 16.5t-87 5.5
q-74 0 -114 -24t-40 -66q0 -40 34.5 -62.5t117.5 -40.5q45 -8 84 -19t68 -30t46 -48t17 -71q0 -81 -63.5 -123t-187.5 -42zM129 758l157 -59l157 59v-66l-158 -59l-156 59v66z" />
    <glyph glyph-name="Schwa.sc" horiz-adv-x="648" 
d="M50 254q0 21 2 40t5 33h440q-5 96 -52 139.5t-150 43.5q-51 0 -109 -7t-109 -21l-4 71q21 7 48 13t57 10t61.5 6.5t60.5 2.5q149 0 221.5 -71t72.5 -216q0 -148 -73 -227t-211 -79q-123 0 -191.5 69t-68.5 193zM312 64q181 0 187 207h-361q-7 -96 39 -151.5t135 -55.5z
" />
    <glyph glyph-name="Scircumflex.sc" horiz-adv-x="562" 
d="M269 -9q-46 0 -105.5 6.5t-115.5 17.5v74q61 -12 117 -18.5t100 -6.5q77 0 119 23.5t42 65.5q0 26 -12 43t-32.5 28t-48.5 18t-59 14q-58 10 -99 25t-66.5 35t-37 47.5t-11.5 63.5q0 75 64.5 118.5t174.5 43.5q39 0 84 -5t102 -16v-73q-43 11 -91 16.5t-87 5.5
q-74 0 -114 -24t-40 -66q0 -40 34.5 -62.5t117.5 -40.5q45 -8 84 -19t68 -30t46 -48t17 -71q0 -81 -63.5 -123t-187.5 -42zM131 698l157 60l157 -60v-66l-156 59l-158 -59v66z" />
    <glyph glyph-name="Sdotbelow.sc" horiz-adv-x="562" 
d="M269 -9q-46 0 -105.5 6.5t-115.5 17.5v74q61 -12 117 -18.5t100 -6.5q77 0 119 23.5t42 65.5q0 26 -12 43t-32.5 28t-48.5 18t-59 14q-58 10 -99 25t-66.5 35t-37 47.5t-11.5 63.5q0 75 64.5 118.5t174.5 43.5q39 0 84 -5t102 -16v-73q-43 11 -91 16.5t-87 5.5
q-74 0 -114 -24t-40 -66q0 -40 34.5 -62.5t117.5 -40.5q45 -8 84 -19t68 -30t46 -48t17 -71q0 -81 -63.5 -123t-187.5 -42zM272 -149q-49 0 -49 45q0 46 49 46q47 0 47 -46q0 -45 -47 -45z" />
    <glyph glyph-name="Tbar.sc" horiz-adv-x="587" 
d="M122 324h126v182h-222v71h534v-71h-222v-182h129v-57h-129v-267h-90v267h-126v57z" />
    <glyph glyph-name="Tcaron.sc" 
d="M244 506h-222v71h534v-71h-222v-506h-90v506zM131 758l159 -59l157 59v-66l-158 -59l-158 59v66z" />
    <glyph glyph-name="Tdotbelow.sc" 
d="M244 506h-222v71h534v-71h-222v-506h-90v506zM290 -149q-49 0 -49 45q0 46 49 46t49 -46q0 -45 -49 -45z" />
    <glyph glyph-name="Thorn.sc" horiz-adv-x="624" 
d="M89 578h90v-90q21 3 43.5 4t41.5 1q166 0 242 -48.5t76 -154.5q0 -105 -75 -153.5t-236 -48.5q-17 0 -41 1.5t-51 4.5v-94h-90v578zM288 157q56 0 95 7t63 23t34.5 41.5t10.5 61.5q0 35 -11.5 60t-36.5 40.5t-65 23t-97 7.5q-25 0 -52.5 -1.5t-49.5 -3.5v-251
q7 -2 19.5 -3t27.5 -2.5t31 -2t31 -0.5z" />
    <glyph glyph-name="U.sc" horiz-adv-x="718" 
d="M360 -8q-72 0 -124.5 13.5t-86.5 43.5t-50.5 77t-16.5 113v339h89v-341q0 -94 49 -133t140 -39q89 0 138 39t49 133v341h90v-339q0 -66 -16.5 -113t-50.5 -77t-86.5 -43.5t-123.5 -13.5z" />
    <glyph glyph-name="Uacute.sc" horiz-adv-x="718" 
d="M360 -8q-74 0 -127 14.5t-86.5 44.5t-49 76.5t-15.5 111.5v339h89v-341q0 -91 47.5 -131.5t141.5 -40.5q93 0 140 40.5t47 131.5v341h90v-339q0 -65 -15.5 -111.5t-49.5 -76.5t-86.5 -44.5t-125.5 -14.5zM311 635l63 116h93l-88 -122z" />
    <glyph glyph-name="Ubreve.sc" horiz-adv-x="718" 
d="M360 -8q-74 0 -127 14.5t-86.5 44.5t-49 76.5t-15.5 111.5v339h89v-341q0 -91 47.5 -131.5t141.5 -40.5q93 0 140 40.5t47 131.5v341h90v-339q0 -65 -15.5 -111.5t-49.5 -76.5t-86.5 -44.5t-125.5 -14.5zM357 635q-90 0 -131 35t-41 89h65q0 -35 26.5 -54.5t80.5 -19.5
q55 0 81 19.5t26 54.5h64q0 -55 -41 -89.5t-130 -34.5z" />
    <glyph glyph-name="Ucircumflex.sc" horiz-adv-x="718" 
d="M360 -8q-74 0 -127 14.5t-86.5 44.5t-49 76.5t-15.5 111.5v339h89v-341q0 -91 47.5 -131.5t141.5 -40.5q93 0 140 40.5t47 131.5v341h90v-339q0 -65 -15.5 -111.5t-49.5 -76.5t-86.5 -44.5t-125.5 -14.5zM199 698l156 60l159 -60v-66l-158 59l-157 -59v66z" />
    <glyph glyph-name="Udblgrave.sc" horiz-adv-x="718" 
d="M360 -8q-74 0 -127 14.5t-86.5 44.5t-49 76.5t-15.5 111.5v339h89v-341q0 -91 47.5 -131.5t141.5 -40.5q93 0 140 40.5t47 131.5v341h90v-339q0 -65 -15.5 -111.5t-49.5 -76.5t-86.5 -44.5t-125.5 -14.5zM249 624l-89 122h93l63 -112zM397 624l-88 122h92l62 -112z" />
    <glyph glyph-name="Udieresis.sc" horiz-adv-x="718" 
d="M360 -8q-74 0 -127 14.5t-86.5 44.5t-49 76.5t-15.5 111.5v339h89v-341q0 -91 47.5 -131.5t141.5 -40.5q93 0 140 40.5t47 131.5v341h90v-339q0 -65 -15.5 -111.5t-49.5 -76.5t-86.5 -44.5t-125.5 -14.5zM232 639q-57 0 -57 53q0 52 57 52q55 0 55 -52q0 -53 -55 -53z
M482 639q-56 0 -56 53q0 52 56 52q55 0 55 -52q0 -53 -55 -53z" />
    <glyph glyph-name="Udotbelow.sc" horiz-adv-x="718" 
d="M360 -8q-74 0 -127 14.5t-86.5 44.5t-49 76.5t-15.5 111.5v339h89v-341q0 -91 47.5 -131.5t141.5 -40.5q93 0 140 40.5t47 131.5v341h90v-339q0 -65 -15.5 -111.5t-49.5 -76.5t-86.5 -44.5t-125.5 -14.5zM355 -149q-49 0 -49 45q0 46 49 46q48 0 48 -46q0 -45 -48 -45z
" />
    <glyph glyph-name="Ugrave.sc" horiz-adv-x="718" 
d="M360 -8q-74 0 -127 14.5t-86.5 44.5t-49 76.5t-15.5 111.5v339h89v-341q0 -91 47.5 -131.5t141.5 -40.5q93 0 140 40.5t47 131.5v341h90v-339q0 -65 -15.5 -111.5t-49.5 -76.5t-86.5 -44.5t-125.5 -14.5zM325 629l-89 122h93l62 -112z" />
    <glyph glyph-name="Uhungarumlaut.sc" horiz-adv-x="718" 
d="M360 -8q-74 0 -127 14.5t-86.5 44.5t-49 76.5t-15.5 111.5v339h89v-341q0 -91 47.5 -131.5t141.5 -40.5q93 0 140 40.5t47 131.5v341h90v-339q0 -65 -15.5 -111.5t-49.5 -76.5t-86.5 -44.5t-125.5 -14.5zM244 634l63 112h93l-88 -122zM393 634l63 112h92l-88 -122z" />
    <glyph glyph-name="Uinvertedbreve.sc" horiz-adv-x="718" 
d="M360 -8q-74 0 -127 14.5t-86.5 44.5t-49 76.5t-15.5 111.5v339h89v-341q0 -91 47.5 -131.5t141.5 -40.5q93 0 140 40.5t47 131.5v341h90v-339q0 -65 -15.5 -111.5t-49.5 -76.5t-86.5 -44.5t-125.5 -14.5zM462 638q0 35 -26.5 54t-81.5 19q-54 0 -81 -19t-27 -54h-63
q0 53 41 88.5t130 35.5t130.5 -34.5t41.5 -89.5h-64z" />
    <glyph glyph-name="Umacron.sc" horiz-adv-x="718" 
d="M360 -8q-74 0 -127 14.5t-86.5 44.5t-49 76.5t-15.5 111.5v339h89v-341q0 -91 47.5 -131.5t141.5 -40.5q93 0 140 40.5t47 131.5v341h90v-339q0 -65 -15.5 -111.5t-49.5 -76.5t-86.5 -44.5t-125.5 -14.5zM200 720h312v-63h-312v63z" />
    <glyph glyph-name="Uogonek.sc" horiz-adv-x="718" 
d="M348 -165q-99 0 -99 66q0 26 16 48t54 45q-125 7 -181 65t-56 180v339h89v-341q0 -91 47.5 -131.5t141.5 -40.5q93 0 140 40.5t47 131.5v341h90v-339q0 -117 -52 -175.5t-167 -68.5q-58 -23 -82.5 -41.5t-24.5 -40.5q0 -17 10.5 -21.5t28.5 -4.5q14 0 33.5 2.5t34.5 5.5
v-50q-14 -5 -33 -7.5t-37 -2.5z" />
    <glyph glyph-name="Uring.sc" horiz-adv-x="718" 
d="M360 -8q-74 0 -127 14.5t-86.5 44.5t-49 76.5t-15.5 111.5v339h89v-341q0 -91 47.5 -131.5t141.5 -40.5q93 0 140 40.5t47 131.5v341h90v-339q0 -65 -15.5 -111.5t-49.5 -76.5t-86.5 -44.5t-125.5 -14.5zM358 622q-48 0 -81 23.5t-33 61.5q0 19 9 35t24 28t36 18.5
t45 6.5q48 0 80.5 -25t32.5 -63t-32.5 -61.5t-80.5 -23.5zM358 659q33 0 49.5 12.5t16.5 35.5q0 50 -66 50q-68 0 -68 -50q0 -23 17.5 -35.5t50.5 -12.5z" />
    <glyph glyph-name="Utilde.sc" horiz-adv-x="718" 
d="M360 -8q-74 0 -127 14.5t-86.5 44.5t-49 76.5t-15.5 111.5v339h89v-341q0 -91 47.5 -131.5t141.5 -40.5q93 0 140 40.5t47 131.5v341h90v-339q0 -65 -15.5 -111.5t-49.5 -76.5t-86.5 -44.5t-125.5 -14.5zM169 676q29 35 60 52t62 17q22 0 42.5 -5t40 -10.5t39 -10.5
t40.5 -5q22 0 43 6.5t45 21.5l20 -23q-27 -34 -60 -51.5t-66 -17.5q-20 0 -40 5t-40.5 10.5t-40.5 10.5t-40 5q-21 0 -41 -6t-43 -23z" />
    <glyph glyph-name="V.sc" horiz-adv-x="647" 
d="M14 577h98l165 -386l46 -116h3l46 116l164 386h98l-250 -577h-121z" />
    <glyph glyph-name="W.sc" horiz-adv-x="950" 
d="M24 577h96l115 -377l31 -114h7l34 114l123 377h90l122 -377l35 -114h6l32 114l115 377h96l-181 -577h-123l-113 347l-31 118h-6l-30 -120l-114 -345h-123z" />
    <glyph glyph-name="Wacute.sc" horiz-adv-x="950" 
d="M24 577h96l115 -377l31 -114h7l34 114l123 377h90l122 -377l35 -114h6l32 114l115 377h96l-181 -577h-123l-113 347l-31 118h-6l-30 -120l-114 -345h-123zM436 635l63 116h92l-88 -122z" />
    <glyph glyph-name="Wcircumflex.sc" horiz-adv-x="950" 
d="M24 577h96l115 -377l31 -114h7l34 114l123 377h90l122 -377l35 -114h6l32 114l115 377h96l-181 -577h-123l-113 347l-31 118h-6l-30 -120l-114 -345h-123zM317 698l158 60l158 -60v-66l-157 59l-159 -59v66z" />
    <glyph glyph-name="Wdieresis.sc" horiz-adv-x="950" 
d="M24 577h96l115 -377l31 -114h7l34 114l123 377h90l122 -377l35 -114h6l32 114l115 377h96l-181 -577h-123l-113 347l-31 118h-6l-30 -120l-114 -345h-123zM350 639q-56 0 -56 53q0 52 56 52q55 0 55 -52q0 -53 -55 -53zM599 639q-54 0 -54 53q0 52 54 52q56 0 56 -52
q0 -53 -56 -53z" />
    <glyph glyph-name="Wgrave.sc" horiz-adv-x="950" 
d="M24 577h96l115 -377l31 -114h7l34 114l123 377h90l122 -377l35 -114h6l32 114l115 377h96l-181 -577h-123l-113 347l-31 118h-6l-30 -120l-114 -345h-123zM437 629l-88 122h93l63 -112z" />
    <glyph glyph-name="X.sc" horiz-adv-x="638" 
d="M253 300l-228 277h107l172 -206l14 -23h5l14 23l169 206h107l-232 -282l248 -295h-108l-187 227l-12 20h-5l-13 -20l-187 -227h-107z" />
    <glyph glyph-name="Y.sc" horiz-adv-x="598" 
d="M253 192l-243 385h99l160 -257l28 -53h5l27 53l159 257h99l-241 -385v-192h-93v192z" />
    <glyph glyph-name="Yacute.sc" horiz-adv-x="598" 
d="M253 192l-243 385h99l160 -257l28 -53h5l27 53l159 257h99l-241 -385v-192h-93v192zM262 635l62 116h93l-88 -122z" />
    <glyph glyph-name="Ycircumflex.sc" horiz-adv-x="598" 
d="M253 192l-243 385h99l160 -257l28 -53h5l27 53l159 257h99l-241 -385v-192h-93v192zM140 698l157 60l158 -60v-66l-157 59l-158 -59v66z" />
    <glyph glyph-name="Ydieresis.sc" horiz-adv-x="598" 
d="M173 639q-56 0 -56 53q0 52 56 52q55 0 55 -52q0 -53 -55 -53zM424 639q-56 0 -56 53q0 52 56 52q54 0 54 -52q0 -53 -54 -53zM253 192l-243 385h99l160 -257l28 -53h5l27 53l159 257h99l-241 -385v-192h-93v192z" />
    <glyph glyph-name="Ygrave.sc" horiz-adv-x="598" 
d="M253 192l-243 385h99l160 -257l28 -53h5l27 53l159 257h99l-241 -385v-192h-93v192zM176 751h93l63 -112l-67 -10z" />
    </font>
</defs>
</svg>
