<?xml version="1.0" standalone="no"?>
<!DOCTYPE svg PUBLIC "-//W3C//DTD SVG 1.1//EN" "http://www.w3.org/Graphics/SVG/1.1/DTD/svg11.dtd" >
<svg xmlns="http://www.w3.org/2000/svg" xmlns:xlink="http://www.w3.org/1999/xlink" version="1.1">
<metadata>
Created by FontForge 20190801 at Thu Mar 27 15:46:10 2014
 By Jimmy Wärting
Copyright (c) 2012, Impallari Type (www.impallari.com), with Reserved Font Name Encode Sans.
</metadata>
<defs>
<font id="EncodeSansWide-SemiBold" horiz-adv-x="614" >
  <font-face 
    font-family="Encode Sans Wide"
    font-weight="600"
    font-stretch="normal"
    units-per-em="1000"
    panose-1="2 0 0 0 0 0 0 0 0 0"
    ascent="800"
    descent="-200"
    x-height="540"
    cap-height="740"
    bbox="-132 -220 1872 1030"
    underline-thickness="55"
    underline-position="-111"
    unicode-range="U+000D-FB04"
  />
<missing-glyph horiz-adv-x="850" 
d="M88 1030h673v-1250h-673v1250zM642 -108v1027h-434v-1027h434z" />
    <glyph glyph-name="f_b" unicode="fb" horiz-adv-x="1157" 
d="M147 417h-131v123h132v23q0 72 15.5 120t52.5 76.5t97.5 41t150.5 14.5l7 -104q-52 -2 -86.5 -8.5t-55 -21t-29 -39t-8.5 -62.5v-40h156v-123h-156v-417h-145v417zM812 -11q-25 0 -51.5 1t-57.5 3.5t-69 7.5t-86 14v793h146v-328q61 70 177 70q120 0 182.5 -67t62.5 -206
q0 -72 -22 -126t-62 -90t-96 -54t-124 -18zM809 90q43 0 74 8.5t50 29.5t28 55.5t9 85.5q0 47 -7.5 79.5t-24 52t-42.5 28t-64 8.5q-60 0 -99 -25t-39 -73v-240q21 -4 50.5 -6.5t64.5 -2.5z" />
    <glyph glyph-name="f_f" unicode="ff" horiz-adv-x="924" 
d="M146 417h-131v123h132v23q0 72 15.5 120t52.5 76.5t97.5 41t150.5 14.5l7 -104q-52 -2 -86.5 -8.5t-55 -21t-29 -39t-8.5 -62.5v-40h156v-123h-156v-417h-145v417zM608 417h-131v123h132v23q0 72 15.5 120t52.5 76.5t97.5 41t150.5 14.5l7 -104q-52 -2 -86.5 -8.5
t-55 -21t-29 -39t-8.5 -62.5v-40h156v-123h-156v-417h-145v417z" />
    <glyph glyph-name="f_f_b" unicode="ffb" horiz-adv-x="1616" 
d="M606 417h-131v123h132v23q0 72 15.5 120t52.5 76.5t97.5 41t150.5 14.5l7 -104q-52 -2 -86.5 -8.5t-55 -21t-29 -39t-8.5 -62.5v-40h156v-123h-156v-417h-145v417zM1271 -11q-25 0 -51.5 1t-57.5 3.5t-69 7.5t-86 14v793h146v-328q61 70 177 70q120 0 182.5 -67
t62.5 -206q0 -72 -22 -126t-62 -90t-96 -54t-124 -18zM1268 90q43 0 74 8.5t50 29.5t28 55.5t9 85.5q0 47 -7.5 79.5t-24 52t-42.5 28t-64 8.5q-60 0 -99 -25t-39 -73v-240q21 -4 50.5 -6.5t64.5 -2.5zM147 417h-131v123h132v23q0 72 15.5 120t52.5 76.5t97.5 41t150.5 14.5
l7 -104q-52 -2 -86.5 -8.5t-55 -21t-29 -39t-8.5 -62.5v-40h156v-123h-156v-417h-145v417z" />
    <glyph glyph-name="f_f_h" unicode="ffh" horiz-adv-x="1619" 
d="M1008 808h145v-329q78 35 136 53t105 18q75 0 117 -38.5t42 -113.5v-398h-145v349q0 48 -19 68t-57 20q-33 0 -80 -12.5t-99 -33.5v-391h-145v808zM606 417h-131v123h132v23q0 72 15.5 120t52.5 76.5t97.5 41t150.5 14.5l7 -104q-52 -2 -86.5 -8.5t-55 -21t-29 -39
t-8.5 -62.5v-40h156v-123h-156v-417h-145v417zM146 417h-131v123h132v23q0 72 15.5 120t52.5 76.5t97.5 41t150.5 14.5l7 -104q-52 -2 -86.5 -8.5t-55 -21t-29 -39t-8.5 -62.5v-40h156v-123h-156v-417h-145v417z" />
    <glyph glyph-name="f_f_i" unicode="ffi" horiz-adv-x="1225" 
d="M1080 628q-43 0 -61.5 18.5t-18.5 60.5t18.5 61t61.5 19q45 0 64 -20t19 -60q0 -39 -19 -59t-64 -20zM1008 540h145v-540h-145v540zM606 417h-131v123h132v23q0 72 15.5 120t52.5 76.5t97.5 41t150.5 14.5l7 -104q-52 -2 -86.5 -8.5t-55 -21t-29 -39t-8.5 -62.5v-40h156
v-123h-156v-417h-145v417zM146 417h-131v123h132v23q0 72 15.5 120t52.5 76.5t97.5 41t150.5 14.5l7 -104q-52 -2 -86.5 -8.5t-55 -21t-29 -39t-8.5 -62.5v-40h156v-123h-156v-417h-145v417z" />
    <glyph glyph-name="f_f_j" unicode="ffj" horiz-adv-x="1227" 
d="M606 417h-131v123h132v23q0 72 15.5 120t52.5 76.5t97.5 41t150.5 14.5l7 -104q-52 -2 -86.5 -8.5t-55 -21t-29 -39t-8.5 -62.5v-40h156v-123h-156v-417h-145v417zM1082 628q-44 0 -62.5 18.5t-18.5 60.5t18.5 61t62.5 19q45 0 63.5 -20t18.5 -60q0 -39 -18.5 -59
t-63.5 -20zM959 -200q15 41 25.5 78.5t17 78t9.5 88.5t3 110v61v103.5t-0.5 117.5t-1.5 103h144v-461q-6 -85 -28.5 -158t-61.5 -141zM146 417h-131v123h132v23q0 72 15.5 120t52.5 76.5t97.5 41t150.5 14.5l7 -104q-52 -2 -86.5 -8.5t-55 -21t-29 -39t-8.5 -62.5v-40h156
v-123h-156v-417h-145v417z" />
    <glyph glyph-name="f_f_k" unicode="ffk" horiz-adv-x="1565" 
d="M1008 808h145v-485h79l160 217h162l-198 -253l-23 -7v-4l24 -8l214 -268h-161l-180 233h-77v-233h-145v808zM606 417h-131v123h132v23q0 72 15.5 120t52.5 76.5t97.5 41t150.5 14.5l7 -104q-52 -2 -86.5 -8.5t-55 -21t-29 -39t-8.5 -62.5v-40h156v-123h-156v-417h-145
v417zM146 417h-131v123h132v23q0 72 15.5 120t52.5 76.5t97.5 41t150.5 14.5l7 -104q-52 -2 -86.5 -8.5t-55 -21t-29 -39t-8.5 -62.5v-40h156v-123h-156v-417h-145v417z" />
    <glyph glyph-name="f_f_l" unicode="ffl" horiz-adv-x="1225" 
d="M606 417h-131v123h132v23q0 72 15.5 120t52.5 76.5t97.5 41t150.5 14.5l7 -104q-52 -2 -86.5 -8.5t-55 -21t-29 -39t-8.5 -62.5v-40h156v-123h-156v-417h-145v417zM1008 808h145v-808h-145v808zM146 417h-131v123h132v23q0 72 15.5 120t52.5 76.5t97.5 41t150.5 14.5
l7 -104q-52 -2 -86.5 -8.5t-55 -21t-29 -39t-8.5 -62.5v-40h156v-123h-156v-417h-145v417z" />
    <glyph glyph-name="f_f_t" unicode="fft" horiz-adv-x="1376" 
d="M606 417h-131v123h132v23q0 72 15.5 120t52.5 76.5t97.5 41t150.5 14.5l7 -104q-52 -2 -86.5 -8.5t-55 -21t-29 -39t-8.5 -62.5v-40h156v-123h-156v-417h-145v417zM1230 -13q-90 0 -136.5 43t-46.5 128v259h-105v123h115l22 149l112 13v-162h156v-123h-154v-227
q0 -48 20 -69t67 -21q33 0 71 13v-110q-24 -8 -56.5 -12t-64.5 -4zM147 417h-131v123h132v23q0 72 15.5 120t52.5 76.5t97.5 41t150.5 14.5l7 -104q-52 -2 -86.5 -8.5t-55 -21t-29 -39t-8.5 -62.5v-40h156v-123h-156v-417h-145v417z" />
    <glyph glyph-name="f_h" unicode="fh" horiz-adv-x="1161" 
d="M549 808h145v-329q78 35 136 53t105 18q75 0 117 -38.5t42 -113.5v-398h-145v349q0 48 -19 68t-57 20q-33 0 -80 -12.5t-99 -33.5v-391h-145v808zM146 417h-131v123h132v23q0 72 15.5 120t52.5 76.5t97.5 41t150.5 14.5l7 -104q-52 -2 -86.5 -8.5t-55 -21t-29 -39
t-8.5 -62.5v-40h156v-123h-156v-417h-145v417z" />
    <glyph glyph-name="f_i" unicode="fi" horiz-adv-x="765" 
d="M621 628q-43 0 -61.5 18.5t-18.5 60.5t18.5 61t61.5 19q45 0 64 -20t19 -60q0 -39 -19 -59t-64 -20zM549 540h145v-540h-145v540zM146 417h-131v123h132v23q0 72 15.5 120t52.5 76.5t97.5 41t150.5 14.5l7 -104q-52 -2 -86.5 -8.5t-55 -21t-29 -39t-8.5 -62.5v-40h156
v-123h-156v-417h-145v417z" />
    <glyph glyph-name="f_j" unicode="fj" horiz-adv-x="767" 
d="M146 417h-131v123h132v23q0 72 15.5 120t52.5 76.5t97.5 41t150.5 14.5l7 -104q-52 -2 -86.5 -8.5t-55 -21t-29 -39t-8.5 -62.5v-40h156v-123h-156v-417h-145v417zM623 628q-44 0 -62.5 18.5t-18.5 60.5t18.5 61t62.5 19q45 0 63.5 -20t18.5 -60q0 -39 -18.5 -59
t-63.5 -20zM500 -200q15 41 25.5 78.5t17 78t9.5 88.5t3 110v61v103.5t-0.5 117.5t-1.5 103h144v-461q-6 -85 -28.5 -158t-61.5 -141z" />
    <glyph glyph-name="f_k" unicode="fk" horiz-adv-x="1106" 
d="M549 808h145v-485h79l160 217h162l-198 -253l-23 -7v-4l24 -8l214 -268h-161l-180 233h-77v-233h-145v808zM146 417h-131v123h132v23q0 72 15.5 120t52.5 76.5t97.5 41t150.5 14.5l7 -104q-52 -2 -86.5 -8.5t-55 -21t-29 -39t-8.5 -62.5v-40h156v-123h-156v-417h-145v417
z" />
    <glyph glyph-name="f_l" unicode="fl" horiz-adv-x="766" 
d="M146 417h-131v123h132v23q0 72 15.5 120t52.5 76.5t97.5 41t150.5 14.5l7 -104q-52 -2 -86.5 -8.5t-55 -21t-29 -39t-8.5 -62.5v-40h156v-123h-156v-417h-145v417zM549 808h145v-808h-145v808z" />
    <glyph glyph-name="f_t" unicode="ft" horiz-adv-x="917" 
d="M147 417h-131v123h132v23q0 72 15.5 120t52.5 76.5t97.5 41t150.5 14.5l7 -104q-52 -2 -86.5 -8.5t-55 -21t-29 -39t-8.5 -62.5v-40h156v-123h-156v-417h-145v417zM771 -13q-90 0 -136.5 43t-46.5 128v259h-105v123h115l22 149l112 13v-162h156v-123h-154v-227
q0 -48 20 -69t67 -21q33 0 71 13v-110q-24 -8 -56.5 -12t-64.5 -4z" />
    <glyph glyph-name=".notdef" horiz-adv-x="850" 
d="M88 1030h673v-1250h-673v1250zM642 -108v1027h-434v-1027h434z" />
    <glyph glyph-name="NULL" horiz-adv-x="0" 
 />
    <glyph glyph-name="NULL" horiz-adv-x="0" 
 />
    <glyph glyph-name="nonmarkingreturn" unicode="&#xd;" horiz-adv-x="312" 
 />
    <glyph glyph-name="space" unicode=" " horiz-adv-x="234" 
 />
    <glyph glyph-name="AE.sc" horiz-adv-x="918" 
d="M4 9l289 568h566v-104h-303l8 -137h278v-90h-269l10 -142h291v-104h-432l-6 133h-228l-67 -133h-137v9zM259 226h171l-10 255h-31z" />
    <glyph glyph-name="AEacute" unicode="&#x1fc;" horiz-adv-x="1002" 
d="M500 814l70 160h149l-111 -168zM-1 10l322 730h622v-115h-341l11 -195h310v-115h-303l12 -200h326v-115h-474l-8 188h-251l-83 -188h-143v10zM278 309h193l-13 327h-35z" />
    <glyph glyph-name="acute.cap" horiz-adv-x="358" 
d="M102 814l70 160h149l-111 -168z" />
    <glyph glyph-name="AEacute.sc" horiz-adv-x="918" 
d="M4 9l289 568h566v-104h-303l8 -137h278v-90h-269l10 -142h291v-104h-432l-6 133h-228l-67 -133h-137v9zM430 226l-10 255h-31l-130 -255h171zM449 637l61 133h142l-100 -140z" />
    <glyph glyph-name="Aacute" unicode="&#xc1;" horiz-adv-x="762" 
d="M2 9l269 731h220l269 -731v-9h-145l-70 191h-329l-69 -191h-145v9zM508 307l-69 184l-52 149h-13l-51 -150l-68 -183h253zM322 814l70 160h149l-111 -168z" />
    <glyph glyph-name="Aacute.sc" horiz-adv-x="696" 
d="M7 8l236 569h210l237 -569v-8h-139l-58 133h-290l-58 -133h-138v8zM461 235l-61 141l-47 107h-12l-45 -109l-61 -139h226zM293 637l60 133h142l-101 -140z" />
    <glyph glyph-name="Abreve" unicode="&#x102;" horiz-adv-x="762" 
d="M2 9l269 731h220l269 -731v-9h-145l-70 191h-329l-69 -191h-145v9zM508 307l-69 184l-52 149h-13l-51 -150l-68 -183h253zM381 813q-59 0 -100 12.5t-67 35t-38 53.5t-12 67h100q0 -45 27 -69t90 -24t90 24t27 69h100q0 -37 -12 -67.5t-38 -53t-67.5 -35t-99.5 -12.5z
" />
    <glyph glyph-name="breve.cap" horiz-adv-x="519" 
d="M259 813q-59 0 -100 12.5t-67 35t-38 53.5t-12 67h100q0 -45 27 -69t90 -24t90 24t27 69h100q0 -37 -12 -67.5t-38 -53t-67.5 -35t-99.5 -12.5z" />
    <glyph glyph-name="Abreve.sc" horiz-adv-x="696" 
d="M348 634q-55 0 -92.5 11t-61 29.5t-34 44t-10.5 54.5h94q0 -34 23.5 -52.5t80.5 -18.5t80.5 18.5t23.5 52.5h93q0 -30 -10.5 -55t-33.5 -44t-61 -29.5t-92 -10.5zM7 8l236 569h210l237 -569v-8h-139l-58 133h-290l-58 -133h-138v8zM461 235l-61 141l-47 107h-12l-45 -109
l-61 -139h226z" />
    <glyph glyph-name="Acircumflex" unicode="&#xc2;" horiz-adv-x="762" 
d="M2 9l269 731h220l269 -731v-9h-145l-70 191h-329l-69 -191h-145v9zM508 307l-69 184l-52 149h-13l-51 -150l-68 -183h253zM184 908l197 78l200 -78v-102l-199 78l-198 -78v102z" />
    <glyph glyph-name="circumflex.cap" horiz-adv-x="504" 
d="M51 908l197 78l200 -78v-102l-199 78l-198 -78v102z" />
    <glyph glyph-name="Acircumflex.sc" horiz-adv-x="696" 
d="M7 8l236 569h210l237 -569v-8h-139l-58 133h-290l-58 -133h-138v8zM461 235l-61 141l-47 107h-12l-45 -109l-61 -139h226zM168 720l180 62l183 -62v-93l-181 61l-182 -61v93z" />
    <glyph glyph-name="Adblgrave" unicode="&#x200;" horiz-adv-x="762" 
d="M2 9l269 731h220l269 -731v-9h-145l-70 191h-329l-69 -191h-145v9zM508 307l-69 184l-52 149h-13l-51 -150l-68 -183h253zM220 801l-111 169h147l68 -157zM419 801l-113 169h147l70 -157z" />
    <glyph glyph-name="uni030F.cap" horiz-adv-x="583" 
d="M166 801l-111 169h147l68 -157zM365 801l-113 169h147l70 -157z" />
    <glyph glyph-name="Adblgrave.sc" horiz-adv-x="696" 
d="M7 8l236 569h210l237 -569v-8h-139l-58 133h-290l-58 -133h-138v8zM461 235l-61 141l-47 107h-12l-45 -109l-61 -139h226zM96 768h142l58 -132l-99 -9zM278 768h141l60 -132l-100 -9z" />
    <glyph glyph-name="Adieresis" unicode="&#xc4;" horiz-adv-x="762" 
d="M2 9l269 731h220l269 -731v-9h-145l-70 191h-329l-69 -191h-145v9zM508 307l-69 184l-52 149h-13l-51 -150l-68 -183h253zM233 811q-44 0 -63.5 19.5t-19.5 62.5q0 42 19.5 61.5t63.5 19.5t63.5 -19.5t19.5 -61.5t-19.5 -62t-63.5 -20zM530 811q-44 0 -63.5 19.5
t-19.5 62.5q0 42 19.5 61.5t63.5 19.5q45 0 64 -19.5t19 -61.5t-19 -62t-64 -20z" />
    <glyph glyph-name="dieresis.cap" horiz-adv-x="536" 
d="M119 811q-44 0 -63.5 19.5t-19.5 62.5q0 42 19.5 61.5t63.5 19.5t63.5 -19.5t19.5 -61.5t-19.5 -62t-63.5 -20zM416 811q-44 0 -63.5 19.5t-19.5 62.5q0 42 19.5 61.5t63.5 19.5q45 0 64 -19.5t19 -61.5t-19 -62t-64 -20z" />
    <glyph glyph-name="Adieresis.sc" horiz-adv-x="696" 
d="M214 629q-42 0 -60 17.5t-18 56.5q0 38 18 56t60 18t60 -18t18 -56t-18 -56t-60 -18zM482 629q-42 0 -60.5 17.5t-18.5 56.5q0 38 18.5 56t60.5 18t60 -18t18 -56t-18 -56t-60 -18zM7 8l236 569h210l237 -569v-8h-139l-58 133h-290l-58 -133h-138v8zM461 235l-61 141
l-47 107h-12l-45 -109l-61 -139h226z" />
    <glyph glyph-name="Agrave" unicode="&#xc0;" horiz-adv-x="762" 
d="M2 9l269 731h220l269 -731v-9h-145l-70 191h-329l-69 -191h-145v9zM508 307l-69 184l-52 149h-13l-51 -150l-68 -183h253zM317 806l-112 168h150l69 -156z" />
    <glyph glyph-name="grave.cap" horiz-adv-x="362" 
d="M148 806l-112 168h150l69 -156z" />
    <glyph glyph-name="Agrave.sc" horiz-adv-x="696" 
d="M7 8l236 569h210l237 -569v-8h-139l-58 133h-290l-58 -133h-138v8zM461 235l-61 141l-47 107h-12l-45 -109l-61 -139h226zM286 630l-102 140h144l59 -131z" />
    <glyph glyph-name="Ainvertedbreve" unicode="&#x202;" horiz-adv-x="762" 
d="M2 9l269 731h220l269 -731v-9h-145l-70 191h-329l-69 -191h-145v9zM508 307l-69 184l-52 149h-13l-51 -150l-68 -183h253zM499 819q0 44 -27 68.5t-91 24.5q-63 0 -90 -24.5t-27 -68.5h-99q0 36 12 66.5t37.5 53t66.5 35t100 12.5t100 -12.5t67 -34.5t38 -52.5t12 -67.5
h-99z" />
    <glyph glyph-name="uni0311.cap" horiz-adv-x="514" 
d="M374 819q0 44 -27 68.5t-91 24.5q-63 0 -90 -24.5t-27 -68.5h-99q0 36 12 66.5t37.5 53t66.5 35t100 12.5t100 -12.5t67 -34.5t38 -52.5t12 -67.5h-99z" />
    <glyph glyph-name="Ainvertedbreve.sc" horiz-adv-x="696" 
d="M150 640q0 29 10.5 54.5t34 44t61 29.5t92.5 11q54 0 92 -10.5t61 -29.5t33.5 -44t10.5 -55h-93q0 33 -23.5 52t-80.5 19t-80.5 -19t-23.5 -52h-94zM7 8l236 569h210l237 -569v-8h-139l-58 133h-290l-58 -133h-138v8zM461 235l-61 141l-47 107h-12l-45 -109l-61 -139h226
z" />
    <glyph glyph-name="Amacron" unicode="&#x100;" horiz-adv-x="762" 
d="M2 9l269 731h220l269 -731v-9h-145l-70 191h-329l-69 -191h-145v9zM508 307l-69 184l-52 149h-13l-51 -150l-68 -183h253zM185 941h393v-99h-393v99z" />
    <glyph glyph-name="macron.cap" horiz-adv-x="511" 
d="M59 941h393v-99h-393v99z" />
    <glyph glyph-name="Amacron.sc" horiz-adv-x="696" 
d="M7 8l236 569h210l237 -569v-8h-139l-58 133h-290l-58 -133h-138v8zM461 235l-61 141l-47 107h-12l-45 -109l-61 -139h226zM169 749h359v-92h-359v92z" />
    <glyph glyph-name="Aogonek" unicode="&#x104;" horiz-adv-x="761" 
d="M675 -220q-66 0 -101 22t-35 66q0 73 102 132h-26l-70 191h-329l-69 -191h-145v9l269 731h220l269 -731v-22q-68 -31 -96 -54t-28 -47q0 -28 37 -28q14 0 39 4t48 10v-80q-35 -12 -85 -12zM508 307l-69 184l-52 149h-13l-51 -150l-68 -183h253z" />
    <glyph glyph-name="ogonek" unicode="&#x2db;" horiz-adv-x="329" 
d="M186 -220q-66 0 -101 22t-35 66q0 73 102 132h119v-13q-68 -31 -96 -54t-28 -47q0 -28 37 -28q14 0 39 4t48 10v-80q-35 -12 -85 -12z" />
    <glyph glyph-name="Aogonek.sc" horiz-adv-x="695" 
d="M610 -171q-60 0 -91.5 19t-31.5 52q0 26 20.5 53t61.5 47h-19l-58 133h-290l-58 -133h-138v8l236 569h210l237 -569v-15q-34 -12 -55.5 -22t-34 -18t-17 -15.5t-4.5 -14.5q0 -13 7.5 -16.5t23.5 -3.5q7 0 17.5 0.5t21.5 2t22 3.5t19 4v-75q-18 -5 -38.5 -7t-40.5 -2z
M459 235l-60 142l-47 106h-12l-45 -108l-62 -140h226z" />
    <glyph glyph-name="Aring" unicode="&#xc5;" horiz-adv-x="762" 
d="M2 9l269 731h220l269 -731v-9h-145l-70 191h-329l-69 -191h-145v9zM508 307l-69 184l-52 149h-13l-51 -150l-68 -183h253zM383 791q-29 0 -54 8.5t-43 23.5t-28.5 35.5t-10.5 45.5t10.5 46t28.5 36t43 23.5t54 8.5t53.5 -8.5t42.5 -23.5t28.5 -36t10.5 -46t-10.5 -45.5
t-28.5 -35.5t-42.5 -23.5t-53.5 -8.5zM383 846q71 0 71 58q0 59 -71 59q-38 0 -55 -15t-17 -44t17 -43.5t55 -14.5z" />
    <glyph glyph-name="ring.cap" horiz-adv-x="412" 
d="M206 791q-29 0 -54 8.5t-43 23.5t-28.5 35.5t-10.5 45.5t10.5 46t28.5 36t43 23.5t54 8.5t53.5 -8.5t42.5 -23.5t28.5 -36t10.5 -46t-10.5 -45.5t-28.5 -35.5t-42.5 -23.5t-53.5 -8.5zM206 846q71 0 71 58q0 59 -71 59q-38 0 -55 -15t-17 -44t17 -43.5t55 -14.5z" />
    <glyph glyph-name="Aring.sc" horiz-adv-x="696" 
d="M7 8l236 569h210l237 -569v-8h-139l-58 133h-290l-58 -133h-138v8zM461 235l-61 141l-47 107h-12l-45 -109l-61 -139h226zM350 616q-53 0 -88 24.5t-35 65.5q0 19 9.5 36t26 29t39 19t48.5 7q52 0 86.5 -26t34.5 -65q0 -41 -34.5 -65.5t-86.5 -24.5zM350 664
q33 0 47.5 10.5t14.5 31.5t-14.5 32t-47.5 11q-34 0 -48.5 -11t-14.5 -32t14.5 -31.5t48.5 -10.5z" />
    <glyph glyph-name="Aringacute" unicode="&#x1fa;" horiz-adv-x="763" 
d="M3 9l243 665q-19 15 -29.5 36.5t-10.5 47.5q0 51 35.5 85t95.5 45l52 112h150l-80 -120q46 -15 73 -47t27 -75q0 -27 -11 -49t-31 -39l243 -661v-9h-144l-70 188h-330l-69 -188h-144v9zM382 695q39 0 63 17t24 46t-24 46t-63 17t-62 -17t-23 -46t23.5 -46t61.5 -17z
M507 309l-67 182l-42 122h-34l-42 -123l-67 -181h252z" />
    <glyph glyph-name="Aringacute.sc" horiz-adv-x="697" 
d="M7 8l215 520q-34 26 -34 64q0 42 32 70t86 37l46 90h142l-72 -98q42 -12 66.5 -38t24.5 -61q0 -20 -10.5 -37t-27.5 -31l215 -516v-8h-138l-59 133h-290l-58 -133h-138v8zM349 546q35 0 56 13t21 33q0 22 -21 34.5t-56 12.5t-55 -12.5t-20 -34.5q0 -21 20.5 -33.5
t54.5 -12.5zM462 235l-62 141l-38 93h-29l-36 -95l-61 -139h226z" />
    <glyph glyph-name="Atilde" unicode="&#xc3;" horiz-adv-x="762" 
d="M2 9l269 731h220l269 -731v-9h-145l-70 191h-329l-69 -191h-145v9zM508 307l-69 184l-52 149h-13l-51 -150l-68 -183h253zM148 864q34 53 75.5 79t79.5 26q27 0 52 -6t49.5 -13.5t49 -13.5t50.5 -6q25 0 48.5 8t52.5 29l23 -32q-33 -52 -75.5 -78.5t-81.5 -26.5
q-26 0 -51 6t-49.5 13t-49 13t-49.5 6t-48.5 -7.5t-51.5 -28.5z" />
    <glyph glyph-name="tilde.cap" horiz-adv-x="529" 
d="M30 864q34 53 75.5 79t79.5 26q27 0 52 -6t49.5 -13.5t49 -13.5t50.5 -6q25 0 48.5 8t52.5 29l23 -32q-33 -52 -75.5 -78.5t-81.5 -26.5q-26 0 -51 6t-49.5 13t-49 13t-49.5 6t-48.5 -7.5t-51.5 -28.5z" />
    <glyph glyph-name="Atilde.sc" horiz-adv-x="696" 
d="M7 8l236 569h210l237 -569v-8h-139l-58 133h-290l-58 -133h-138v8zM461 235l-61 141l-47 107h-12l-45 -109l-61 -139h226zM136 674q30 48 68 71.5t73 23.5q24 0 46.5 -4.5t45 -10t45 -10t45.5 -4.5q22 0 43.5 5.5t48.5 22.5l20 -27q-31 -48 -69.5 -71.5t-73.5 -23.5
q-23 0 -46 4.5t-45.5 10.5t-45.5 10.5t-45 4.5q-23 0 -43.5 -6t-45.5 -23z" />
    <glyph glyph-name="B" unicode="B" horiz-adv-x="737" 
d="M382 -10q-72 0 -143.5 3.5t-155.5 11.5v730q78 7 143.5 10.5t128.5 3.5q83 0 142.5 -12t98 -36.5t56.5 -63.5t18 -93q0 -63 -34.5 -106t-97.5 -57v-4q77 -15 117 -60.5t40 -117.5q0 -107 -76.5 -158t-236.5 -51zM373 95q91 0 133.5 28.5t42.5 89.5q0 59 -39 86.5
t-124 27.5h-161v-225q10 -2 22.5 -3.5t29.5 -2.5t40.5 -1h55.5zM374 423q82 0 116.5 25.5t34.5 86.5t-37 85.5t-127 24.5q-43 0 -76 -1.5t-60 -6.5v-214h149z" />
    <glyph glyph-name="B.sc" horiz-adv-x="675" 
d="M354 -8q-67 0 -132.5 3t-143.5 9v569q71 5 131 8t118 3q150 0 217 -38t67 -123q0 -48 -31 -80.5t-88 -44.5v-3q69 -12 105 -47t36 -91q0 -85 -68 -125t-211 -40zM344 87q78 0 114 20t36 64q0 42 -33 61t-105 19h-142v-160q9 -1 19.5 -2t25 -1.5t35 -0.5h50.5zM343 334
q71 0 100.5 18t29.5 61t-31.5 60t-109.5 17q-37 0 -66 -1t-52 -4v-151h129z" />
    <glyph glyph-name="C" unicode="C" horiz-adv-x="634" 
d="M422 -11q-376 0 -376 379q0 385 366 385q36 0 82 -5t101 -13v-120q-32 4 -56.5 7t-44 4.5t-35.5 2.5t-31 1q-63 0 -107 -14t-71 -45.5t-39.5 -81t-12.5 -120.5q0 -70 12 -119t39 -80t69.5 -45t103.5 -14q18 0 41.5 1.5t48 4t47 6t36.5 6.5v-120q-39 -9 -87 -14.5
t-86 -5.5z" />
    <glyph glyph-name="C.sc" horiz-adv-x="581" 
d="M385 -10q-172 0 -255.5 73.5t-83.5 223.5q0 301 329 301q36 0 77.5 -3.5t86.5 -9.5v-113q-48 5 -81 8t-67 3q-57 0 -95.5 -9.5t-62 -31.5t-33 -57.5t-9.5 -86.5q0 -50 9.5 -85t32 -56.5t59.5 -31t93 -9.5q16 0 37.5 1t43 2.5t41.5 4t32 4.5v-114q-34 -6 -75.5 -10
t-78.5 -4z" />
    <glyph glyph-name="A.sc" horiz-adv-x="696" 
d="M7 8l236 569h210l237 -569v-8h-139l-58 133h-290l-58 -133h-138v8zM462 229l-62 147l-47 107h-12l-45 -109l-63 -145h229z" />
    <glyph glyph-name="Cacute" unicode="&#x106;" horiz-adv-x="634" 
d="M422 -11q-376 0 -376 379q0 385 366 385q36 0 82 -5t101 -13v-120q-32 4 -56.5 7t-44 4.5t-35.5 2.5t-31 1q-63 0 -107 -14t-71 -45.5t-39.5 -81t-12.5 -120.5q0 -70 12 -119t39 -80t69.5 -45t103.5 -14q18 0 41.5 1.5t48 4t47 6t36.5 6.5v-120q-39 -9 -87 -14.5
t-86 -5.5zM303 814l70 160h149l-111 -168z" />
    <glyph glyph-name="Cacute.sc" horiz-adv-x="581" 
d="M385 -10q-172 0 -255.5 73.5t-83.5 223.5q0 301 328 301q32 0 72.5 -3t92.5 -10v-113q-30 3 -52.5 5t-39.5 3.5t-30.5 2t-26.5 0.5q-56 0 -94 -9t-61 -31t-33.5 -57.5t-10.5 -87.5q0 -51 10 -86t33 -56.5t60 -30.5t91 -9q15 0 36 1t43 2.5t42 4t33 4.5v-114
q-36 -7 -78.5 -10.5t-75.5 -3.5zM272 637l60 133h143l-101 -140z" />
    <glyph glyph-name="Ccaron" unicode="&#x10c;" horiz-adv-x="634" 
d="M422 -11q-376 0 -376 379q0 385 366 385q36 0 82 -5t101 -13v-120q-32 4 -56.5 7t-44 4.5t-35.5 2.5t-31 1q-63 0 -107 -14t-71 -45.5t-39.5 -81t-12.5 -120.5q0 -70 12 -119t39 -80t69.5 -45t103.5 -14q18 0 41.5 1.5t48 4t47 6t36.5 6.5v-120q-39 -9 -87 -14.5
t-86 -5.5zM165 986l199 -78l198 78v-102l-200 -78l-197 78v102z" />
    <glyph glyph-name="caron.cap" horiz-adv-x="498" 
d="M50 986l199 -78l198 78v-102l-200 -78l-197 78v102z" />
    <glyph glyph-name="Ccaron.sc" horiz-adv-x="581" 
d="M385 -10q-172 0 -255.5 73.5t-83.5 223.5q0 301 328 301q32 0 72.5 -3t92.5 -10v-113q-30 3 -52.5 5t-39.5 3.5t-30.5 2t-26.5 0.5q-56 0 -94 -9t-61 -31t-33.5 -57.5t-10.5 -87.5q0 -51 10 -86t33 -56.5t60 -30.5t91 -9q15 0 36 1t43 2.5t42 4t33 4.5v-114
q-36 -7 -78.5 -10.5t-75.5 -3.5zM148 782l182 -62l181 62v-93l-183 -62l-180 62v93z" />
    <glyph glyph-name="Ccedilla" unicode="&#xc7;" horiz-adv-x="634" 
d="M348 -220q-23 0 -51 3.5t-55 8.5v87q18 -5 39.5 -8.5t41.5 -3.5q32 0 44.5 10t12.5 32q0 16 -9 36.5t-29 48.5q-296 37 -296 374q0 385 366 385q36 0 82 -5t101 -13v-120q-32 4 -56.5 7t-44 4.5t-35.5 2.5t-31 1q-63 0 -107 -14t-71 -45.5t-39.5 -81t-12.5 -120.5
q0 -70 12 -119t39 -80t69.5 -45t103.5 -14q18 0 41.5 1.5t48 4t47 6t36.5 6.5v-120q-35 -8 -78 -13t-79 -7q23 -32 31.5 -52.5t8.5 -42.5q0 -54 -35 -84t-95 -30z" />
    <glyph glyph-name="cedilla" unicode="&#xb8;" horiz-adv-x="329" 
d="M145 -220q-23 0 -51 3.5t-55 8.5v87q18 -5 39.5 -8.5t41.5 -3.5q32 0 44.5 10t12.5 32q0 21 -16 51t-56 76h93q23 -28 38 -48.5t23.5 -36.5t12 -29.5t3.5 -27.5q0 -54 -35 -84t-95 -30z" />
    <glyph glyph-name="Ccedilla.sc" horiz-adv-x="582" 
d="M320 -172q-20 0 -45 3t-50 7v80q17 -4 36 -7t39 -3q26 0 35.5 6.5t9.5 20.5q0 9 -6 22t-21 36q-272 22 -272 294q0 301 329 301q31 0 72 -3t92 -10v-113q-30 3 -52.5 5t-39.5 3.5t-30 2t-26 0.5q-56 0 -94 -9t-61.5 -31t-34 -57.5t-10.5 -87.5q0 -51 10 -86t33 -56.5
t60 -30.5t91 -9q15 0 36.5 1t43.5 2.5t42 4t32 4.5v-114q-30 -5 -65.5 -9t-65.5 -5q17 -24 23 -39.5t6 -32.5q0 -43 -31.5 -66.5t-85.5 -23.5z" />
    <glyph glyph-name="Ccircumflex" unicode="&#x108;" horiz-adv-x="634" 
d="M422 -11q-376 0 -376 379q0 385 366 385q36 0 82 -5t101 -13v-120q-32 4 -56.5 7t-44 4.5t-35.5 2.5t-31 1q-63 0 -107 -14t-71 -45.5t-39.5 -81t-12.5 -120.5q0 -70 12 -119t39 -80t69.5 -45t103.5 -14q18 0 41.5 1.5t48 4t47 6t36.5 6.5v-120q-39 -9 -87 -14.5
t-86 -5.5zM164 908l197 78l200 -78v-102l-199 78l-198 -78v102z" />
    <glyph glyph-name="Ccircumflex.sc" horiz-adv-x="581" 
d="M385 -10q-172 0 -255.5 73.5t-83.5 223.5q0 301 328 301q32 0 72.5 -3t92.5 -10v-113q-30 3 -52.5 5t-39.5 3.5t-30.5 2t-26.5 0.5q-56 0 -94 -9t-61 -31t-33.5 -57.5t-10.5 -87.5q0 -51 10 -86t33 -56.5t60 -30.5t91 -9q15 0 36 1t43 2.5t42 4t33 4.5v-114
q-36 -7 -78.5 -10.5t-75.5 -3.5zM147 720l180 62l183 -62v-93l-181 61l-182 -61v93z" />
    <glyph glyph-name="Cdotaccent" unicode="&#x10a;" horiz-adv-x="634" 
d="M379 809q-45 0 -64.5 19t-19.5 62q0 42 19.5 61.5t64.5 19.5q44 0 63.5 -19.5t19.5 -61.5t-19.5 -61.5t-63.5 -19.5zM422 -11q-376 0 -376 379q0 385 366 385q36 0 82 -5t101 -13v-120q-32 4 -56.5 7t-44 4.5t-35.5 2.5t-31 1q-63 0 -107 -14t-71 -45.5t-39.5 -81
t-12.5 -120.5q0 -70 12 -119t39 -80t69.5 -45t103.5 -14q18 0 41.5 1.5t48 4t47 6t36.5 6.5v-120q-39 -9 -87 -14.5t-86 -5.5z" />
    <glyph glyph-name="dotaccent.cap" horiz-adv-x="356" 
d="M178 809q-45 0 -64.5 19t-19.5 62q0 42 19.5 61.5t64.5 19.5q44 0 63.5 -19.5t19.5 -61.5t-19.5 -61.5t-63.5 -19.5z" />
    <glyph glyph-name="Cdotaccent.sc" horiz-adv-x="581" 
d="M385 -10q-172 0 -255.5 73.5t-83.5 223.5q0 301 328 301q32 0 72.5 -3t92.5 -10v-113q-30 3 -52.5 5t-39.5 3.5t-30.5 2t-26.5 0.5q-56 0 -94 -9t-61 -31t-33.5 -57.5t-10.5 -87.5q0 -51 10 -86t33 -56.5t60 -30.5t91 -9q15 0 36 1t43 2.5t42 4t33 4.5v-114
q-36 -7 -78.5 -10.5t-75.5 -3.5zM345 627q-42 0 -60 17.5t-18 57.5q0 38 18 56t60 18t60 -18.5t18 -55.5q0 -38 -18 -56.5t-60 -18.5z" />
    <glyph glyph-name="D" unicode="D" horiz-adv-x="805" 
d="M306 -9q-34 0 -67.5 1t-63 2.5t-53.5 4.5t-39 6v734q72 5 141 7.5t114 2.5q218 0 319.5 -91.5t101.5 -287.5q0 -100 -26 -172t-80.5 -118t-140.5 -67.5t-206 -21.5zM361 109q66 0 113 14.5t77 45.5t43.5 80.5t13.5 120.5q0 69 -14 118.5t-44 81t-77.5 46t-114.5 14.5
q-24 0 -58 -1.5t-69 -4.5v-506q33 -5 64 -7t66 -2z" />
    <glyph glyph-name="D.sc" horiz-adv-x="734" 
d="M313 -7q-34 0 -68.5 0.5t-66 2t-57.5 3.5t-43 5v572q66 4 128.5 6t106.5 2q193 0 285 -72t92 -224t-91 -223.5t-286 -71.5zM335 104q57 0 97.5 10t65.5 32t36.5 57t11.5 85q0 49 -12 84t-38 57.5t-66.5 32.5t-98.5 10q-22 0 -50.5 -1t-60.5 -3v-357q28 -4 55 -5.5
t60 -1.5z" />
    <glyph glyph-name="Dcaron" unicode="&#x10e;" horiz-adv-x="805" 
d="M188 986l199 -78l198 78v-102l-200 -78l-197 78v102zM306 -9q-34 0 -67.5 1t-63 2.5t-53.5 4.5t-39 6v734q72 5 141 7.5t114 2.5q218 0 319.5 -91.5t101.5 -287.5q0 -100 -26 -172t-80.5 -118t-140.5 -67.5t-206 -21.5zM361 109q66 0 113 14.5t77 45.5t43.5 80.5
t13.5 120.5q0 69 -14 118.5t-44 81t-77.5 46t-114.5 14.5q-24 0 -58 -1.5t-69 -4.5v-506q33 -5 64 -7t66 -2z" />
    <glyph glyph-name="Dcaron.sc" horiz-adv-x="735" 
d="M313 -7q-34 0 -68.5 0.5t-66 2t-57.5 3.5t-43 5v572q66 4 128.5 6t106.5 2q193 0 285 -72t92 -224t-91 -223.5t-286 -71.5zM335 104q57 0 97.5 10t65.5 32t36.5 57t11.5 85q0 49 -12 84t-38 57.5t-66.5 32.5t-98.5 10q-22 0 -50.5 -1t-60.5 -3v-357q28 -4 55 -5.5
t60 -1.5zM176 689v93l181 -62l182 62v-93l-184 -62z" />
    <glyph glyph-name="Dcroat" unicode="&#x110;" horiz-adv-x="823" 
d="M6 429h94v310q72 5 141 7.5t114 2.5q218 0 319.5 -91.5t101.5 -287.5q0 -100 -26 -172t-80.5 -118t-140.5 -67.5t-206 -21.5q-34 0 -67.5 1t-63 2.5t-53.5 4.5t-39 6v310h-94v114zM378 109q66 0 113 14.5t77 45.5t43.5 80.5t13.5 120.5q0 69 -14 118.5t-44 81t-77.5 46
t-114.5 14.5q-24 0 -58 -1.5t-69 -4.5v-195h158v-114h-158v-197q33 -5 64 -7t66 -2z" />
    <glyph glyph-name="Dcroat.sc" horiz-adv-x="755" 
d="M16 344h82v232q69 4 131 6t103 2q195 0 286 -71.5t91 -224.5q0 -79 -23 -135t-72.5 -91.5t-127 -52t-186.5 -16.5q-31 0 -61 0.5t-57 2t-49 3.5t-35 5v233h-82v107zM355 104q57 0 97 10t65 31.5t36.5 56.5t11.5 86q0 50 -12 85t-37.5 57t-66 32t-98.5 10q-20 0 -49.5 -1
t-61.5 -3v-124h133v-107h-133v-126q28 -4 55.5 -5.5t59.5 -1.5z" />
    <glyph glyph-name="Ddotbelow" unicode="&#x1e0c;" horiz-adv-x="805" 
d="M387 -198q-35 0 -51 15t-16 50t16 50.5t51 15.5q37 0 53 -16t16 -50t-16 -49.5t-53 -15.5zM306 -9q-34 0 -67.5 1t-63 2.5t-53.5 4.5t-39 6v734q72 5 141 7.5t114 2.5q218 0 319.5 -91.5t101.5 -287.5q0 -100 -26 -172t-80.5 -118t-140.5 -67.5t-206 -21.5zM361 109
q66 0 113 14.5t77 45.5t43.5 80.5t13.5 120.5q0 69 -14 118.5t-44 81t-77.5 46t-114.5 14.5q-24 0 -58 -1.5t-69 -4.5v-506q33 -5 64 -7t66 -2z" />
    <glyph glyph-name="dotbelow" horiz-adv-x="254" 
d="M126 -198q-35 0 -51 15t-16 50t16 50.5t51 15.5q37 0 53 -16t16 -50t-16 -49.5t-53 -15.5z" />
    <glyph glyph-name="Ddotbelow.sc" horiz-adv-x="735" 
d="M313 -7q-34 0 -68.5 0.5t-66 2t-57.5 3.5t-43 5v572q66 4 128.5 6t106.5 2q193 0 285 -72t92 -224t-91 -223.5t-286 -71.5zM335 104q57 0 97.5 10t65.5 32t36.5 57t11.5 85q0 49 -12 84t-38 57.5t-66.5 32.5t-98.5 10q-22 0 -50.5 -1t-60.5 -3v-357q28 -4 55 -5.5
t60 -1.5zM357 -161q-33 0 -48 14t-15 43q0 31 15 45t48 14t47.5 -14.5t14.5 -44.5q0 -29 -14.5 -43t-47.5 -14z" />
    <glyph glyph-name="Delta" unicode="&#x2206;" horiz-adv-x="847" 
d="M337 740h173l313 -740h-799zM638 114l-215 503l-214 -503h429z" />
    <glyph glyph-name="E" unicode="E" horiz-adv-x="682" 
d="M83 740h543v-115h-395v-194h365v-115h-365v-201h404v-115h-552v740z" />
    <glyph glyph-name="E.sc" horiz-adv-x="627" 
d="M79 577h492v-104h-351v-136h323v-90h-323v-143h359v-104h-500v577z" />
    <glyph glyph-name="Eacute" unicode="&#xc9;" horiz-adv-x="682" 
d="M291 814l70 160h149l-111 -168zM83 740h543v-115h-395v-194h365v-115h-365v-201h404v-115h-552v740z" />
    <glyph glyph-name="Eacute.sc" horiz-adv-x="626" 
d="M79 577h492v-104h-351v-136h323v-90h-323v-143h359v-104h-500v577zM265 637l60 133h142l-100 -140z" />
    <glyph glyph-name="Ebreve" unicode="&#x114;" horiz-adv-x="682" 
d="M349 813q-59 0 -100 12.5t-67 35t-38 53.5t-12 67h100q0 -45 27 -69t90 -24t90 24t27 69h100q0 -37 -12 -67.5t-38 -53t-67.5 -35t-99.5 -12.5zM83 740h543v-115h-395v-194h365v-115h-365v-201h404v-115h-552v740z" />
    <glyph glyph-name="Ebreve.sc" horiz-adv-x="626" 
d="M320 634q-55 0 -92.5 11t-61 29.5t-34 44t-10.5 54.5h93q0 -34 24 -52.5t81 -18.5t80.5 18.5t23.5 52.5h93q0 -30 -10.5 -55t-33.5 -44t-61 -29.5t-92 -10.5zM79 577h492v-104h-351v-136h323v-90h-323v-143h359v-104h-500v577z" />
    <glyph glyph-name="Ecaron" unicode="&#x11a;" horiz-adv-x="682" 
d="M156 986l199 -78l198 78v-102l-200 -78l-197 78v102zM83 740h543v-115h-395v-194h365v-115h-365v-201h404v-115h-552v740z" />
    <glyph glyph-name="Ecaron.sc" horiz-adv-x="626" 
d="M79 577h492v-104h-351v-136h323v-90h-323v-143h359v-104h-500v577zM143 689v93l182 -62l181 62v-93l-183 -62z" />
    <glyph glyph-name="Ecircumflex" unicode="&#xca;" horiz-adv-x="682" 
d="M83 740h543v-115h-395v-194h365v-115h-365v-201h404v-115h-552v740zM168 908l197 78l200 -78v-102l-199 78l-198 -78v102z" />
    <glyph glyph-name="Ecircumflex.sc" horiz-adv-x="626" 
d="M79 577h492v-104h-351v-136h323v-90h-323v-143h359v-104h-500v577zM156 720l180 62l182 -62v-93l-181 61l-181 -61v93z" />
    <glyph glyph-name="Edblgrave" unicode="&#x204;" horiz-adv-x="682" 
d="M83 740h543v-115h-395v-194h365v-115h-365v-201h404v-115h-552v740zM199 801l-111 169h147l68 -157zM398 801l-113 169h147l70 -157z" />
    <glyph glyph-name="Edblgrave.sc" horiz-adv-x="626" 
d="M79 577h492v-104h-351v-136h323v-90h-323v-143h359v-104h-500v577zM79 768h141l60 -132l-101 -9zM260 768h141l61 -132l-101 -9z" />
    <glyph glyph-name="Edieresis" unicode="&#xcb;" horiz-adv-x="682" 
d="M214 811q-44 0 -63.5 19.5t-19.5 62.5q0 42 19.5 61.5t63.5 19.5t63.5 -19.5t19.5 -61.5t-19.5 -62t-63.5 -20zM511 811q-44 0 -63.5 19.5t-19.5 62.5q0 42 19.5 61.5t63.5 19.5q45 0 64 -19.5t19 -61.5t-19 -62t-64 -20zM83 740h543v-115h-395v-194h365v-115h-365v-201
h404v-115h-552v740z" />
    <glyph glyph-name="Edieresis.sc" horiz-adv-x="626" 
d="M199 629q-41 0 -59.5 17.5t-18.5 56.5q0 38 18.5 56t59.5 18q42 0 60 -18t18 -56t-18 -56t-60 -18zM467 629q-42 0 -60 17.5t-18 56.5q0 38 18 56t60 18t60 -18t18 -56t-18 -56t-60 -18zM79 577h492v-104h-351v-136h323v-90h-323v-143h359v-104h-500v577z" />
    <glyph glyph-name="Edotaccent" unicode="&#x116;" horiz-adv-x="682" 
d="M351 809q-45 0 -64.5 19t-19.5 62q0 42 19.5 61.5t64.5 19.5q44 0 63.5 -19.5t19.5 -61.5t-19.5 -61.5t-63.5 -19.5zM83 740h543v-115h-395v-194h365v-115h-365v-201h404v-115h-552v740z" />
    <glyph glyph-name="Edotaccent.sc" horiz-adv-x="626" 
d="M320 627q-42 0 -60 17.5t-18 57.5q0 38 18 56t60 18t60 -18.5t18 -55.5q0 -38 -18 -56.5t-60 -18.5zM79 577h492v-104h-351v-136h323v-90h-323v-143h359v-104h-500v577z" />
    <glyph glyph-name="Edotbelow" unicode="&#x1eb8;" horiz-adv-x="682" 
d="M83 740h543v-115h-395v-194h365v-115h-365v-201h404v-115h-552v740zM374 -198q-35 0 -51 15t-16 50t16 50.5t51 15.5q37 0 53 -16t16 -50t-16 -49.5t-53 -15.5z" />
    <glyph glyph-name="Edotbelow.sc" horiz-adv-x="626" 
d="M343 -161q-33 0 -48 14t-15 43q0 31 15 45t48 14q34 0 48.5 -14.5t14.5 -44.5q0 -29 -14.5 -43t-48.5 -14zM79 577h492v-104h-351v-136h323v-90h-323v-143h359v-104h-500v577z" />
    <glyph glyph-name="Egrave" unicode="&#xc8;" horiz-adv-x="682" 
d="M322 806l-112 168h150l69 -156zM83 740h543v-115h-395v-194h365v-115h-365v-201h404v-115h-552v740z" />
    <glyph glyph-name="Egrave.sc" horiz-adv-x="626" 
d="M79 577h492v-104h-351v-136h323v-90h-323v-143h359v-104h-500v577zM193 770h143l60 -131l-102 -9z" />
    <glyph glyph-name="Einvertedbreve" unicode="&#x206;" horiz-adv-x="682" 
d="M83 740h543v-115h-395v-194h365v-115h-365v-201h404v-115h-552v740zM473 819q0 44 -27 68.5t-91 24.5q-63 0 -90 -24.5t-27 -68.5h-99q0 36 12 66.5t37.5 53t66.5 35t100 12.5t100 -12.5t67 -34.5t38 -52.5t12 -67.5h-99z" />
    <glyph glyph-name="Einvertedbreve.sc" horiz-adv-x="626" 
d="M128 640q0 29 10.5 54.5t34 44t61 29.5t92.5 11q54 0 92 -10.5t61 -29.5t33.5 -44t10.5 -55h-93q0 33 -23.5 52t-80.5 19t-80.5 -19t-23.5 -52h-94zM79 577h492v-104h-351v-136h323v-90h-323v-143h359v-104h-500v577z" />
    <glyph glyph-name="Emacron" unicode="&#x112;" horiz-adv-x="682" 
d="M162 941h393v-99h-393v99zM83 740h543v-115h-395v-194h365v-115h-365v-201h404v-115h-552v740z" />
    <glyph glyph-name="Emacron.sc" horiz-adv-x="626" 
d="M79 577h492v-104h-351v-136h323v-90h-323v-143h359v-104h-500v577zM149 749h359v-92h-359v92z" />
    <glyph glyph-name="Eng" unicode="&#x14a;" horiz-adv-x="844" 
d="M546 -171q62 117 72 205l-325 403l-70 92h-8v-529h-132v740h114l360 -443l66 -88h8v531h132v-631q0 -32 -9 -71.5t-25 -81.5t-37.5 -83.5t-46.5 -75.5z" />
    <glyph glyph-name="Eng.sc" horiz-adv-x="753" 
d="M483 -133q28 51 42.5 87t19.5 66l-269 291l-64 75h-8v-386h-125v577h108l296 -319l59 -68h7v387h126v-483q0 -56 -26.5 -125t-71.5 -133z" />
    <glyph glyph-name="Eogonek" unicode="&#x118;" horiz-adv-x="682" 
d="M83 740h543v-115h-395v-194h365v-115h-365v-201h404v-128q-68 -31 -96 -54t-28 -47q0 -28 37 -28q14 0 39 4t48 10v-80q-35 -12 -85 -12q-66 0 -101 22t-35 66q0 73 102 132h-433v740z" />
    <glyph glyph-name="Eogonek.sc" horiz-adv-x="626" 
d="M501 -172q-64 0 -94 18.5t-30 53.5q0 31 21 55t63 45h-382v577h492v-104h-351v-136h323v-90h-323v-143h359v-112q-34 -12 -55.5 -22t-34 -18t-17 -15.5t-4.5 -15.5q0 -11 8 -15t23 -4q7 0 17.5 0.5t21.5 2l22 3t19 3.5v-73q-17 -5 -37.5 -7.5t-40.5 -2.5z" />
    <glyph glyph-name="Eth" unicode="&#xd0;" horiz-adv-x="823" 
d="M6 429h94v310q72 5 141 7.5t114 2.5q218 0 319.5 -91.5t101.5 -287.5q0 -100 -26 -172t-80.5 -118t-140.5 -67.5t-206 -21.5q-34 0 -67.5 1t-63 2.5t-53.5 4.5t-39 6v310h-94v114zM378 109q66 0 113 14.5t77 45.5t43.5 80.5t13.5 120.5q0 69 -14 118.5t-44 81t-77.5 46
t-114.5 14.5q-24 0 -58 -1.5t-69 -4.5v-195h158v-114h-158v-197q33 -5 64 -7t66 -2z" />
    <glyph glyph-name="Eth.sc" horiz-adv-x="753" 
d="M14 338h83v238q68 4 130 6t104 2q195 0 286 -71.5t91 -224.5q0 -79 -23.5 -135t-73 -91.5t-127 -52t-186.5 -16.5q-31 0 -61 0.5t-57 2t-48.5 3.5t-34.5 5v237h-83v97zM353 104q57 0 97.5 10t65.5 31.5t36.5 56.5t11.5 86q0 50 -12 85t-37.5 57t-66.5 32t-98 10
q-21 0 -50 -1t-62 -3v-130h133v-97h-133v-130q28 -4 55.5 -5.5t59.5 -1.5z" />
    <glyph glyph-name="Etilde" unicode="&#x1ebc;" horiz-adv-x="682" 
d="M122 864q34 53 75.5 79t79.5 26q27 0 52 -6t49.5 -13.5t49 -13.5t50.5 -6q25 0 48.5 8t52.5 29l23 -32q-33 -52 -75.5 -78.5t-81.5 -26.5q-26 0 -51 6t-49.5 13t-49 13t-49.5 6t-48.5 -7.5t-51.5 -28.5zM83 740h543v-115h-395v-194h365v-115h-365v-201h404v-115h-552v740
z" />
    <glyph glyph-name="Etilde.sc" horiz-adv-x="626" 
d="M114 674q30 48 67.5 71.5t72.5 23.5q24 0 47 -4.5t45.5 -10t45 -10t46.5 -4.5q22 0 43 5.5t48 22.5l21 -27q-32 -48 -71 -71.5t-74 -23.5q-23 0 -45.5 4.5t-45.5 10.5t-45.5 10.5t-45.5 4.5q-22 0 -43 -6t-45 -23zM79 577h492v-104h-351v-136h323v-90h-323v-143h359v-104
h-500v577z" />
    <glyph glyph-name="Euro" unicode="&#x20ac;" horiz-adv-x="713" 
d="M41 496h91q27 129 120 191t266 62q54 0 91 -5t62 -8l-40 -119q-11 2 -35 4.5t-47 2.5q-63 0 -109.5 -6t-78.5 -21t-51 -39.5t-29 -61.5h310l-18 -84h-303q-1 -11 -1 -21v-21v-21.5t1 -20.5h285l-19 -85h-254q10 -36 29.5 -60.5t51.5 -39.5t77.5 -21.5t108.5 -6.5
q27 0 55 2t59 8v-123q-22 -6 -57 -9t-77 -3q-179 1 -274 63t-122 190h-92v85h81q-1 10 -1 20v21v21.5t1 21.5h-81v84z" />
    <glyph glyph-name="Euro.tab" 
d="M6 496h87q13 65 40.5 113t72.5 79t107 46t144 15q52 0 88.5 -5t60.5 -8l-39 -119q-10 2 -34 4.5t-45 2.5q-110 0 -167.5 -28.5t-76.5 -99.5h286l-16 -84h-287q0 -7 -0.5 -20.5t-0.5 -21.5t0.5 -21.5t0.5 -20.5h270l-18 -85h-235q20 -69 77.5 -98.5t166.5 -29.5q26 0 53 2
t57 8v-123q-21 -6 -55.5 -9t-74.5 -3q-169 1 -259.5 63t-115.5 190h-87v85h75v84h-75v84z" />
    <glyph glyph-name="F" unicode="F" horiz-adv-x="657" 
d="M83 740h543v-115h-395v-211h356v-115h-356v-299h-148v740z" />
    <glyph glyph-name="F.sc" horiz-adv-x="605" 
d="M79 577h492v-107h-351v-149h317v-96h-317v-225h-141v577z" />
    <glyph glyph-name="F_B.sc" horiz-adv-x="1265" 
d="M79 577h492v-107h-351v-149h317v-96h-317v-225h-141v577zM944 -8q-67 0 -132.5 3t-143.5 9v569q71 5 131 8t118 3q150 0 217 -38t67 -123q0 -48 -31 -80.5t-88 -44.5v-3q69 -12 105 -47t36 -91q0 -85 -68 -125t-211 -40zM934 87q78 0 114 20t36 64q0 42 -33 61t-105 19
h-142v-160q9 -1 19.5 -2t25 -1.5t35 -0.5h50.5zM933 334q71 0 100.5 18t29.5 61t-31.5 60t-109.5 17q-37 0 -66 -1t-52 -4v-151h129z" />
    <glyph glyph-name="F_F.sc" horiz-adv-x="1193" 
d="M79 577h492v-107h-351v-149h317v-96h-317v-225h-141v577zM668 577h492v-107h-351v-149h317v-96h-317v-225h-141v577z" />
    <glyph glyph-name="F_F_B.sc" horiz-adv-x="1852" 
d="M79 577h492v-107h-351v-149h317v-96h-317v-225h-141v577zM668 577h492v-107h-351v-149h317v-96h-317v-225h-141v577zM1532 -8q-67 0 -132.5 3t-143.5 9v569q71 5 131 8t118 3q150 0 217 -38t67 -123q0 -48 -31 -80.5t-88 -44.5v-3q69 -12 105 -47t36 -91q0 -85 -68 -125
t-211 -40zM1522 87q78 0 114 20t36 64q0 42 -33 61t-105 19h-142v-160q9 -1 19.5 -2t25 -1.5t35 -0.5h50.5zM1521 334q71 0 100.5 18t29.5 61t-31.5 60t-109.5 17q-37 0 -66 -1t-52 -4v-151h129z" />
    <glyph glyph-name="F_F_H.sc" horiz-adv-x="1951" 
d="M79 577h492v-107h-351v-149h317v-96h-317v-225h-141v577zM668 577h492v-107h-351v-149h317v-96h-317v-225h-141v577zM1256 577h141v-227h334v227h141v-577h-141v243h-334v-243h-141v577z" />
    <glyph glyph-name="H.sc" horiz-adv-x="774" 
d="M79 577h141v-227h334v227h141v-577h-141v243h-334v-243h-141v577z" />
    <glyph glyph-name="F_F_I.sc" horiz-adv-x="1476" 
d="M79 577h492v-107h-351v-149h317v-96h-317v-225h-141v577zM668 577h492v-107h-351v-149h317v-96h-317v-225h-141v577zM1256 577h141v-577h-141v577z" />
    <glyph glyph-name="I.sc" horiz-adv-x="299" 
d="M79 577h141v-577h-141v577z" />
    <glyph glyph-name="F_F_J.sc" horiz-adv-x="1483" 
d="M79 577h492v-107h-351v-149h317v-96h-317v-225h-141v577zM668 577h492v-107h-351v-149h317v-96h-317v-225h-141v577zM1198 -123q19 38 32 71t20.5 65t11 66t3.5 74v424h141v-434q0 -41 -6 -76.5t-19.5 -71.5t-35.5 -74t-55 -84z" />
    <glyph glyph-name="J.sc" horiz-adv-x="298" 
d="M14 -123q19 38 32 71t20.5 65t11 66t3.5 74v424h141v-434q0 -41 -6 -76.5t-19.5 -71.5t-35.5 -74t-55 -84z" />
    <glyph glyph-name="F_F_K.sc" horiz-adv-x="1859" 
d="M79 577h492v-107h-351v-149h317v-96h-317v-225h-141v577zM668 577h492v-107h-351v-149h317v-96h-317v-225h-141v577zM1256 577h141v-233h113l173 233h158l-194 -251l-40 -20v-7l42 -21l207 -278h-159l-173 237h-127v-237h-141v577z" />
    <glyph glyph-name="K.sc" horiz-adv-x="683" 
d="M79 577h141v-233h113l173 233h158l-194 -251l-40 -20v-7l42 -21l207 -278h-159l-173 237h-127v-237h-141v577z" />
    <glyph glyph-name="F_F_L.sc" horiz-adv-x="1728" 
d="M1256 577h141v-470h313v-107h-454v577zM79 577h492v-107h-351v-149h317v-96h-317v-225h-141v577zM668 577h492v-107h-351v-149h317v-96h-317v-225h-141v577z" />
    <glyph glyph-name="L.sc" horiz-adv-x="552" 
d="M79 577h141v-470h313v-107h-454v577z" />
    <glyph glyph-name="F_F_T.sc" horiz-adv-x="1769" 
d="M1394 470h-210v107h562v-107h-210v-470h-142v470zM79 577h492v-107h-351v-149h317v-96h-317v-225h-141v577zM668 577h492v-107h-351v-149h317v-96h-317v-225h-141v577z" />
    <glyph glyph-name="T.sc" horiz-adv-x="608" 
d="M233 470h-210v107h562v-107h-210v-470h-142v470z" />
    <glyph glyph-name="F_H.sc" horiz-adv-x="1362" 
d="M79 577h492v-107h-351v-149h317v-96h-317v-225h-141v577zM668 577h141v-227h334v227h141v-577h-141v243h-334v-243h-141v577z" />
    <glyph glyph-name="F_I.sc" horiz-adv-x="887" 
d="M79 577h492v-107h-351v-149h317v-96h-317v-225h-141v577zM668 577h141v-577h-141v577z" />
    <glyph glyph-name="F_J.sc" horiz-adv-x="895" 
d="M79 577h492v-107h-351v-149h317v-96h-317v-225h-141v577zM610 -123q19 38 32 71t20.5 65t11 66t3.5 74v424h141v-434q0 -41 -6 -76.5t-19.5 -71.5t-35.5 -74t-55 -84z" />
    <glyph glyph-name="F_K.sc" horiz-adv-x="1271" 
d="M79 577h492v-107h-351v-149h317v-96h-317v-225h-141v577zM668 577h141v-233h113l173 233h158l-194 -251l-40 -20v-7l42 -21l207 -278h-159l-173 237h-127v-237h-141v577z" />
    <glyph glyph-name="F_L.sc" horiz-adv-x="1140" 
d="M668 577h141v-470h313v-107h-454v577zM79 577h492v-107h-351v-149h317v-96h-317v-225h-141v577z" />
    <glyph glyph-name="F_T.sc" horiz-adv-x="1180" 
d="M806 470h-210v107h562v-107h-210v-470h-142v470zM79 577h492v-107h-351v-149h317v-96h-317v-225h-141v577z" />
    <glyph glyph-name="G" unicode="G" horiz-adv-x="726" 
d="M428 -11q-382 0 -382 379q0 385 392 385q54 0 112.5 -7t106.5 -19v-121q-69 14 -118 19t-91 5q-69 0 -117 -14t-77.5 -45.5t-43 -81t-13.5 -120.5q0 -70 12.5 -119t40.5 -80t71.5 -45t106.5 -14q20 0 47 2t54 5v258h137v-347q-27 -9 -58.5 -16t-63.5 -12.5t-62 -8.5
t-54 -3z" />
    <glyph glyph-name="G.sc" horiz-adv-x="664" 
d="M390 -10q-344 0 -344 297q0 301 352 301q49 0 103 -5.5t97 -14.5v-111q-64 8 -109 12t-81 4q-63 0 -104.5 -9.5t-66.5 -31.5t-35.5 -57.5t-10.5 -86.5q0 -50 10 -85t33 -56.5t61.5 -31t95.5 -9.5q6 0 17.5 0.5t24 1.5t24.5 2t18 3v180h131v-269q-24 -8 -53 -14t-58 -10.5
t-56.5 -7t-48.5 -2.5z" />
    <glyph glyph-name="Gacute" unicode="&#x1f4;" horiz-adv-x="726" 
d="M322 814l70 160h149l-111 -168zM428 -11q-382 0 -382 379q0 385 392 385q54 0 112.5 -7t106.5 -19v-121q-69 14 -118 19t-91 5q-69 0 -117 -14t-77.5 -45.5t-43 -81t-13.5 -120.5q0 -70 12.5 -119t40.5 -80t71.5 -45t106.5 -14q20 0 47 2t54 5v258h137v-347
q-27 -9 -58.5 -16t-63.5 -12.5t-62 -8.5t-54 -3z" />
    <glyph glyph-name="Gacute.sc" horiz-adv-x="664" 
d="M390 -10q-174 0 -259 73t-85 224q0 301 352 301q50 0 104 -5.5t96 -14.5v-114q-63 10 -108.5 14.5t-81.5 4.5q-61 0 -102.5 -9t-67 -31t-36.5 -57.5t-11 -87.5q0 -51 10.5 -86t34 -56.5t61.5 -30.5t94 -9q6 0 17.5 0.5t24 1.5t24.5 2t18 3v180h131v-269q-24 -7 -52 -13.5
t-57.5 -11t-57 -7t-49.5 -2.5zM291 637l59 133h143l-100 -140z" />
    <glyph glyph-name="Gbreve" unicode="&#x11e;" horiz-adv-x="726" 
d="M392 813q-59 0 -100 12.5t-67 35t-38 53.5t-12 67h100q0 -45 27 -69t90 -24t90 24t27 69h100q0 -37 -12 -67.5t-38 -53t-67.5 -35t-99.5 -12.5zM428 -11q-382 0 -382 379q0 385 392 385q54 0 112.5 -7t106.5 -19v-121q-69 14 -118 19t-91 5q-69 0 -117 -14t-77.5 -45.5
t-43 -81t-13.5 -120.5q0 -70 12.5 -119t40.5 -80t71.5 -45t106.5 -14q20 0 47 2t54 5v258h137v-347q-27 -9 -58.5 -16t-63.5 -12.5t-62 -8.5t-54 -3z" />
    <glyph glyph-name="Gbreve.sc" horiz-adv-x="664" 
d="M390 -10q-174 0 -259 73t-85 224q0 301 352 301q50 0 104 -5.5t96 -14.5v-114q-63 10 -108.5 14.5t-81.5 4.5q-61 0 -102.5 -9t-67 -31t-36.5 -57.5t-11 -87.5q0 -51 10.5 -86t34 -56.5t61.5 -30.5t94 -9q6 0 17.5 0.5t24 1.5t24.5 2t18 3v180h131v-269q-24 -7 -52 -13.5
t-57.5 -11t-57 -7t-49.5 -2.5zM358 634q-55 0 -92.5 11t-61 29.5t-33.5 44t-10 54.5h92q0 -34 24 -52.5t81 -18.5t80 18.5t23 52.5h94q0 -30 -10.5 -55t-33.5 -44t-61 -29.5t-92 -10.5z" />
    <glyph glyph-name="Gcircumflex" unicode="&#x11c;" horiz-adv-x="726" 
d="M428 -11q-382 0 -382 379q0 385 392 385q54 0 112.5 -7t106.5 -19v-121q-69 14 -118 19t-91 5q-69 0 -117 -14t-77.5 -45.5t-43 -81t-13.5 -120.5q0 -70 12.5 -119t40.5 -80t71.5 -45t106.5 -14q20 0 47 2t54 5v258h137v-347q-27 -9 -58.5 -16t-63.5 -12.5t-62 -8.5
t-54 -3zM185 908l197 78l200 -78v-102l-199 78l-198 -78v102z" />
    <glyph glyph-name="Gcircumflex.sc" horiz-adv-x="664" 
d="M390 -10q-174 0 -259 73t-85 224q0 301 352 301q50 0 104 -5.5t96 -14.5v-114q-63 10 -108.5 14.5t-81.5 4.5q-61 0 -102.5 -9t-67 -31t-36.5 -57.5t-11 -87.5q0 -51 10.5 -86t34 -56.5t61.5 -30.5t94 -9q6 0 17.5 0.5t24 1.5t24.5 2t18 3v180h131v-269q-24 -7 -52 -13.5
t-57.5 -11t-57 -7t-49.5 -2.5zM167 720l179 62l183 -62v-93l-181 61l-181 -61v93z" />
    <glyph glyph-name="Gcommaaccent" unicode="&#x122;" horiz-adv-x="726" 
d="M317 -70h150l-82 -150h-112zM428 -11q-382 0 -382 379q0 385 392 385q54 0 112.5 -7t106.5 -19v-121q-69 14 -118 19t-91 5q-69 0 -117 -14t-77.5 -45.5t-43 -81t-13.5 -120.5q0 -70 12.5 -119t40.5 -80t71.5 -45t106.5 -14q20 0 47 2t54 5v258h137v-347
q-27 -9 -58.5 -16t-63.5 -12.5t-62 -8.5t-54 -3z" />
    <glyph glyph-name="commaaccent" unicode="&#xf6c3;" horiz-adv-x="282" 
d="M93 -70h150l-82 -150h-112z" />
    <glyph glyph-name="Gcommaaccent.sc" horiz-adv-x="664" 
d="M390 -10q-174 0 -259 73t-85 224q0 301 352 301q50 0 104 -5.5t96 -14.5v-114q-63 10 -108.5 14.5t-81.5 4.5q-61 0 -102.5 -9t-67 -31t-36.5 -57.5t-11 -87.5q0 -51 10.5 -86t34 -56.5t61.5 -30.5t94 -9q6 0 17.5 0.5t24 1.5t24.5 2t18 3v180h131v-269q-24 -7 -52 -13.5
t-57.5 -11t-57 -7t-49.5 -2.5zM284 -55h144l-75 -117h-107z" />
    <glyph glyph-name="Gdotaccent" unicode="&#x120;" horiz-adv-x="726" 
d="M396 809q-45 0 -64.5 19t-19.5 62q0 42 19.5 61.5t64.5 19.5q44 0 63.5 -19.5t19.5 -61.5t-19.5 -61.5t-63.5 -19.5zM428 -11q-382 0 -382 379q0 385 392 385q54 0 112.5 -7t106.5 -19v-121q-69 14 -118 19t-91 5q-69 0 -117 -14t-77.5 -45.5t-43 -81t-13.5 -120.5
q0 -70 12.5 -119t40.5 -80t71.5 -45t106.5 -14q20 0 47 2t54 5v258h137v-347q-27 -9 -58.5 -16t-63.5 -12.5t-62 -8.5t-54 -3z" />
    <glyph glyph-name="Gdotaccent.sc" horiz-adv-x="664" 
d="M390 -10q-174 0 -259 73t-85 224q0 301 352 301q50 0 104 -5.5t96 -14.5v-114q-63 10 -108.5 14.5t-81.5 4.5q-61 0 -102.5 -9t-67 -31t-36.5 -57.5t-11 -87.5q0 -51 10.5 -86t34 -56.5t61.5 -30.5t94 -9q6 0 17.5 0.5t24 1.5t24.5 2t18 3v180h131v-269q-24 -7 -52 -13.5
t-57.5 -11t-57 -7t-49.5 -2.5zM361 627q-42 0 -60.5 17.5t-18.5 57.5q0 38 18.5 56t60.5 18t60 -18.5t18 -55.5q0 -38 -18 -56.5t-60 -18.5z" />
    <glyph glyph-name="H" unicode="H" horiz-adv-x="847" 
d="M83 740h148v-303h385v303h148v-740h-148v323h-385v-323h-148v740z" />
    <glyph glyph-name="Hbar" unicode="&#x126;" horiz-adv-x="859" 
d="M9 614h80v126h148v-126h385v126h148v-126h81v-73h-81v-541h-148v323h-385v-323h-148v541h-80v73zM622 437v104h-385v-104h385z" />
    <glyph glyph-name="Hbar.sc" horiz-adv-x="785" 
d="M15 486h69v91h141v-91h334v91h141v-91h70v-66h-70v-420h-141v232h-334v-232h-141v420h-69v66zM559 339v81h-334v-81h334z" />
    <glyph glyph-name="Hcircumflex" unicode="&#x124;" horiz-adv-x="847" 
d="M83 740h148v-303h385v303h148v-740h-148v323h-385v-323h-148v740zM222 908l197 78l200 -78v-102l-199 78l-198 -78v102z" />
    <glyph glyph-name="Hcircumflex.sc" horiz-adv-x="774" 
d="M79 577h141v-227h334v227h141v-577h-141v243h-334v-243h-141v577zM204 720l180 62l183 -62v-93l-181 61l-182 -61v93z" />
    <glyph glyph-name="Hdotbelow" unicode="&#x1e24;" horiz-adv-x="847" 
d="M83 740h148v-303h385v303h148v-740h-148v323h-385v-323h-148v740zM426 -198q-35 0 -51 15t-16 50t16 50.5t51 15.5q37 0 53 -16t16 -50t-16 -49.5t-53 -15.5z" />
    <glyph glyph-name="Hdotbelow.sc" horiz-adv-x="774" 
d="M79 577h141v-227h334v227h141v-577h-141v243h-334v-243h-141v577zM389 -161q-62 0 -62 57q0 59 62 59q34 0 48.5 -14.5t14.5 -44.5q0 -29 -14.5 -43t-48.5 -14z" />
    <glyph glyph-name="I" unicode="I" horiz-adv-x="314" 
d="M83 740h148v-740h-148v740z" />
    <glyph glyph-name="IJ" unicode="&#x132;" horiz-adv-x="626" 
d="M83 740h148v-740h-148v740zM322 -158q22 48 36.5 89.5t23.5 82.5t13 84t4 95v547h148v-558q0 -52 -6.5 -96.5t-21.5 -89t-39.5 -92t-60.5 -105.5z" />
    <glyph glyph-name="J" unicode="J" horiz-adv-x="313" 
d="M8 -158q22 48 36.5 89.5t23.5 82.5t13 84t4 95v547h148v-558q0 -52 -6.5 -96.5t-21.5 -89t-39.5 -92t-60.5 -105.5z" />
    <glyph glyph-name="Iacute" unicode="&#xcd;" horiz-adv-x="314" 
d="M83 740h148v-740h-148v740zM98 814l70 160h149l-111 -168z" />
    <glyph glyph-name="Iacute.sc" horiz-adv-x="299" 
d="M79 577h141v-577h-141v577zM94 637l61 133h142l-101 -140z" />
    <glyph glyph-name="Ibreve" unicode="&#x12c;" horiz-adv-x="314" 
d="M83 740h148v-740h-148v740zM156 813q-59 0 -100 12.5t-67 35t-38 53.5t-12 67h100q0 -45 27 -69t90 -24t90 24t27 69h100q0 -37 -12 -67.5t-38 -53t-67.5 -35t-99.5 -12.5z" />
    <glyph glyph-name="Ibreve.sc" horiz-adv-x="299" 
d="M79 577h141v-577h-141v577zM149 634q-54 0 -92 11t-61 29.5t-33.5 44t-10.5 54.5h93q0 -34 23.5 -52.5t80.5 -18.5t80.5 18.5t23.5 52.5h93q0 -30 -10.5 -55t-33.5 -44t-61 -29.5t-92 -10.5z" />
    <glyph glyph-name="Icircumflex" unicode="&#xce;" horiz-adv-x="314" 
d="M83 740h148v-740h-148v740zM-40 908l197 78l200 -78v-102l-199 78l-198 -78v102z" />
    <glyph glyph-name="Icircumflex.sc" horiz-adv-x="299" 
d="M79 577h141v-577h-141v577zM-29 720l179 62l183 -62v-93l-181 61l-181 -61v93z" />
    <glyph glyph-name="Idblgrave" unicode="&#x208;" horiz-adv-x="314" 
d="M83 740h148v-740h-148v740zM16 801l-111 169h147l68 -157zM215 801l-113 169h147l70 -157z" />
    <glyph glyph-name="Idblgrave.sc" horiz-adv-x="299" 
d="M79 577h141v-577h-141v577zM19 627l-101 141h141l60 -132zM201 627l-101 141h142l60 -132z" />
    <glyph glyph-name="Idieresis" unicode="&#xcf;" horiz-adv-x="314" 
d="M83 740h148v-740h-148v740zM11 811q-44 0 -63.5 19.5t-19.5 62.5q0 42 19.5 61.5t63.5 19.5t63.5 -19.5t19.5 -61.5t-19.5 -62t-63.5 -20zM308 811q-44 0 -63.5 19.5t-19.5 62.5q0 42 19.5 61.5t63.5 19.5q45 0 64 -19.5t19 -61.5t-19 -62t-64 -20z" />
    <glyph glyph-name="Idieresis.sc" horiz-adv-x="299" 
d="M79 577h141v-577h-141v577zM19 629q-42 0 -60 17.5t-18 56.5q0 38 18 56t60 18t60 -18t18 -56t-18 -56t-60 -18zM286 629q-41 0 -59 17.5t-18 56.5q0 38 18 56t59 18q42 0 60 -18t18 -56t-18 -56t-60 -18z" />
    <glyph glyph-name="Idotaccent" unicode="&#x130;" horiz-adv-x="314" 
d="M83 740h148v-740h-148v740zM158 809q-45 0 -64.5 19t-19.5 62q0 42 19.5 61.5t64.5 19.5q44 0 63.5 -19.5t19.5 -61.5t-19.5 -61.5t-63.5 -19.5z" />
    <glyph glyph-name="Idotaccent.sc" horiz-adv-x="299" 
d="M79 577h141v-577h-141v577zM151 627q-42 0 -60.5 17.5t-18.5 57.5q0 38 18.5 56t60.5 18t60 -18.5t18 -55.5q0 -38 -18 -56.5t-60 -18.5z" />
    <glyph glyph-name="Idotbelow" unicode="&#x1eca;" horiz-adv-x="314" 
d="M83 740h148v-740h-148v740zM157 -198q-35 0 -51 15t-16 50t16 50.5t51 15.5q37 0 53 -16t16 -50t-16 -49.5t-53 -15.5z" />
    <glyph glyph-name="Idotbelow.sc" horiz-adv-x="299" 
d="M79 577h141v-577h-141v577zM150 -161q-62 0 -62 57q0 59 62 59q34 0 48.5 -14.5t14.5 -44.5q0 -29 -14.5 -43t-48.5 -14z" />
    <glyph glyph-name="Igrave" unicode="&#xcc;" horiz-adv-x="314" 
d="M83 740h148v-740h-148v740zM118 806l-112 168h150l69 -156z" />
    <glyph glyph-name="Igrave.sc" horiz-adv-x="299" 
d="M79 577h141v-577h-141v577zM113 630l-101 140h143l60 -131z" />
    <glyph glyph-name="Iinvertedbreve" unicode="&#x20a;" horiz-adv-x="314" 
d="M83 740h148v-740h-148v740zM277 819q0 44 -27 68.5t-91 24.5q-63 0 -90 -24.5t-27 -68.5h-99q0 36 12 66.5t37.5 53t66.5 35t100 12.5t100 -12.5t67 -34.5t38 -52.5t12 -67.5h-99z" />
    <glyph glyph-name="Iinvertedbreve.sc" horiz-adv-x="299" 
d="M79 577h141v-577h-141v577zM256 640q0 33 -23.5 52t-80.5 19t-80.5 -19t-23.5 -52h-94q0 29 10.5 54.5t34 44t61 29.5t92.5 11q54 0 92 -10.5t61 -29.5t33.5 -44t10.5 -55h-93z" />
    <glyph glyph-name="Imacron" unicode="&#x12a;" horiz-adv-x="314" 
d="M83 740h148v-740h-148v740zM-35 941h393v-99h-393v99z" />
    <glyph glyph-name="Imacron.sc" horiz-adv-x="299" 
d="M79 577h141v-577h-141v577zM-25 749h359v-92h-359v92z" />
    <glyph glyph-name="Iogonek" unicode="&#x12e;" horiz-adv-x="314" 
d="M83 740h148v-753q-68 -31 -96 -54t-28 -47q0 -28 37 -28q14 0 39 4t48 10v-80q-35 -12 -85 -12q-66 0 -101 22t-35 66q0 73 102 132h-29v740z" />
    <glyph glyph-name="Iogonek.sc" horiz-adv-x="299" 
d="M79 577h141v-585q-34 -12 -55.5 -22t-34 -18t-17 -15.5t-4.5 -15.5q0 -11 8 -15t23 -4q7 0 17.5 0.5t21.5 2l22 3t19 3.5v-73q-17 -5 -37.5 -7.5t-40.5 -2.5q-60 0 -92 19t-32 53q0 58 84 100h-23v577z" />
    <glyph glyph-name="Itilde" unicode="&#x128;" horiz-adv-x="314" 
d="M83 740h148v-740h-148v740zM-76 864q34 53 75.5 79t79.5 26q27 0 52 -6t49.5 -13.5t49 -13.5t50.5 -6q25 0 48.5 8t52.5 29l23 -32q-33 -52 -75.5 -78.5t-81.5 -26.5q-26 0 -51 6t-49.5 13t-49 13t-49.5 6t-48.5 -7.5t-51.5 -28.5z" />
    <glyph glyph-name="Itilde.sc" horiz-adv-x="299" 
d="M79 577h141v-577h-141v577zM-62 674q31 48 68.5 71.5t72.5 23.5q24 0 46.5 -4.5t45 -10t45 -10t46.5 -4.5q22 0 43.5 5.5t47.5 22.5l20 -27q-31 -48 -69.5 -71.5t-73.5 -23.5q-23 0 -46 4.5t-46 10.5t-45.5 10.5t-45.5 4.5q-22 0 -42.5 -6t-45.5 -23z" />
    <glyph glyph-name="Jcircumflex" unicode="&#x134;" horiz-adv-x="313" 
d="M8 -158q22 48 36.5 89.5t23.5 82.5t13 84t4 95v547h148v-558q0 -52 -6.5 -96.5t-21.5 -89t-39.5 -92t-60.5 -105.5zM-37 908l197 78l200 -78v-102l-199 78l-198 -78v102z" />
    <glyph glyph-name="Jcircumflex.sc" horiz-adv-x="298" 
d="M13 -123q19 38 32 71t20.5 65t11 66t3.5 74v424h142v-434q0 -41 -6 -76.5t-19.5 -71.5t-36 -74t-55.5 -84zM-28 720l179 62l183 -62v-93l-181 61l-181 -61v93z" />
    <glyph glyph-name="K" unicode="K" horiz-adv-x="744" 
d="M83 740h148v-309h132l200 309h166l-222 -325l-42 -26v-8l45 -26l236 -355h-166l-203 317h-146v-317h-148v740z" />
    <glyph glyph-name="Kcommaaccent" unicode="&#x136;" horiz-adv-x="744" 
d="M290 -70h150l-82 -150h-112zM83 740h148v-309h132l200 309h166l-222 -325l-42 -26v-8l45 -26l236 -355h-166l-203 317h-146v-317h-148v740z" />
    <glyph glyph-name="Kcommaaccent.sc" horiz-adv-x="683" 
d="M79 577h141v-233h113l173 233h158l-194 -251l-40 -20v-7l42 -21l207 -278h-159l-173 237h-127v-237h-141v577zM287 -55h144l-75 -117h-106z" />
    <glyph glyph-name="L" unicode="L" horiz-adv-x="598" 
d="M83 740h148v-626h353v-114h-501v740z" />
    <glyph glyph-name="Lacute" unicode="&#x139;" horiz-adv-x="597" 
d="M103 814l70 160h149l-111 -168zM83 740h148v-626h353v-114h-501v740z" />
    <glyph glyph-name="Lacute.sc" horiz-adv-x="552" 
d="M79 577h141v-470h314v-107h-455v577zM100 637l60 133h142l-101 -140z" />
    <glyph glyph-name="Lcaron" unicode="&#x13d;" horiz-adv-x="599" 
d="M421 778h115l-38 -228h-77v228zM83 740h148v-626h353v-114h-501v740z" />
    <glyph glyph-name="caron.alt" horiz-adv-x="240" 
d="M61 808h115l-38 -228h-77v228z" />
    <glyph glyph-name="Lcaron.sc" horiz-adv-x="552" 
d="M79 577h141v-470h313v-107h-454v577zM380 616h110l-36 -178h-74v178z" />
    <glyph glyph-name="Lcommaaccent" unicode="&#x13b;" horiz-adv-x="597" 
d="M245 -70h150l-82 -150h-112zM83 740h148v-626h353v-114h-501v740z" />
    <glyph glyph-name="Lcommaaccent.sc" horiz-adv-x="552" 
d="M79 577h141v-470h313v-107h-454v577zM220 -55h142l-75 -117h-106z" />
    <glyph glyph-name="Ldot" unicode="&#x13f;" horiz-adv-x="607" 
d="M83 740h148v-626h353v-114h-501v740zM495 308q-45 0 -64.5 19t-19.5 62t19.5 62t64.5 19q44 0 63.5 -19.5t19.5 -61.5t-19.5 -61.5t-63.5 -19.5z" />
    <glyph glyph-name="periodcentered" unicode="&#xb7;" horiz-adv-x="277" 
d="M139 289q-45 0 -64.5 19t-19.5 62t19.5 62t64.5 19q44 0 63.5 -19.5t19.5 -61.5t-19.5 -61.5t-63.5 -19.5z" />
    <glyph glyph-name="Ldot.sc" horiz-adv-x="561" 
d="M79 577h141v-470h313v-107h-454v577zM454 235q-42 0 -60.5 17.5t-18.5 56.5t18.5 56.5t60.5 17.5t60 -18t18 -56t-18 -56t-60 -18z" />
    <glyph glyph-name="Lslash" unicode="&#x141;" horiz-adv-x="617" 
d="M14 335l89 45v360h148v-285l160 82v-110l-160 -82v-231h353v-114h-501v270l-89 -45v110z" />
    <glyph glyph-name="Lslash.sc" horiz-adv-x="569" 
d="M19 278l77 35v264h141v-213l140 66v-101l-140 -66v-156h313v-107h-454v212l-77 -36v102z" />
    <glyph glyph-name="M" unicode="M" horiz-adv-x="1017" 
d="M83 740h200l161 -380l61 -169h7l61 169l161 380h200v-740h-131v577h-8l-87 -235l-138 -314h-122l-139 314l-88 235h-7v-577h-131v740z" />
    <glyph glyph-name="M.sc" horiz-adv-x="925" 
d="M79 577h182l140 -270l57 -130h8l58 130l140 270h182v-577h-125v429h-8l-83 -188l-112 -220h-111l-112 220l-83 188h-8v-429h-125v577z" />
    <glyph glyph-name="N" unicode="N" horiz-adv-x="845" 
d="M83 740h118l359 -443l65 -87h8v530h130v-740h-119l-354 437l-69 92h-8v-529h-130v740z" />
    <glyph glyph-name="N.sc" horiz-adv-x="754" 
d="M79 577h108l296 -319l59 -68h7v387h126v-577h-109l-290 311l-64 75h-8v-386h-125v577z" />
    <glyph glyph-name="A" unicode="A" horiz-adv-x="762" 
d="M2 9l269 731h220l269 -731v-9h-145l-70 191h-329l-69 -191h-145v9zM508 307l-69 184l-52 149h-13l-51 -150l-68 -183h253z" />
    <glyph glyph-name="Nacute" unicode="&#x143;" horiz-adv-x="845" 
d="M345 814l70 160h149l-111 -168zM83 740h118l359 -443l65 -87h8v530h130v-740h-119l-354 437l-69 92h-8v-529h-130v740z" />
    <glyph glyph-name="Nacute.sc" horiz-adv-x="754" 
d="M79 577h108l296 -319l59 -68h7v387h126v-577h-109l-290 311l-64 75h-8v-386h-125v577zM305 637l60 133h143l-101 -140z" />
    <glyph glyph-name="Ncaron" unicode="&#x147;" horiz-adv-x="845" 
d="M225 986l199 -78l198 78v-102l-200 -78l-197 78v102zM83 740h118l359 -443l65 -87h8v530h130v-740h-119l-354 437l-69 92h-8v-529h-130v740z" />
    <glyph glyph-name="Ncaron.sc" horiz-adv-x="754" 
d="M79 577h108l296 -319l59 -68h7v387h126v-577h-109l-290 311l-64 75h-8v-386h-125v577zM197 689v93l181 -62l182 62v-93l-184 -62z" />
    <glyph glyph-name="Ncommaaccent" unicode="&#x145;" horiz-adv-x="845" 
d="M358 -70h150l-82 -150h-112zM83 740h118l359 -443l65 -87h8v530h130v-740h-119l-354 437l-69 92h-8v-529h-130v740z" />
    <glyph glyph-name="Ncommaaccent.sc" horiz-adv-x="754" 
d="M79 577h108l296 -319l59 -68h7v387h126v-577h-109l-290 311l-64 75h-8v-386h-125v577zM313 -55h144l-76 -117h-106z" />
    <glyph glyph-name="Ndotaccent" unicode="&#x1e44;" horiz-adv-x="845" 
d="M425 809q-45 0 -64.5 19t-19.5 62q0 42 19.5 61.5t64.5 19.5q44 0 63.5 -19.5t19.5 -61.5t-19.5 -61.5t-63.5 -19.5zM83 740h118l359 -443l65 -87h8v530h130v-740h-119l-354 437l-69 92h-8v-529h-130v740z" />
    <glyph glyph-name="Ndotaccent.sc" horiz-adv-x="754" 
d="M79 577h108l296 -319l59 -68h7v387h126v-577h-109l-290 311l-64 75h-8v-386h-125v577zM380 627q-42 0 -60.5 17.5t-18.5 57.5q0 38 18.5 56t60.5 18t60 -18.5t18 -55.5q0 -38 -18 -56.5t-60 -18.5z" />
    <glyph glyph-name="Ntilde" unicode="&#xd1;" horiz-adv-x="845" 
d="M190 864q34 53 75.5 79t79.5 26q27 0 52 -6t49.5 -13.5t49 -13.5t50.5 -6q25 0 48.5 8t52.5 29l23 -32q-33 -52 -75.5 -78.5t-81.5 -26.5q-26 0 -51 6t-49.5 13t-49 13t-49.5 6t-48.5 -7.5t-51.5 -28.5zM83 740h118l359 -443l65 -87h8v530h130v-740h-119l-354 437l-69 92
h-8v-529h-130v740z" />
    <glyph glyph-name="Ntilde.sc" horiz-adv-x="754" 
d="M167 674q30 48 68 71.5t73 23.5q24 0 46.5 -4.5t45 -10t45 -10t46.5 -4.5q22 0 43 5.5t48 22.5l20 -27q-31 -48 -69.5 -71.5t-73.5 -23.5q-23 0 -46 4.5t-46 10.5t-46 10.5t-45 4.5t-42.5 -6t-45.5 -23zM79 577h108l296 -319l59 -68h7v387h126v-577h-109l-290 311l-64 75
h-8v-386h-125v577z" />
    <glyph glyph-name="O" unicode="O" horiz-adv-x="820" 
d="M410 -10q-176 0 -270 96.5t-94 282.5t93.5 283.5t270.5 97.5q175 0 270 -97.5t95 -283.5t-95 -282.5t-270 -96.5zM410 109q56 0 96.5 14.5t66.5 46t38.5 81t12.5 118.5q0 138 -52 200t-162 62q-111 0 -162.5 -61.5t-51.5 -200.5q0 -70 12.5 -119t38.5 -80.5t66.5 -46
t96.5 -14.5z" />
    <glyph glyph-name="O.sc" horiz-adv-x="746" 
d="M374 -8q-158 0 -243.5 75t-85.5 221q0 145 84.5 221t244.5 76q158 0 242.5 -76t84.5 -221q0 -144 -85 -220t-242 -76zM374 104q51 0 86 10t57 32t31.5 57t9.5 85q0 98 -42 141.5t-142 43.5q-101 0 -143 -43t-42 -142q0 -50 9.5 -85t31.5 -57t57.5 -32t86.5 -10z" />
    <glyph glyph-name="OE" unicode="&#x152;" horiz-adv-x="1121" 
d="M412 -10q-177 0 -272 96.5t-95 282.5t95 283.5t272 97.5q36 0 65 -2.5t57 -7.5h530v-115h-382v-194h352v-115h-352v-201h392v-115h-540q-29 -5 -58.5 -7.5t-63.5 -2.5zM412 109q37 0 67 2t55 7v504q-25 5 -54.5 7t-67.5 2q-112 0 -164 -61.5t-52 -200.5q0 -70 12.5 -119
t39 -80.5t67 -46t97.5 -14.5z" />
    <glyph glyph-name="OE.sc" horiz-adv-x="1025" 
d="M375 -8q-159 0 -244 75t-85 221q0 145 85 221t244 76q33 0 59 -2t52 -6h483v-104h-342v-136h314v-90h-314v-143h350v-104h-491q-26 -4 -53 -6t-58 -2zM374 104q35 0 62 1t50 5v357q-22 3 -49 4.5t-63 1.5q-48 0 -83 -9.5t-57.5 -31.5t-33.5 -57.5t-11 -86.5
q0 -52 10.5 -87t33 -56.5t57.5 -31t84 -9.5z" />
    <glyph glyph-name="Oacute" unicode="&#xd3;" horiz-adv-x="820" 
d="M351 814l70 160h149l-111 -168zM410 -10q-176 0 -270 96.5t-94 282.5t93.5 283.5t270.5 97.5q175 0 270 -97.5t95 -283.5t-95 -282.5t-270 -96.5zM410 109q56 0 96.5 14.5t66.5 46t38.5 81t12.5 118.5q0 138 -52 200t-162 62q-111 0 -162.5 -61.5t-51.5 -200.5
q0 -70 12.5 -119t38.5 -80.5t66.5 -46t96.5 -14.5z" />
    <glyph glyph-name="Oacute.sc" horiz-adv-x="747" 
d="M374 -8q-158 0 -243 75t-85 221q0 145 84.5 221t243.5 76q158 0 243 -76t85 -221q0 -144 -85 -220t-243 -76zM374 104q51 0 86.5 10t57.5 32t31.5 57t9.5 85q0 98 -42.5 141.5t-142.5 43.5q-50 0 -85.5 -10.5t-57.5 -32.5t-32 -57.5t-10 -84.5q0 -50 10 -85t31.5 -57
t57 -32t86.5 -10zM319 637l60 133h143l-101 -140z" />
    <glyph glyph-name="Obreve" unicode="&#x14e;" horiz-adv-x="820" 
d="M408 813q-59 0 -100 12.5t-67 35t-38 53.5t-12 67h100q0 -45 27 -69t90 -24t90 24t27 69h100q0 -37 -12 -67.5t-38 -53t-67.5 -35t-99.5 -12.5zM410 -10q-176 0 -270 96.5t-94 282.5t93.5 283.5t270.5 97.5q175 0 270 -97.5t95 -283.5t-95 -282.5t-270 -96.5zM410 109
q56 0 96.5 14.5t66.5 46t38.5 81t12.5 118.5q0 138 -52 200t-162 62q-111 0 -162.5 -61.5t-51.5 -200.5q0 -70 12.5 -119t38.5 -80.5t66.5 -46t96.5 -14.5z" />
    <glyph glyph-name="Obreve.sc" horiz-adv-x="747" 
d="M374 -8q-158 0 -243 75t-85 221q0 145 84.5 221t243.5 76q158 0 243 -76t85 -221q0 -144 -85 -220t-243 -76zM374 104q51 0 86.5 10t57.5 32t31.5 57t9.5 85q0 98 -42.5 141.5t-142.5 43.5q-50 0 -85.5 -10.5t-57.5 -32.5t-32 -57.5t-10 -84.5q0 -50 10 -85t31.5 -57
t57 -32t86.5 -10zM372 634q-97 0 -147.5 36t-50.5 103h94q0 -71 104 -71t104 71h93q0 -68 -50 -103.5t-147 -35.5z" />
    <glyph glyph-name="Ocircumflex" unicode="&#xd4;" horiz-adv-x="820" 
d="M410 -10q-176 0 -270 96.5t-94 282.5t93.5 283.5t270.5 97.5q175 0 270 -97.5t95 -283.5t-95 -282.5t-270 -96.5zM410 109q56 0 96.5 14.5t66.5 46t38.5 81t12.5 118.5q0 138 -52 200t-162 62q-111 0 -162.5 -61.5t-51.5 -200.5q0 -70 12.5 -119t38.5 -80.5t66.5 -46
t96.5 -14.5zM210 908l197 78l200 -78v-102l-199 78l-198 -78v102z" />
    <glyph glyph-name="Ocircumflex.sc" horiz-adv-x="747" 
d="M374 -8q-158 0 -243 75t-85 221q0 145 84.5 221t243.5 76q158 0 243 -76t85 -221q0 -144 -85 -220t-243 -76zM374 104q51 0 86.5 10t57.5 32t31.5 57t9.5 85q0 98 -42.5 141.5t-142.5 43.5q-50 0 -85.5 -10.5t-57.5 -32.5t-32 -57.5t-10 -84.5q0 -50 10 -85t31.5 -57
t57 -32t86.5 -10zM191 720l180 62l183 -62v-93l-182 61l-181 -61v93z" />
    <glyph glyph-name="Odblgrave" unicode="&#x20c;" horiz-adv-x="820" 
d="M410 -10q-176 0 -270 96.5t-94 282.5t93.5 283.5t270.5 97.5q175 0 270 -97.5t95 -283.5t-95 -282.5t-270 -96.5zM410 109q56 0 96.5 14.5t66.5 46t38.5 81t12.5 118.5q0 138 -52 200t-162 62q-111 0 -162.5 -61.5t-51.5 -200.5q0 -70 12.5 -119t38.5 -80.5t66.5 -46
t96.5 -14.5zM254 801l-111 169h147l68 -157zM453 801l-113 169h147l70 -157z" />
    <glyph glyph-name="Odblgrave.sc" horiz-adv-x="747" 
d="M374 -8q-158 0 -243 75t-85 221q0 145 84.5 221t243.5 76q158 0 243 -76t85 -221q0 -144 -85 -220t-243 -76zM374 104q51 0 86.5 10t57.5 32t31.5 57t9.5 85q0 98 -42.5 141.5t-142.5 43.5q-50 0 -85.5 -10.5t-57.5 -32.5t-32 -57.5t-10 -84.5q0 -50 10 -85t31.5 -57
t57 -32t86.5 -10zM228 627l-101 141h142l59 -132zM410 627l-101 141h142l60 -132z" />
    <glyph glyph-name="Odieresis" unicode="&#xd6;" horiz-adv-x="820" 
d="M256 811q-44 0 -63.5 19.5t-19.5 62.5q0 42 19.5 61.5t63.5 19.5t63.5 -19.5t19.5 -61.5t-19.5 -62t-63.5 -20zM553 811q-44 0 -63.5 19.5t-19.5 62.5q0 42 19.5 61.5t63.5 19.5q45 0 64 -19.5t19 -61.5t-19 -62t-64 -20zM410 -10q-176 0 -270 96.5t-94 282.5t93.5 283.5
t270.5 97.5q175 0 270 -97.5t95 -283.5t-95 -282.5t-270 -96.5zM410 109q56 0 96.5 14.5t66.5 46t38.5 81t12.5 118.5q0 138 -52 200t-162 62q-111 0 -162.5 -61.5t-51.5 -200.5q0 -70 12.5 -119t38.5 -80.5t66.5 -46t96.5 -14.5z" />
    <glyph glyph-name="Odieresis.sc" horiz-adv-x="747" 
d="M374 -8q-158 0 -243 75t-85 221q0 145 84.5 221t243.5 76q158 0 243 -76t85 -221q0 -144 -85 -220t-243 -76zM374 104q51 0 86.5 10t57.5 32t31.5 57t9.5 85q0 98 -42.5 141.5t-142.5 43.5q-50 0 -85.5 -10.5t-57.5 -32.5t-32 -57.5t-10 -84.5q0 -50 10 -85t31.5 -57
t57 -32t86.5 -10zM234 629q-41 0 -59.5 17t-18.5 57q0 39 19 56.5t59 17.5t59.5 -17.5t19.5 -56.5q0 -40 -19 -57t-60 -17zM502 629q-42 0 -60 16.5t-18 57.5q0 40 18.5 57t59.5 17q39 0 58.5 -17.5t19.5 -56.5q0 -40 -19 -57t-59 -17z" />
    <glyph glyph-name="Odotbelow" unicode="&#x1ecc;" horiz-adv-x="820" 
d="M412 -198q-35 0 -51 15t-16 50t16 50.5t51 15.5q37 0 53 -16t16 -50t-16 -49.5t-53 -15.5zM410 -10q-176 0 -270 96.5t-94 282.5t93.5 283.5t270.5 97.5q175 0 270 -97.5t95 -283.5t-95 -282.5t-270 -96.5zM410 109q56 0 96.5 14.5t66.5 46t38.5 81t12.5 118.5
q0 138 -52 200t-162 62q-111 0 -162.5 -61.5t-51.5 -200.5q0 -70 12.5 -119t38.5 -80.5t66.5 -46t96.5 -14.5z" />
    <glyph glyph-name="Odotbelow.sc" horiz-adv-x="746" 
d="M374 -8q-159 0 -244 75.5t-85 220.5t84.5 221t244.5 76q158 0 242.5 -76t84.5 -221q0 -144 -84.5 -220t-242.5 -76zM374 104q49 0 84 9.5t57 31t32.5 56.5t10.5 87q0 101 -44 143t-140 42q-48 0 -83 -9.5t-57.5 -31.5t-33.5 -57.5t-11 -86.5q0 -52 10.5 -87t33 -56.5
t57.5 -31t84 -9.5zM376 -161q-62 0 -62 57q0 59 62 59q34 0 48.5 -14.5t14.5 -44.5q0 -29 -14.5 -43t-48.5 -14z" />
    <glyph glyph-name="Ograve" unicode="&#xd2;" horiz-adv-x="820" 
d="M348 806l-112 168h150l69 -156zM410 -10q-176 0 -270 96.5t-94 282.5t93.5 283.5t270.5 97.5q175 0 270 -97.5t95 -283.5t-95 -282.5t-270 -96.5zM410 109q56 0 96.5 14.5t66.5 46t38.5 81t12.5 118.5q0 138 -52 200t-162 62q-111 0 -162.5 -61.5t-51.5 -200.5
q0 -70 12.5 -119t38.5 -80.5t66.5 -46t96.5 -14.5z" />
    <glyph glyph-name="Ograve.sc" horiz-adv-x="746" 
d="M374 -8q-159 0 -244 75.5t-85 220.5t84.5 221t244.5 76q158 0 242.5 -76t84.5 -221q0 -144 -84.5 -220t-242.5 -76zM374 104q49 0 84 9.5t57 31t32.5 56.5t10.5 87q0 101 -44 143t-140 42q-48 0 -83 -9.5t-57.5 -31.5t-33.5 -57.5t-11 -86.5q0 -52 10.5 -87t33 -56.5
t57.5 -31t84 -9.5zM314 630l-102 140h143l60 -131z" />
    <glyph glyph-name="Ohungarumlaut" unicode="&#x150;" horiz-adv-x="820" 
d="M410 -10q-176 0 -270 96.5t-94 282.5t93.5 283.5t270.5 97.5q175 0 270 -97.5t95 -283.5t-95 -282.5t-270 -96.5zM410 109q56 0 96.5 14.5t66.5 46t38.5 81t12.5 118.5q0 138 -52 200t-162 62q-111 0 -162.5 -61.5t-51.5 -200.5q0 -70 12.5 -119t38.5 -80.5t66.5 -46
t96.5 -14.5zM242 813l68 157h147l-111 -169zM439 813l69 157h148l-112 -169z" />
    <glyph glyph-name="hungarumlaut.cap" horiz-adv-x="578" 
d="M110 813l68 157h147l-111 -169zM307 813l69 157h148l-112 -169z" />
    <glyph glyph-name="Ohungarumlaut.sc" horiz-adv-x="746" 
d="M374 -8q-159 0 -244 75.5t-85 220.5t84.5 221t244.5 76q158 0 242.5 -76t84.5 -221q0 -144 -84.5 -220t-242.5 -76zM374 104q49 0 84 9.5t57 31t32.5 56.5t10.5 87q0 101 -44 143t-140 42q-48 0 -83 -9.5t-57.5 -31.5t-33.5 -57.5t-11 -86.5q0 -52 10.5 -87t33 -56.5
t57.5 -31t84 -9.5zM215 636l61 132h141l-102 -141zM397 636l60 132h141l-100 -141z" />
    <glyph glyph-name="Oinvertedbreve" unicode="&#x20e;" horiz-adv-x="820" 
d="M410 -10q-176 0 -270 96.5t-94 282.5t93.5 283.5t270.5 97.5q175 0 270 -97.5t95 -283.5t-95 -282.5t-270 -96.5zM410 109q56 0 96.5 14.5t66.5 46t38.5 81t12.5 118.5q0 138 -52 200t-162 62q-111 0 -162.5 -61.5t-51.5 -200.5q0 -70 12.5 -119t38.5 -80.5t66.5 -46
t96.5 -14.5zM526 819q0 44 -27 68.5t-91 24.5q-63 0 -90 -24.5t-27 -68.5h-99q0 36 12 66.5t37.5 53t66.5 35t100 12.5t100 -12.5t67 -34.5t38 -52.5t12 -67.5h-99z" />
    <glyph glyph-name="Oinvertedbreve.sc" horiz-adv-x="746" 
d="M374 -8q-159 0 -244 75.5t-85 220.5t84.5 221t244.5 76q158 0 242.5 -76t84.5 -221q0 -144 -84.5 -220t-242.5 -76zM374 104q49 0 84 9.5t57 31t32.5 56.5t10.5 87q0 101 -44 143t-140 42q-48 0 -83 -9.5t-57.5 -31.5t-33.5 -57.5t-11 -86.5q0 -52 10.5 -87t33 -56.5
t57.5 -31t84 -9.5zM476 640q0 33 -23.5 52t-80.5 19t-80.5 -19t-23.5 -52h-94q0 29 10.5 54.5t34 44t61 29.5t92.5 11q54 0 92 -10.5t61 -29.5t33.5 -44t10.5 -55h-93z" />
    <glyph glyph-name="Omacron" unicode="&#x14c;" horiz-adv-x="820" 
d="M213 941h393v-99h-393v99zM410 -10q-176 0 -270 96.5t-94 282.5t93.5 283.5t270.5 97.5q175 0 270 -97.5t95 -283.5t-95 -282.5t-270 -96.5zM410 109q56 0 96.5 14.5t66.5 46t38.5 81t12.5 118.5q0 138 -52 200t-162 62q-111 0 -162.5 -61.5t-51.5 -200.5
q0 -70 12.5 -119t38.5 -80.5t66.5 -46t96.5 -14.5z" />
    <glyph glyph-name="Omacron.sc" horiz-adv-x="746" 
d="M374 -8q-159 0 -244 75.5t-85 220.5t84.5 221t244.5 76q158 0 242.5 -76t84.5 -221q0 -144 -84.5 -220t-242.5 -76zM374 104q49 0 84 9.5t57 31t32.5 56.5t10.5 87q0 101 -44 143t-140 42q-48 0 -83 -9.5t-57.5 -31.5t-33.5 -57.5t-11 -86.5q0 -52 10.5 -87t33 -56.5
t57.5 -31t84 -9.5zM194 749h359v-92h-359v92z" />
    <glyph glyph-name="Omega" unicode="&#x2126;" horiz-adv-x="826" 
d="M51 106l197 -8q-88 53 -137 137t-49 186q0 74 25 135t71 104t110.5 66.5t144.5 23.5q79 0 144 -23.5t111.5 -66.5t71.5 -104t25 -135q0 -103 -50 -186.5t-138 -136.5l199 8v-106h-311v89q84 56 124 131t40 184q0 52 -15 94t-43 71.5t-68 45.5t-90 16q-99 0 -155.5 -61
t-56.5 -166q0 -68 18.5 -121t44 -92t53 -64.5t44.5 -37.5v-89h-310v106z" />
    <glyph glyph-name="Oogonek" unicode="&#x1ea;" horiz-adv-x="820" 
d="M412 -210q-66 0 -101 22t-35 66q0 64 75 115q-148 16 -226.5 110.5t-78.5 265.5q0 186 93.5 283.5t270.5 97.5q175 0 270 -97.5t95 -283.5q0 -161 -72 -255t-206 -117q-68 -31 -96 -54t-28 -47q0 -28 37 -28q14 0 39 4t48 10v-80q-35 -12 -85 -12zM410 109
q56 0 96.5 14.5t66.5 46t38.5 81t12.5 118.5q0 138 -52 200t-162 62q-111 0 -162.5 -61.5t-51.5 -200.5q0 -70 12.5 -119t38.5 -80.5t66.5 -46t96.5 -14.5z" />
    <glyph glyph-name="Oogonek.sc" horiz-adv-x="747" 
d="M377 -165q-60 0 -92.5 19t-32.5 52q0 24 16.5 47.5t47.5 41.5q-131 12 -200.5 86.5t-69.5 206.5q0 145 84.5 221t243.5 76q158 0 243 -76t85 -221q0 -68 -18.5 -119t-51.5 -86.5t-78.5 -56.5t-100.5 -28q-33 -12 -54.5 -21.5t-34 -18t-17 -15.5t-4.5 -15q0 -12 8.5 -16
t22.5 -4q15 0 39.5 3t41.5 7v-74q-18 -5 -38 -7t-40 -2zM374 104q49 0 84 9.5t57.5 31t33 56.5t10.5 87q0 101 -44 143t-141 42q-48 0 -83 -9.5t-57.5 -31.5t-33.5 -57.5t-11 -86.5q0 -52 10.5 -87t33 -56.5t57.5 -31t84 -9.5z" />
    <glyph glyph-name="Oslash" unicode="&#xd8;" horiz-adv-x="821" 
d="M123 107q-38 48 -57.5 113t-19.5 149q0 186 94 283.5t270 97.5q137 0 225 -61l45 51h110l-94 -107q79 -96 79 -264q0 -186 -94.5 -282.5t-270.5 -96.5q-138 0 -226 61l-45 -51h-110zM410 109q57 0 97.5 14.5t66.5 46t38.5 81t12.5 118.5q0 96 -25 155l-331 -376
q49 -39 141 -39zM197 369q0 -96 23 -152l329 375q-49 39 -139 39q-110 0 -161.5 -61.5t-51.5 -200.5z" />
    <glyph glyph-name="Oslash.sc" horiz-adv-x="748" 
d="M115 83q-69 73 -69 205q0 145 85 221t243 76q61 0 111 -12.5t89 -35.5l39 40h103l-84 -82q71 -77 71 -207q0 -144 -85.5 -220t-243.5 -76q-121 0 -201 49l-39 -41h-104zM374 104q49 0 84 9.5t57.5 31t33 56.5t10.5 87q0 71 -27 113l-263 -272q40 -25 105 -25zM189 288
q0 -69 26 -112l263 271q-41 26 -104 26q-48 0 -83 -9.5t-57.5 -31.5t-33.5 -57.5t-11 -86.5z" />
    <glyph glyph-name="Oslashacute" unicode="&#x1fe;" horiz-adv-x="821" 
d="M123 107q-38 48 -57.5 113t-19.5 149q0 186 94 283.5t270 97.5q137 0 225 -61l45 51h110l-94 -107q79 -96 79 -264q0 -186 -94.5 -282.5t-270.5 -96.5q-138 0 -226 61l-45 -51h-110zM410 109q57 0 97.5 14.5t66.5 46t38.5 81t12.5 118.5q0 96 -25 155l-331 -376
q49 -39 141 -39zM197 369q0 -96 23 -152l329 375q-49 39 -139 39q-110 0 -161.5 -61.5t-51.5 -200.5zM348 814l70 160h149l-111 -168z" />
    <glyph glyph-name="Oslashacute.sc" horiz-adv-x="748" 
d="M115 83q-69 73 -69 205q0 145 85 221t243 76q61 0 111 -12.5t89 -35.5l39 40h103l-84 -82q71 -77 71 -207q0 -144 -85.5 -220t-243.5 -76q-121 0 -201 49l-39 -41h-104zM374 104q49 0 84 9.5t57.5 31t33 56.5t10.5 87q0 71 -27 113l-263 -272q40 -25 105 -25zM315 637
l60 133h143l-101 -140zM189 288q0 -69 26 -112l263 271q-41 26 -104 26q-48 0 -83 -9.5t-57.5 -31.5t-33.5 -57.5t-11 -86.5z" />
    <glyph glyph-name="Otilde" unicode="&#xd5;" horiz-adv-x="820" 
d="M176 864q34 53 75.5 79t79.5 26q27 0 52 -6t49.5 -13.5t49 -13.5t50.5 -6q25 0 48.5 8t52.5 29l23 -32q-33 -52 -75.5 -78.5t-81.5 -26.5q-26 0 -51 6t-49.5 13t-49 13t-49.5 6t-48.5 -7.5t-51.5 -28.5zM410 -10q-176 0 -270 96.5t-94 282.5t93.5 283.5t270.5 97.5
q175 0 270 -97.5t95 -283.5t-95 -282.5t-270 -96.5zM410 109q56 0 96.5 14.5t66.5 46t38.5 81t12.5 118.5q0 138 -52 200t-162 62q-111 0 -162.5 -61.5t-51.5 -200.5q0 -70 12.5 -119t38.5 -80.5t66.5 -46t96.5 -14.5z" />
    <glyph glyph-name="Otilde.sc" horiz-adv-x="746" 
d="M374 -8q-159 0 -244 75.5t-85 220.5t84.5 221t244.5 76q158 0 242.5 -76t84.5 -221q0 -144 -84.5 -220t-242.5 -76zM374 104q49 0 84 9.5t57 31t32.5 56.5t10.5 87q0 101 -44 143t-140 42q-48 0 -83 -9.5t-57.5 -31.5t-33.5 -57.5t-11 -86.5q0 -52 10.5 -87t33 -56.5
t57.5 -31t84 -9.5zM160 674q32 48 69.5 71.5t72.5 23.5q24 0 46.5 -4.5t45 -10t45 -10t46.5 -4.5q22 0 43 5.5t48 22.5l20 -27q-31 -48 -69.5 -71.5t-74.5 -23.5q-23 0 -45.5 4.5t-45.5 10.5t-45.5 10.5t-45.5 4.5q-22 0 -42.5 -6t-45.5 -23z" />
    <glyph glyph-name="P" unicode="P" horiz-adv-x="719" 
d="M83 735q118 15 220 15q203 0 295 -63.5t92 -202.5q0 -137 -93 -201.5t-287 -64.5h-38t-41 2v-220h-148v735zM333 333q58 0 97.5 8t64 25.5t35 46.5t10.5 71q0 41 -10.5 70t-34.5 47t-63.5 26t-96.5 8q-26 0 -55.5 -2.5t-48.5 -4.5v-286q16 -4 45.5 -6.5t56.5 -2.5z" />
    <glyph glyph-name="P.sc" horiz-adv-x="659" 
d="M78 573q109 12 201 12t158 -12.5t108.5 -38t62.5 -65.5t20 -95q0 -106 -84.5 -156.5t-258.5 -50.5q-11 0 -29.5 0.5t-35.5 2.5v-170h-142v573zM315 267q48 0 80.5 5.5t52.5 18.5t28.5 33.5t8.5 49.5t-8.5 49t-29 32.5t-54 18t-82.5 5.5q-19 0 -43 -1t-48 -3v-201
q17 -3 43 -5t52 -2z" />
    <glyph glyph-name="Q" unicode="Q" horiz-adv-x="819" 
d="M733 -150q-133 28 -236.5 57.5t-180 63t-129 73t-84.5 87.5t-46 107t-14 131q0 90 25 161t72 119.5t115 74.5t154 26q87 0 155 -26t115 -74.5t71.5 -119.5t24.5 -161q0 -80 -20 -143.5t-58 -107.5t-92 -67t-123 -23h-16.5t-16.5 1v-10q63 -12 105.5 -19.5t75 -12.5
t60.5 -8t62 -6zM409 109q111 0 163 63t52 197t-52 198t-163 64q-109 0 -162 -64t-53 -198q0 -133 52.5 -196.5t162.5 -63.5z" />
    <glyph glyph-name="Q.sc" horiz-adv-x="747" 
d="M666 -131q-177 34 -296.5 71.5t-191.5 86t-102.5 112t-30.5 149.5q0 69 22.5 124.5t65 93.5t103.5 58.5t139 20.5q77 0 138 -20.5t103.5 -58.5t65 -93t22.5 -125q0 -131 -71 -195t-220 -64v-6q59 -10 97.5 -16t67 -10.5t51.5 -7t52 -4.5zM375 105q98 0 141.5 43.5
t43.5 139.5t-44 140.5t-141 44.5t-142 -45t-45 -140t44.5 -139t142.5 -44z" />
    <glyph glyph-name="R" unicode="R" horiz-adv-x="739" 
d="M397 255q-41 -3 -87 -3q-14 0 -37.5 1t-41.5 3v-256h-148v735q117 15 220 15q203 0 295 -59t92 -189q0 -166 -161 -221l194 -281h-168zM333 367q58 0 97.5 7t64 23t35 41.5t10.5 62.5t-11 62.5t-35 41.5t-63 23t-96 7q-25 0 -54.5 -2.5t-49.5 -4.5v-252q12 -4 39.5 -6.5
t62.5 -2.5z" />
    <glyph glyph-name="R.sc" horiz-adv-x="679" 
d="M364 193q-32 -3 -66 -3q-17 0 -36.5 1.5t-41.5 3.5v-195h-142v573q112 12 201 12q92 0 158 -11.5t108.5 -35.5t62.5 -61.5t20 -89.5q0 -64 -33 -106t-103 -65l168 -216h-162zM308 288q51 0 85.5 5t55.5 16t30 29.5t9 45.5q0 54 -40 76.5t-137 22.5q-10 0 -22.5 -0.5
t-25 -1.5t-24 -2t-19.5 -2v-183q4 -1 14 -2t22.5 -2t26.5 -1.5t25 -0.5z" />
    <glyph glyph-name="Racute" unicode="&#x154;" horiz-adv-x="739" 
d="M397 255q-41 -3 -87 -3q-14 0 -37.5 1t-41.5 3v-256h-148v735q117 15 220 15q203 0 295 -59t92 -189q0 -166 -161 -221l194 -281h-168zM333 367q58 0 97.5 7t64 23t35 41.5t10.5 62.5t-11 62.5t-35 41.5t-63 23t-96 7q-25 0 -54.5 -2.5t-49.5 -4.5v-252q12 -4 39.5 -6.5
t62.5 -2.5zM300 814l70 160h149l-111 -168z" />
    <glyph glyph-name="Racute.sc" horiz-adv-x="679" 
d="M78 573q112 12 201 12q92 0 158 -11.5t108.5 -35.5t62.5 -61.5t20 -89.5q0 -64 -33 -106t-103 -65l168 -216h-162l-134 193q-32 -3 -66 -3q-17 0 -36.5 1.5t-41.5 3.5v-195h-142v573zM308 288q51 0 85.5 5t55.5 16t30 29.5t9 45.5q0 54 -40 76.5t-137 22.5
q-10 0 -22.5 -0.5t-25 -1.5t-24 -2t-19.5 -2v-183q4 -1 14 -2t22.5 -2t26.5 -1.5t25 -0.5zM273 637l60 133h143l-101 -140z" />
    <glyph glyph-name="Rcaron" unicode="&#x158;" horiz-adv-x="739" 
d="M164 986l199 -78l198 78v-102l-200 -78l-197 78v102zM397 255q-41 -3 -87 -3q-14 0 -37.5 1t-41.5 3v-256h-148v735q117 15 220 15q203 0 295 -59t92 -189q0 -166 -161 -221l194 -281h-168zM333 367q58 0 97.5 7t64 23t35 41.5t10.5 62.5t-11 62.5t-35 41.5t-63 23t-96 7
q-25 0 -54.5 -2.5t-49.5 -4.5v-252q12 -4 39.5 -6.5t62.5 -2.5z" />
    <glyph glyph-name="Rcaron.sc" horiz-adv-x="679" 
d="M78 573q112 12 201 12q92 0 158 -11.5t108.5 -35.5t62.5 -61.5t20 -89.5q0 -64 -33 -106t-103 -65l168 -216h-162l-134 193q-32 -3 -66 -3q-17 0 -36.5 1.5t-41.5 3.5v-195h-142v573zM308 288q51 0 85.5 5t55.5 16t30 29.5t9 45.5q0 54 -40 76.5t-137 22.5
q-10 0 -22.5 -0.5t-25 -1.5t-24 -2t-19.5 -2v-183q4 -1 14 -2t22.5 -2t26.5 -1.5t25 -0.5zM151 689v93l182 -62l181 62v-93l-183 -62z" />
    <glyph glyph-name="Rcommaaccent" unicode="&#x156;" horiz-adv-x="739" 
d="M304 -70h150l-82 -150h-112zM397 255q-41 -3 -87 -3q-14 0 -37.5 1t-41.5 3v-256h-148v735q117 15 220 15q203 0 295 -59t92 -189q0 -166 -161 -221l194 -281h-168zM333 367q58 0 97.5 7t64 23t35 41.5t10.5 62.5t-11 62.5t-35 41.5t-63 23t-96 7q-25 0 -54.5 -2.5
t-49.5 -4.5v-252q12 -4 39.5 -6.5t62.5 -2.5z" />
    <glyph glyph-name="Rcommaaccent.sc" horiz-adv-x="679" 
d="M364 193q-32 -3 -66 -3q-17 0 -36.5 1.5t-41.5 3.5v-195h-142v573q112 12 201 12q92 0 158 -11.5t108.5 -35.5t62.5 -61.5t20 -89.5q0 -64 -33 -106t-103 -65l168 -216h-162zM276 -55h143l-76 -117h-106zM308 288q51 0 85.5 5t55.5 16t30 29.5t9 45.5q0 54 -40 76.5
t-137 22.5q-10 0 -22.5 -0.5t-25 -1.5t-24 -2t-19.5 -2v-183q4 -1 14 -2t22.5 -2t26.5 -1.5t25 -0.5z" />
    <glyph glyph-name="Rdblgrave" unicode="&#x210;" horiz-adv-x="739" 
d="M397 255q-41 -3 -87 -3q-14 0 -37.5 1t-41.5 3v-256h-148v735q117 15 220 15q203 0 295 -59t92 -189q0 -166 -161 -221l194 -281h-168zM333 367q58 0 97.5 7t64 23t35 41.5t10.5 62.5t-11 62.5t-35 41.5t-63 23t-96 7q-25 0 -54.5 -2.5t-49.5 -4.5v-252q12 -4 39.5 -6.5
t62.5 -2.5zM215 801l-111 169h147l68 -157zM414 801l-113 169h147l70 -157z" />
    <glyph glyph-name="Rdblgrave.sc" horiz-adv-x="679" 
d="M78 573q112 12 201 12q92 0 158 -11.5t108.5 -35.5t62.5 -61.5t20 -89.5q0 -64 -33 -106t-103 -65l168 -216h-162l-134 193q-32 -3 -66 -3q-17 0 -36.5 1.5t-41.5 3.5v-195h-142v573zM308 288q51 0 85.5 5t55.5 16t30 29.5t9 45.5q0 54 -40 76.5t-137 22.5
q-10 0 -22.5 -0.5t-25 -1.5t-24 -2t-19.5 -2v-183q4 -1 14 -2t22.5 -2t26.5 -1.5t25 -0.5zM103 768h141l60 -132l-101 -9zM285 768h141l60 -132l-101 -9z" />
    <glyph glyph-name="Rdotbelow" unicode="&#x1e5a;" horiz-adv-x="739" 
d="M397 255q-41 -3 -87 -3q-14 0 -37.5 1t-41.5 3v-256h-148v735q117 15 220 15q203 0 295 -59t92 -189q0 -166 -161 -221l194 -281h-168zM333 367q58 0 97.5 7t64 23t35 41.5t10.5 62.5t-11 62.5t-35 41.5t-63 23t-96 7q-25 0 -54.5 -2.5t-49.5 -4.5v-252q12 -4 39.5 -6.5
t62.5 -2.5zM357 -198q-35 0 -51 15t-16 50t16 50.5t51 15.5q37 0 53 -16t16 -50t-16 -49.5t-53 -15.5z" />
    <glyph glyph-name="Rdotbelow.sc" horiz-adv-x="679" 
d="M78 573q112 12 201 12q92 0 158 -11.5t108.5 -35.5t62.5 -61.5t20 -89.5q0 -64 -33 -106t-103 -65l168 -216h-162l-134 193q-32 -3 -66 -3q-17 0 -36.5 1.5t-41.5 3.5v-195h-142v573zM308 288q51 0 85.5 5t55.5 16t30 29.5t9 45.5q0 54 -40 76.5t-137 22.5
q-10 0 -22.5 -0.5t-25 -1.5t-24 -2t-19.5 -2v-183q4 -1 14 -2t22.5 -2t26.5 -1.5t25 -0.5zM326 -161q-62 0 -62 57q0 59 62 59q35 0 49 -14.5t14 -44.5q0 -29 -14 -43t-49 -14z" />
    <glyph glyph-name="Rinvertedbreve" unicode="&#x212;" horiz-adv-x="739" 
d="M397 255q-41 -3 -87 -3q-14 0 -37.5 1t-41.5 3v-256h-148v735q117 15 220 15q203 0 295 -59t92 -189q0 -166 -161 -221l194 -281h-168zM333 367q58 0 97.5 7t64 23t35 41.5t10.5 62.5t-11 62.5t-35 41.5t-63 23t-96 7q-25 0 -54.5 -2.5t-49.5 -4.5v-252q12 -4 39.5 -6.5
t62.5 -2.5zM482 819q0 44 -27 68.5t-91 24.5q-63 0 -90 -24.5t-27 -68.5h-99q0 36 12 66.5t37.5 53t66.5 35t100 12.5t100 -12.5t67 -34.5t38 -52.5t12 -67.5h-99z" />
    <glyph glyph-name="Rinvertedbreve.sc" horiz-adv-x="679" 
d="M78 573q112 12 201 12q92 0 158 -11.5t108.5 -35.5t62.5 -61.5t20 -89.5q0 -64 -33 -106t-103 -65l168 -216h-162l-134 193q-32 -3 -66 -3q-17 0 -36.5 1.5t-41.5 3.5v-195h-142v573zM137 640q0 29 10 54.5t33.5 44t61 29.5t92.5 11q54 0 92 -10.5t61.5 -29.5t34 -44
t10.5 -55h-94q0 33 -23.5 52t-80.5 19t-80.5 -19t-23.5 -52h-93zM308 288q51 0 85.5 5t55.5 16t30 29.5t9 45.5q0 54 -40 76.5t-137 22.5q-10 0 -22.5 -0.5t-25 -1.5t-24 -2t-19.5 -2v-183q4 -1 14 -2t22.5 -2t26.5 -1.5t25 -0.5z" />
    <glyph glyph-name="S" unicode="S" horiz-adv-x="656" 
d="M316 -11q-29 0 -63 2t-70 6t-71.5 9.5t-68.5 11.5v121q79 -17 145 -25.5t119 -8.5q160 0 160 91q0 27 -11 45.5t-31.5 31t-49 20.5t-62.5 15q-69 13 -118.5 32.5t-81 47t-46 65t-14.5 86.5t20.5 89t58.5 68t93 43t123 15q24 0 48.5 -1.5t52.5 -5t60.5 -9t71.5 -12.5v-120
q-52 15 -110.5 23t-106.5 8q-74 0 -114.5 -24.5t-40.5 -69.5q0 -23 8 -40.5t26 -31.5t48 -24.5t74 -19.5q61 -12 108.5 -28.5t80.5 -41.5t50.5 -61t17.5 -87q0 -110 -77 -165t-229 -55z" />
    <glyph glyph-name="S.sc" horiz-adv-x="606" 
d="M293 -9q-26 0 -57 1.5t-63.5 4.5t-65 7.5t-62.5 9.5v113q69 -13 129 -19.5t111 -6.5q66 0 101 16t35 46q0 18 -9 30t-26 20.5t-41 14t-55 10.5q-125 16 -180.5 57t-55.5 119q0 40 18.5 72t53 54.5t84 34.5t111.5 12q44 0 92.5 -5t120.5 -17v-111q-47 11 -99.5 17.5
t-97.5 6.5q-135 0 -135 -64q0 -29 31.5 -46t103.5 -30q53 -6 96 -18t73.5 -32t47 -49t16.5 -70q0 -178 -277 -178z" />
    <glyph glyph-name="Sacute" unicode="&#x15a;" horiz-adv-x="656" 
d="M316 -11q-29 0 -63 2t-70 6t-71.5 9.5t-68.5 11.5v121q79 -17 145 -25.5t119 -8.5q160 0 160 91q0 27 -11 45.5t-31.5 31t-49 20.5t-62.5 15q-69 13 -118.5 32.5t-81 47t-46 65t-14.5 86.5t20.5 89t58.5 68t93 43t123 15q24 0 48.5 -1.5t52.5 -5t60.5 -9t71.5 -12.5v-120
q-52 15 -110.5 23t-106.5 8q-74 0 -114.5 -24.5t-40.5 -69.5q0 -23 8 -40.5t26 -31.5t48 -24.5t74 -19.5q61 -12 108.5 -28.5t80.5 -41.5t50.5 -61t17.5 -87q0 -110 -77 -165t-229 -55zM266 814l70 160h149l-111 -168z" />
    <glyph glyph-name="Sacute.sc" horiz-adv-x="606" 
d="M293 -9q-26 0 -57 1.5t-63.5 4.5t-65 7.5t-62.5 9.5v113q69 -13 129 -19.5t111 -6.5q66 0 101 16t35 46q0 18 -9 30t-26 20.5t-41 14t-55 10.5q-125 16 -180.5 57t-55.5 119q0 40 18.5 72t53 54.5t84 34.5t111.5 12q44 0 92.5 -5t120.5 -17v-111q-47 11 -99.5 17.5
t-97.5 6.5q-135 0 -135 -64q0 -29 31.5 -46t103.5 -30q53 -6 96 -18t73.5 -32t47 -49t16.5 -70q0 -178 -277 -178zM245 637l60 133h142l-100 -140z" />
    <glyph glyph-name="Scaron" unicode="&#x160;" horiz-adv-x="656" 
d="M316 -11q-29 0 -63 2t-70 6t-71.5 9.5t-68.5 11.5v121q79 -17 145 -25.5t119 -8.5q160 0 160 91q0 27 -11 45.5t-31.5 31t-49 20.5t-62.5 15q-69 13 -118.5 32.5t-81 47t-46 65t-14.5 86.5t20.5 89t58.5 68t93 43t123 15q24 0 48.5 -1.5t52.5 -5t60.5 -9t71.5 -12.5v-120
q-52 15 -110.5 23t-106.5 8q-74 0 -114.5 -24.5t-40.5 -69.5q0 -23 8 -40.5t26 -31.5t48 -24.5t74 -19.5q61 -12 108.5 -28.5t80.5 -41.5t50.5 -61t17.5 -87q0 -110 -77 -165t-229 -55zM134 986l199 -78l198 78v-102l-200 -78l-197 78v102z" />
    <glyph glyph-name="Scaron.sc" horiz-adv-x="606" 
d="M293 -9q-26 0 -57 1.5t-63.5 4.5t-65 7.5t-62.5 9.5v113q69 -13 129 -19.5t111 -6.5q66 0 101 16t35 46q0 18 -9 30t-26 20.5t-41 14t-55 10.5q-125 16 -180.5 57t-55.5 119q0 40 18.5 72t53 54.5t84 34.5t111.5 12q44 0 92.5 -5t120.5 -17v-111q-47 11 -99.5 17.5
t-97.5 6.5q-135 0 -135 -64q0 -29 31.5 -46t103.5 -30q53 -6 96 -18t73.5 -32t47 -49t16.5 -70q0 -178 -277 -178zM127 782l180 -62l182 62v-93l-183 -62l-179 62v93z" />
    <glyph glyph-name="Schwa" unicode="&#x18f;" horiz-adv-x="757" 
d="M41 328q0 23 1.5 45.5t6.5 52.5h518q-3 57 -16 94.5t-38.5 60.5t-64.5 32.5t-95 9.5q-53 0 -121 -7.5t-153 -26.5l-7 119q31 10 69.5 18t78 13t78 8t68.5 3q173 0 258.5 -90.5t85.5 -278.5t-87.5 -289.5t-259.5 -101.5q-153 0 -237.5 84t-84.5 254zM365 108q52 0 88.5 11
t60.5 36.5t37 66.5t16 101h-386v-18q0 -49 9 -86t30.5 -61.5t57 -37t87.5 -12.5z" />
    <glyph glyph-name="Schwa.sc" horiz-adv-x="675" 
d="M43 249q0 25 2.5 47t7.5 39h423q-3 37 -13 63t-31 42.5t-53.5 24t-78.5 7.5q-27 0 -58 -2t-61 -5t-58.5 -7.5t-50.5 -10.5l-5 107q49 15 115.5 23.5t129.5 8.5q161 0 239.5 -72t78.5 -218q0 -149 -80 -226.5t-234 -77.5q-131 0 -202 66.5t-71 190.5zM322 101
q78 0 115 37.5t41 118.5h-298q-4 -75 32 -115.5t110 -40.5z" />
    <glyph glyph-name="Scircumflex" unicode="&#x15c;" horiz-adv-x="656" 
d="M316 -11q-29 0 -63 2t-70 6t-71.5 9.5t-68.5 11.5v121q79 -17 145 -25.5t119 -8.5q160 0 160 91q0 27 -11 45.5t-31.5 31t-49 20.5t-62.5 15q-69 13 -118.5 32.5t-81 47t-46 65t-14.5 86.5t20.5 89t58.5 68t93 43t123 15q24 0 48.5 -1.5t52.5 -5t60.5 -9t71.5 -12.5v-120
q-52 15 -110.5 23t-106.5 8q-74 0 -114.5 -24.5t-40.5 -69.5q0 -23 8 -40.5t26 -31.5t48 -24.5t74 -19.5q61 -12 108.5 -28.5t80.5 -41.5t50.5 -61t17.5 -87q0 -110 -77 -165t-229 -55zM138 908l197 78l200 -78v-102l-199 78l-198 -78v102z" />
    <glyph glyph-name="Scircumflex.sc" horiz-adv-x="606" 
d="M293 -9q-26 0 -57 1.5t-63.5 4.5t-65 7.5t-62.5 9.5v113q69 -13 129 -19.5t111 -6.5q66 0 101 16t35 46q0 18 -9 30t-26 20.5t-41 14t-55 10.5q-125 16 -180.5 57t-55.5 119q0 40 18.5 72t53 54.5t84 34.5t111.5 12q44 0 92.5 -5t120.5 -17v-111q-47 11 -99.5 17.5
t-97.5 6.5q-135 0 -135 -64q0 -29 31.5 -46t103.5 -30q53 -6 96 -18t73.5 -32t47 -49t16.5 -70q0 -178 -277 -178zM131 720l179 62l182 -62v-93l-180 61l-181 -61v93z" />
    <glyph glyph-name="Sdotbelow" unicode="&#x1e62;" horiz-adv-x="656" 
d="M316 -11q-29 0 -63 2t-70 6t-71.5 9.5t-68.5 11.5v121q79 -17 145 -25.5t119 -8.5q160 0 160 91q0 27 -11 45.5t-31.5 31t-49 20.5t-62.5 15q-69 13 -118.5 32.5t-81 47t-46 65t-14.5 86.5t20.5 89t58.5 68t93 43t123 15q24 0 48.5 -1.5t52.5 -5t60.5 -9t71.5 -12.5v-120
q-52 15 -110.5 23t-106.5 8q-74 0 -114.5 -24.5t-40.5 -69.5q0 -23 8 -40.5t26 -31.5t48 -24.5t74 -19.5q61 -12 108.5 -28.5t80.5 -41.5t50.5 -61t17.5 -87q0 -110 -77 -165t-229 -55zM321 -198q-35 0 -51 15t-16 50t16 50.5t51 15.5q37 0 53 -16t16 -50t-16 -49.5
t-53 -15.5z" />
    <glyph glyph-name="Sdotbelow.sc" horiz-adv-x="606" 
d="M293 -9q-26 0 -57 1.5t-63.5 4.5t-65 7.5t-62.5 9.5v113q69 -13 129 -19.5t111 -6.5q66 0 101 16t35 46q0 18 -9 30t-26 20.5t-41 14t-55 10.5q-125 16 -180.5 57t-55.5 119q0 40 18.5 72t53 54.5t84 34.5t111.5 12q44 0 92.5 -5t120.5 -17v-111q-47 11 -99.5 17.5
t-97.5 6.5q-135 0 -135 -64q0 -29 31.5 -46t103.5 -30q53 -6 96 -18t73.5 -32t47 -49t16.5 -70q0 -178 -277 -178zM299 -161q-33 0 -48 14t-15 43q0 31 15 45t48 14q34 0 48 -14.5t14 -44.5q0 -29 -14 -43t-48 -14z" />
    <glyph glyph-name="T" unicode="T" horiz-adv-x="665" 
d="M258 625h-239v115h627v-115h-240v-625h-148v625z" />
    <glyph glyph-name="Tbar" unicode="&#x166;" horiz-adv-x="677" 
d="M115 418h147v207h-239v115h627v-115h-240v-207h166v-87h-166v-331h-148v331h-147v87z" />
    <glyph glyph-name="Tbar.sc" horiz-adv-x="616" 
d="M104 329h133v141h-210v107h562v-107h-210v-141h135v-80h-135v-249h-142v249h-133v80z" />
    <glyph glyph-name="Tcaron" unicode="&#x164;" horiz-adv-x="665" 
d="M134 986l199 -78l198 78v-102l-200 -78l-197 78v102zM258 625h-239v115h627v-115h-240v-625h-148v625z" />
    <glyph glyph-name="Tcaron.sc" horiz-adv-x="608" 
d="M233 470h-210v107h562v-107h-210v-470h-142v470zM122 782l182 -62l182 62v-93l-183 -62l-181 62v93z" />
    <glyph glyph-name="Tdotbelow" unicode="&#x1e6c;" horiz-adv-x="665" 
d="M333 -198q-35 0 -51 15t-16 50t16 50.5t51 15.5q37 0 53 -16t16 -50t-16 -49.5t-53 -15.5zM258 625h-239v115h627v-115h-240v-625h-148v625z" />
    <glyph glyph-name="Tdotbelow.sc" horiz-adv-x="608" 
d="M233 470h-210v107h562v-107h-210v-470h-142v470zM305 -161q-33 0 -48 14t-15 43q0 31 15 45t48 14q34 0 48.5 -14.5t14.5 -44.5q0 -29 -14.5 -43t-48.5 -14z" />
    <glyph glyph-name="Thorn" unicode="&#xde;" horiz-adv-x="723" 
d="M83 741h148v-118q20 1 40.5 1.5t40.5 0.5q198 0 288.5 -61t90.5 -194q0 -67 -21.5 -115.5t-67.5 -79.5t-116.5 -45.5t-169.5 -14.5q-20 0 -41.5 0.5t-43.5 1.5v-117h-148v741zM324 238q65 0 107.5 5.5t67 20.5t34.5 40.5t10 65.5q0 39 -10.5 64t-36 40t-69 21t-108.5 6
q-8 0 -20.5 -0.5t-26 -1t-25 -1.5t-16.5 -2v-252q3 -1 14.5 -2t26 -2t29 -1.5t23.5 -0.5z" />
    <glyph glyph-name="Thorn.sc" horiz-adv-x="663" 
d="M79 578h141v-81q13 2 30.5 2.5t29.5 0.5q92 0 158 -12t108.5 -37.5t62.5 -65.5t20 -95q0 -106 -85 -157t-259 -51q-11 0 -29.5 1t-35.5 3v-86h-141v578zM316 183q48 0 80.5 5.5t52.5 18.5t28.5 33.5t8.5 49.5q0 28 -9 48t-29 32.5t-54 18t-83 5.5q-19 0 -43 -1t-48 -3
v-200q17 -3 43.5 -5t52.5 -2z" />
    <glyph glyph-name="U" unicode="U" horiz-adv-x="829" 
d="M415 -10q-93 0 -158 19t-105.5 58t-58.5 99t-18 142v433h148v-437q0 -101 47 -148t145 -47q97 0 144 47t47 148v437h148v-433q0 -82 -18 -142t-58.5 -99t-105 -58t-157.5 -19z" />
    <glyph glyph-name="U.sc" horiz-adv-x="757" 
d="M379 -8q-81 0 -139 14t-95.5 44.5t-55 78t-17.5 115.5v335h140v-342q0 -72 44.5 -102.5t122.5 -30.5q77 0 121.5 30.5t44.5 102.5v342h141v-335q0 -68 -17.5 -115.5t-55 -78t-95.5 -44.5t-139 -14z" />
    <glyph glyph-name="Uacute" unicode="&#xda;" horiz-adv-x="829" 
d="M341 814l70 160h149l-111 -168zM415 -10q-93 0 -158 19t-105.5 58t-58.5 99t-18 142v433h148v-437q0 -101 47 -148t145 -47q97 0 144 47t47 148v437h148v-433q0 -82 -18 -142t-58.5 -99t-105 -58t-157.5 -19z" />
    <glyph glyph-name="Uacute.sc" horiz-adv-x="757" 
d="M379 -8q-85 0 -143.5 15t-95 46.5t-52.5 78.5t-16 112v335h140v-342q0 -133 167 -133q166 0 166 133v342h141v-335q0 -65 -16 -112t-52.5 -78.5t-95 -46.5t-143.5 -15zM309 637l60 133h143l-101 -140z" />
    <glyph glyph-name="Ubreve" unicode="&#x16c;" horiz-adv-x="829" 
d="M412 813q-59 0 -100 12.5t-67 35t-38 53.5t-12 67h100q0 -45 27 -69t90 -24t90 24t27 69h100q0 -37 -12 -67.5t-38 -53t-67.5 -35t-99.5 -12.5zM415 -10q-93 0 -158 19t-105.5 58t-58.5 99t-18 142v433h148v-437q0 -101 47 -148t145 -47q97 0 144 47t47 148v437h148v-433
q0 -82 -18 -142t-58.5 -99t-105 -58t-157.5 -19z" />
    <glyph glyph-name="Ubreve.sc" horiz-adv-x="757" 
d="M379 -8q-85 0 -143.5 15t-95 46.5t-52.5 78.5t-16 112v335h140v-342q0 -133 167 -133q166 0 166 133v342h141v-335q0 -65 -16 -112t-52.5 -78.5t-95 -46.5t-143.5 -15zM377 634q-54 0 -92 11t-61 29.5t-33.5 44t-10.5 54.5h94q0 -34 23 -52.5t80 -18.5t80 18.5t23 52.5
h94q0 -30 -10.5 -55t-33.5 -44t-61 -29.5t-92 -10.5z" />
    <glyph glyph-name="Ucircumflex" unicode="&#xdb;" horiz-adv-x="829" 
d="M415 -10q-93 0 -158 19t-105.5 58t-58.5 99t-18 142v433h148v-437q0 -101 47 -148t145 -47q97 0 144 47t47 148v437h148v-433q0 -82 -18 -142t-58.5 -99t-105 -58t-157.5 -19zM212 908l197 78l200 -78v-102l-199 78l-198 -78v102z" />
    <glyph glyph-name="Ucircumflex.sc" horiz-adv-x="757" 
d="M379 -8q-85 0 -143.5 15t-95 46.5t-52.5 78.5t-16 112v335h140v-342q0 -133 167 -133q166 0 166 133v342h141v-335q0 -65 -16 -112t-52.5 -78.5t-95 -46.5t-143.5 -15zM194 720l179 62l184 -62v-93l-182 61l-181 -61v93z" />
    <glyph glyph-name="Udblgrave" unicode="&#x214;" horiz-adv-x="829" 
d="M415 -10q-93 0 -158 19t-105.5 58t-58.5 99t-18 142v433h148v-437q0 -101 47 -148t145 -47q97 0 144 47t47 148v437h148v-433q0 -82 -18 -142t-58.5 -99t-105 -58t-157.5 -19zM258 801l-111 169h147l68 -157zM457 801l-113 169h147l70 -157z" />
    <glyph glyph-name="Udblgrave.sc" horiz-adv-x="757" 
d="M379 -8q-85 0 -143.5 15t-95 46.5t-52.5 78.5t-16 112v335h140v-342q0 -133 167 -133q166 0 166 133v342h141v-335q0 -65 -16 -112t-52.5 -78.5t-95 -46.5t-143.5 -15zM234 627l-102 141h142l60 -132zM415 627l-101 141h142l59 -132z" />
    <glyph glyph-name="Udieresis" unicode="&#xdc;" horiz-adv-x="829" 
d="M263 811q-44 0 -63.5 19.5t-19.5 62.5q0 42 19.5 61.5t63.5 19.5t63.5 -19.5t19.5 -61.5t-19.5 -62t-63.5 -20zM560 811q-44 0 -63.5 19.5t-19.5 62.5q0 42 19.5 61.5t63.5 19.5q45 0 64 -19.5t19 -61.5t-19 -62t-64 -20zM415 -10q-93 0 -158 19t-105.5 58t-58.5 99
t-18 142v433h148v-437q0 -101 47 -148t145 -47q97 0 144 47t47 148v437h148v-433q0 -82 -18 -142t-58.5 -99t-105 -58t-157.5 -19z" />
    <glyph glyph-name="Udieresis.sc" horiz-adv-x="757" 
d="M379 -8q-85 0 -143.5 15t-95 46.5t-52.5 78.5t-16 112v335h140v-342q0 -133 167 -133q166 0 166 133v342h141v-335q0 -65 -16 -112t-52.5 -78.5t-95 -46.5t-143.5 -15zM243 629q-42 0 -60.5 17.5t-18.5 56.5q0 38 18.5 56t60.5 18t60 -18t18 -56t-18 -56t-60 -18z
M510 629q-42 0 -60 17.5t-18 56.5q0 38 18 56t60 18t60 -18t18 -56t-18 -56t-60 -18z" />
    <glyph glyph-name="Udotbelow" unicode="&#x1ee4;" horiz-adv-x="829" 
d="M415 -10q-93 0 -158 19t-105.5 58t-58.5 99t-18 142v433h148v-437q0 -101 47 -148t145 -47q97 0 144 47t47 148v437h148v-433q0 -82 -18 -142t-58.5 -99t-105 -58t-157.5 -19zM408 -198q-35 0 -51 15t-16 50t16 50.5t51 15.5q37 0 53 -16t16 -50t-16 -49.5t-53 -15.5z
" />
    <glyph glyph-name="Udotbelow.sc" horiz-adv-x="757" 
d="M379 -8q-85 0 -143.5 15t-95 46.5t-52.5 78.5t-16 112v335h140v-342q0 -133 167 -133q166 0 166 133v342h141v-335q0 -65 -16 -112t-52.5 -78.5t-95 -46.5t-143.5 -15zM373 -161q-33 0 -47.5 14t-14.5 43q0 31 14.5 45t47.5 14q34 0 48 -14.5t14 -44.5q0 -29 -14 -43
t-48 -14z" />
    <glyph glyph-name="Ugrave" unicode="&#xd9;" horiz-adv-x="829" 
d="M358 806l-112 168h150l69 -156zM415 -10q-93 0 -158 19t-105.5 58t-58.5 99t-18 142v433h148v-437q0 -101 47 -148t145 -47q97 0 144 47t47 148v437h148v-433q0 -82 -18 -142t-58.5 -99t-105 -58t-157.5 -19z" />
    <glyph glyph-name="Ugrave.sc" horiz-adv-x="757" 
d="M379 -8q-85 0 -143.5 15t-95 46.5t-52.5 78.5t-16 112v335h140v-342q0 -133 167 -133q166 0 166 133v342h141v-335q0 -65 -16 -112t-52.5 -78.5t-95 -46.5t-143.5 -15zM326 630l-102 140h143l59 -131z" />
    <glyph glyph-name="Uhungarumlaut" unicode="&#x170;" horiz-adv-x="829" 
d="M415 -10q-93 0 -158 19t-105.5 58t-58.5 99t-18 142v433h148v-437q0 -101 47 -148t145 -47q97 0 144 47t47 148v437h148v-433q0 -82 -18 -142t-58.5 -99t-105 -58t-157.5 -19zM255 813l68 157h147l-111 -169zM452 813l69 157h148l-112 -169z" />
    <glyph glyph-name="Uhungarumlaut.sc" horiz-adv-x="757" 
d="M379 -8q-85 0 -143.5 15t-95 46.5t-52.5 78.5t-16 112v335h140v-342q0 -133 167 -133q166 0 166 133v342h141v-335q0 -65 -16 -112t-52.5 -78.5t-95 -46.5t-143.5 -15zM230 636l59 132h143l-102 -141zM412 636l60 132h141l-100 -141z" />
    <glyph glyph-name="Uinvertedbreve" unicode="&#x216;" horiz-adv-x="829" 
d="M415 -10q-93 0 -158 19t-105.5 58t-58.5 99t-18 142v433h148v-437q0 -101 47 -148t145 -47q97 0 144 47t47 148v437h148v-433q0 -82 -18 -142t-58.5 -99t-105 -58t-157.5 -19zM525 819q0 44 -27 68.5t-91 24.5q-63 0 -90 -24.5t-27 -68.5h-99q0 36 12 66.5t37.5 53
t66.5 35t100 12.5t100 -12.5t67 -34.5t38 -52.5t12 -67.5h-99z" />
    <glyph glyph-name="Uinvertedbreve.sc" horiz-adv-x="757" 
d="M379 -8q-85 0 -143.5 15t-95 46.5t-52.5 78.5t-16 112v335h140v-342q0 -133 167 -133q166 0 166 133v342h141v-335q0 -65 -16 -112t-52.5 -78.5t-95 -46.5t-143.5 -15zM476 640q0 33 -23.5 52t-80.5 19t-80.5 -19t-23.5 -52h-93q0 29 10.5 54.5t33.5 44t61 29.5t92 11
t92 -10.5t61.5 -29.5t34 -44t10.5 -55h-94z" />
    <glyph glyph-name="Umacron" unicode="&#x16a;" horiz-adv-x="829" 
d="M213 941h393v-99h-393v99zM415 -10q-93 0 -158 19t-105.5 58t-58.5 99t-18 142v433h148v-437q0 -101 47 -148t145 -47q97 0 144 47t47 148v437h148v-433q0 -82 -18 -142t-58.5 -99t-105 -58t-157.5 -19z" />
    <glyph glyph-name="Umacron.sc" horiz-adv-x="757" 
d="M379 -8q-85 0 -143.5 15t-95 46.5t-52.5 78.5t-16 112v335h140v-342q0 -133 167 -133q166 0 166 133v342h141v-335q0 -65 -16 -112t-52.5 -78.5t-95 -46.5t-143.5 -15zM195 749h359v-92h-359v92z" />
    <glyph glyph-name="Uogonek" unicode="&#x172;" horiz-adv-x="829" 
d="M410 -213q-66 0 -101 22t-35 66q0 65 78 118q-76 6 -128.5 27.5t-85.5 60.5t-48 95.5t-15 131.5v433h148v-437q0 -101 47 -148t145 -47q97 0 144 47t47 148v437h148v-433q0 -73 -14 -128t-45 -94t-80.5 -62t-119.5 -30q-68 -31 -96 -54t-28 -47q0 -28 37 -28q14 0 39 4
t48 10v-80q-35 -12 -85 -12z" />
    <glyph glyph-name="Uogonek.sc" horiz-adv-x="757" 
d="M375 -169q-60 0 -92 19t-32 53q0 25 17.5 50t50.5 42q-68 5 -115 22.5t-76 48t-42.5 75t-13.5 103.5v335h140v-342q0 -133 167 -133q166 0 166 133v342h141v-335q0 -57 -13 -101t-41 -75t-73 -49t-109 -24q-33 -12 -54 -22t-33 -18t-16.5 -15.5t-4.5 -14.5q0 -12 8 -15.5
t23 -3.5q7 0 17.5 0.5t21.5 2t22 2.5t19 3v-73q-18 -5 -38 -7.5t-40 -2.5z" />
    <glyph glyph-name="Uring" unicode="&#x16e;" horiz-adv-x="829" 
d="M415 -10q-93 0 -158 19t-105.5 58t-58.5 99t-18 142v433h148v-437q0 -101 47 -148t145 -47q97 0 144 47t47 148v437h148v-433q0 -82 -18 -142t-58.5 -99t-105 -58t-157.5 -19zM412 791q-29 0 -54 8.5t-43 23.5t-28.5 35.5t-10.5 45.5t10.5 46t28.5 36t43 23.5t54 8.5
t53.5 -8.5t42.5 -23.5t28.5 -36t10.5 -46t-10.5 -45.5t-28.5 -35.5t-42.5 -23.5t-53.5 -8.5zM412 846q71 0 71 58q0 59 -71 59q-38 0 -55 -15t-17 -44t17 -43.5t55 -14.5z" />
    <glyph glyph-name="Uring.sc" horiz-adv-x="757" 
d="M379 -8q-85 0 -143.5 15t-95 46.5t-52.5 78.5t-16 112v335h140v-342q0 -133 167 -133q166 0 166 133v342h141v-335q0 -65 -16 -112t-52.5 -78.5t-95 -46.5t-143.5 -15zM377 615q-52 0 -87 24.5t-35 64.5t35 65.5t87 25.5t87 -25.5t35 -65.5t-35 -64.5t-87 -24.5zM377 662
q33 0 47.5 11t14.5 31q0 22 -14.5 32.5t-47.5 10.5t-48 -10.5t-15 -32.5q0 -20 15 -31t48 -11z" />
    <glyph glyph-name="Utilde" unicode="&#x168;" horiz-adv-x="829" 
d="M178 864q34 53 75.5 79t79.5 26q27 0 52 -6t49.5 -13.5t49 -13.5t50.5 -6q25 0 48.5 8t52.5 29l23 -32q-33 -52 -75.5 -78.5t-81.5 -26.5q-26 0 -51 6t-49.5 13t-49 13t-49.5 6t-48.5 -7.5t-51.5 -28.5zM415 -10q-93 0 -158 19t-105.5 58t-58.5 99t-18 142v433h148v-437
q0 -101 47 -148t145 -47q97 0 144 47t47 148v437h148v-433q0 -82 -18 -142t-58.5 -99t-105 -58t-157.5 -19z" />
    <glyph glyph-name="Utilde.sc" horiz-adv-x="757" 
d="M379 -8q-85 0 -143.5 15t-95 46.5t-52.5 78.5t-16 112v335h140v-342q0 -133 167 -133q166 0 166 133v342h141v-335q0 -65 -16 -112t-52.5 -78.5t-95 -46.5t-143.5 -15zM164 674q31 48 68.5 71.5t72.5 23.5q24 0 47 -4.5t45.5 -10t44.5 -10t46 -4.5q22 0 43 5.5t49 22.5
l20 -27q-31 -48 -70 -71.5t-74 -23.5q-23 0 -45.5 4.5t-45.5 10.5t-45.5 10.5t-45.5 4.5t-43.5 -6t-45.5 -23z" />
    <glyph glyph-name="V" unicode="V" horiz-adv-x="755" 
d="M3 740h159l164 -447l48 -152h9l49 152l164 447h156l-276 -740h-196z" />
    <glyph glyph-name="V.sc" horiz-adv-x="687" 
d="M6 577h155l139 -344l42 -120h6l42 120l138 344h153l-244 -577h-187z" />
    <glyph glyph-name="W" unicode="W" horiz-adv-x="1114" 
d="M16 740h156l110 -458l30 -143h10l34 143l126 458h150l125 -458l35 -143h10l29 143l111 458h156l-197 -740h-200l-110 396l-30 166h-8l-30 -166l-110 -396h-201z" />
    <glyph glyph-name="W.sc" horiz-adv-x="1007" 
d="M17 577h152l92 -336l25 -113h9l31 113l108 336h139l107 -336l31 -113h9l25 113l93 336h151l-171 -577h-193l-86 270l-32 143h-8l-32 -144l-85 -269h-193z" />
    <glyph glyph-name="Wacute" unicode="&#x1e82;" horiz-adv-x="1114" 
d="M497 814l70 160h149l-111 -168zM16 740h156l110 -458l30 -143h10l34 143l126 458h150l125 -458l35 -143h10l29 143l111 458h156l-197 -740h-200l-110 396l-30 166h-8l-30 -166l-110 -396h-201z" />
    <glyph glyph-name="Wacute.sc" horiz-adv-x="1007" 
d="M17 577h152l92 -336l25 -113h9l31 113l108 336h139l107 -336l31 -113h9l25 113l93 336h151l-171 -577h-193l-86 270l-32 143h-8l-32 -144l-85 -269h-193zM447 637l60 133h143l-101 -140z" />
    <glyph glyph-name="Wcircumflex" unicode="&#x174;" horiz-adv-x="1114" 
d="M16 740h156l110 -458l30 -143h10l34 143l126 458h150l125 -458l35 -143h10l29 143l111 458h156l-197 -740h-200l-110 396l-30 166h-8l-30 -166l-110 -396h-201zM359 908l197 78l200 -78v-102l-199 78l-198 -78v102z" />
    <glyph glyph-name="Wcircumflex.sc" horiz-adv-x="1007" 
d="M17 577h152l92 -336l25 -113h9l31 113l108 336h139l107 -336l31 -113h9l25 113l93 336h151l-171 -577h-193l-86 270l-32 143h-8l-32 -144l-85 -269h-193zM322 720l180 62l183 -62v-93l-181 61l-182 -61v93z" />
    <glyph glyph-name="Wdieresis" unicode="&#x1e84;" horiz-adv-x="1114" 
d="M408 811q-44 0 -63.5 19.5t-19.5 62.5q0 42 19.5 61.5t63.5 19.5t63.5 -19.5t19.5 -61.5t-19.5 -62t-63.5 -20zM705 811q-44 0 -63.5 19.5t-19.5 62.5q0 42 19.5 61.5t63.5 19.5q45 0 64 -19.5t19 -61.5t-19 -62t-64 -20zM16 740h156l110 -458l30 -143h10l34 143l126 458
h150l125 -458l35 -143h10l29 143l111 458h156l-197 -740h-200l-110 396l-30 166h-8l-30 -166l-110 -396h-201z" />
    <glyph glyph-name="Wdieresis.sc" horiz-adv-x="1007" 
d="M17 577h152l92 -336l25 -113h9l31 113l108 336h139l107 -336l31 -113h9l25 113l93 336h151l-171 -577h-193l-86 270l-32 143h-8l-32 -144l-85 -269h-193zM370 629q-42 0 -60.5 17.5t-18.5 56.5q0 38 18.5 56t60.5 18t60 -18t18 -56t-18 -56t-60 -18zM637 629
q-42 0 -60 17.5t-18 56.5q0 38 18 56t60 18t60 -18t18 -56t-18 -56t-60 -18z" />
    <glyph glyph-name="Wgrave" unicode="&#x1e80;" horiz-adv-x="1114" 
d="M494 806l-112 168h150l69 -156zM16 740h156l110 -458l30 -143h10l34 143l126 458h150l125 -458l35 -143h10l29 143l111 458h156l-197 -740h-200l-110 396l-30 166h-8l-30 -166l-110 -396h-201z" />
    <glyph glyph-name="Wgrave.sc" horiz-adv-x="1007" 
d="M17 577h152l92 -336l25 -113h9l31 113l108 336h139l107 -336l31 -113h9l25 113l93 336h151l-171 -577h-193l-86 270l-32 143h-8l-32 -144l-85 -269h-193zM442 630l-101 140h143l60 -131z" />
    <glyph glyph-name="X" unicode="X" horiz-adv-x="747" 
d="M279 387l-266 353h168l160 -221l27 -47h10l25 47l164 221h168l-273 -363l292 -377h-168l-183 251l-23 40h-10l-22 -40l-185 -251h-168z" />
    <glyph glyph-name="X.sc" horiz-adv-x="682" 
d="M237 302l-220 275h167l134 -169l22 -37h6l21 37l131 169h167l-225 -283l241 -294h-167l-151 193l-18 32h-6l-19 -32l-151 -193h-167z" />
    <glyph glyph-name="Y" unicode="Y" horiz-adv-x="713" 
d="M284 237l-286 503h158l161 -291l34 -78h10l34 78l161 291h158l-283 -498v-242h-147v237z" />
    <glyph glyph-name="Y.sc" horiz-adv-x="644" 
d="M249 185l-247 392h154l135 -221l28 -62h6l28 62l133 221h155l-245 -392v-185h-147v185z" />
    <glyph glyph-name="Yacute" unicode="&#xdd;" horiz-adv-x="713" 
d="M284 237l-286 503h158l161 -291l34 -78h10l34 78l161 291h158l-283 -498v-242h-147v237zM300 814l70 160h149l-111 -168z" />
    <glyph glyph-name="Yacute.sc" horiz-adv-x="644" 
d="M249 185l-247 392h154l135 -221l28 -62h6l28 62l133 221h155l-245 -392v-185h-147v185zM270 637l59 133h143l-101 -140z" />
    <glyph glyph-name="Ycircumflex" unicode="&#x176;" horiz-adv-x="713" 
d="M284 237l-286 503h158l161 -291l34 -78h10l34 78l161 291h158l-283 -498v-242h-147v237zM156 908l197 78l200 -78v-102l-199 78l-198 -78v102z" />
    <glyph glyph-name="Ycircumflex.sc" horiz-adv-x="644" 
d="M249 185l-247 392h154l135 -221l28 -62h6l28 62l133 221h155l-245 -392v-185h-147v185zM138 720l180 62l183 -62v-93l-181 61l-182 -61v93z" />
    <glyph glyph-name="Ydieresis" unicode="&#x178;" horiz-adv-x="713" 
d="M284 237l-286 503h158l161 -291l34 -78h10l34 78l161 291h158l-283 -498v-242h-147v237zM207 811q-44 0 -63.5 19.5t-19.5 62.5q0 42 19.5 61.5t63.5 19.5t63.5 -19.5t19.5 -61.5t-19.5 -62t-63.5 -20zM504 811q-44 0 -63.5 19.5t-19.5 62.5q0 42 19.5 61.5t63.5 19.5
q45 0 64 -19.5t19 -61.5t-19 -62t-64 -20z" />
    <glyph glyph-name="Ydieresis.sc" horiz-adv-x="644" 
d="M187 629q-42 0 -60.5 17.5t-18.5 56.5q0 38 18.5 56t60.5 18t60 -18t18 -56t-18 -56t-60 -18zM454 629q-42 0 -60 17.5t-18 56.5q0 38 18 56t60 18t60 -18t18 -56t-18 -56t-60 -18zM249 185l-247 392h154l135 -221l28 -62h6l28 62l133 221h155l-245 -392v-185h-147v185z
" />
    <glyph glyph-name="Ygrave" unicode="&#x1ef2;" horiz-adv-x="713" 
d="M284 237l-286 503h158l161 -291l34 -78h10l34 78l161 291h158l-283 -498v-242h-147v237zM300 806l-112 168h150l69 -156z" />
    <glyph glyph-name="Ygrave.sc" horiz-adv-x="644" 
d="M249 185l-247 392h154l135 -221l28 -62h6l28 62l133 221h155l-245 -392v-185h-147v185zM165 770h144l59 -131l-101 -9z" />
    <glyph glyph-name="Ytilde" unicode="&#x1ef8;" horiz-adv-x="713" 
d="M284 237l-286 503h158l161 -291l34 -78h10l34 78l161 291h158l-283 -498v-242h-147v237zM121 864q34 53 75.5 79t79.5 26q27 0 52 -6t49.5 -13.5t49 -13.5t50.5 -6q25 0 48.5 8t52.5 29l23 -32q-33 -52 -75.5 -78.5t-81.5 -26.5q-26 0 -51 6t-49.5 13t-49 13t-49.5 6
t-48.5 -7.5t-51.5 -28.5z" />
    <glyph glyph-name="Ytilde.sc" horiz-adv-x="644" 
d="M249 185l-247 392h154l135 -221l28 -62h6l28 62l133 221h155l-245 -392v-185h-147v185zM106 674q31 48 68.5 71.5t72.5 23.5q24 0 47 -4.5t45.5 -10t44.5 -10t46 -4.5q22 0 43.5 5.5t48.5 22.5l20 -27q-31 -48 -70 -71.5t-74 -23.5q-23 0 -45.5 4.5t-45.5 10.5
t-45.5 10.5t-45.5 4.5q-22 0 -43 -6t-45 -23z" />
    <glyph glyph-name="Z" unicode="Z" horiz-adv-x="665" 
d="M34 103l398 514v6h-384v117h568v-99l-398 -518v-6h414v-117h-598v103z" />
    <glyph glyph-name="Z.sc" horiz-adv-x="613" 
d="M40 97l341 367v6h-332v107h515v-92l-345 -372v-6h356v-107h-535v97z" />
    <glyph glyph-name="Zacute" unicode="&#x179;" horiz-adv-x="665" 
d="M34 103l398 514v6h-384v117h568v-99l-398 -518v-6h414v-117h-598v103zM285 814l70 160h149l-111 -168z" />
    <glyph glyph-name="Zacute.sc" 
d="M40 97l341 367v6h-332v107h515v-92l-345 -372v-6h356v-107h-535v97zM262 637l61 133h142l-100 -140z" />
    <glyph glyph-name="Zcaron" unicode="&#x17d;" horiz-adv-x="665" 
d="M133 986l199 -78l198 78v-102l-200 -78l-197 78v102zM34 103l398 514v6h-384v117h568v-99l-398 -518v-6h414v-117h-598v103z" />
    <glyph glyph-name="Zcaron.sc" 
d="M40 97l341 367v6h-332v107h515v-92l-345 -372v-6h356v-107h-535v97zM123 782l182 -62l181 62v-93l-182 -62l-181 62v93z" />
    <glyph glyph-name="Zdotaccent" unicode="&#x17b;" horiz-adv-x="665" 
d="M333 809q-45 0 -64.5 19t-19.5 62q0 42 19.5 61.5t64.5 19.5q44 0 63.5 -19.5t19.5 -61.5t-19.5 -61.5t-63.5 -19.5zM34 103l398 514v6h-384v117h568v-99l-398 -518v-6h414v-117h-598v103z" />
    <glyph glyph-name="Zdotaccent.sc" 
d="M40 97l341 367v6h-332v107h515v-92l-345 -372v-6h356v-107h-535v97zM306 627q-42 0 -60 17.5t-18 57.5q0 38 18 56t60 18t60 -18.5t18 -55.5q0 -38 -18 -56.5t-60 -18.5z" />
    <glyph glyph-name="Zdotbelow" unicode="&#x1e92;" horiz-adv-x="665" 
d="M34 103l398 514v6h-384v117h568v-99l-398 -518v-6h414v-117h-598v103zM322 -198q-35 0 -51 15t-16 50t16 50.5t51 15.5q37 0 53 -16t16 -50t-16 -49.5t-53 -15.5z" />
    <glyph glyph-name="Zdotbelow.sc" 
d="M40 97l341 367v6h-332v107h515v-92l-345 -372v-6h356v-107h-535v97zM298 -161q-33 0 -48 14t-15 43q0 31 15 45t48 14q34 0 48 -14.5t14 -44.5q0 -29 -14 -43t-48 -14z" />
    <glyph glyph-name="a" unicode="a" horiz-adv-x="596" 
d="M194 -5q-78 0 -117.5 38.5t-39.5 110.5q0 81 50.5 123t160.5 50l138 9v15q0 29 -5.5 48.5t-19.5 31.5t-39 17t-65 5t-84 -4.5t-94 -14.5l-10 102q60 11 112 15.5t101 4.5q127 0 188 -45t61 -139v-362h-119l-14 67h-8q-48 -38 -97.5 -55t-98.5 -17zM256 96q32 0 66.5 11.5
t63.5 33.5v110l-91 -8q-62 -6 -86 -24t-24 -59q0 -34 16.5 -49t54.5 -15z" />
    <glyph glyph-name="aacute" unicode="&#xe1;" horiz-adv-x="596" 
d="M194 -5q-78 0 -117.5 38.5t-39.5 110.5q0 81 50.5 123t160.5 50l138 9v15q0 29 -5.5 48.5t-19.5 31.5t-39 17t-65 5t-84 -4.5t-94 -14.5l-10 102q60 11 112 15.5t101 4.5q127 0 188 -45t61 -139v-362h-119l-14 67h-8q-48 -38 -97.5 -55t-98.5 -17zM256 96q32 0 66.5 11.5
t63.5 33.5v110l-91 -8q-62 -6 -86 -24t-24 -59q0 -34 16.5 -49t54.5 -15zM243 616l67 188h149l-113 -196z" />
    <glyph glyph-name="acute" unicode="&#xb4;" horiz-adv-x="288" 
d="M42 616l67 188h149l-113 -196z" />
    <glyph glyph-name="abreve" unicode="&#x103;" horiz-adv-x="596" 
d="M194 -5q-78 0 -117.5 38.5t-39.5 110.5q0 81 50.5 123t160.5 50l138 9v15q0 29 -5.5 48.5t-19.5 31.5t-39 17t-65 5t-84 -4.5t-94 -14.5l-10 102q60 11 112 15.5t101 4.5q127 0 188 -45t61 -139v-362h-119l-14 67h-8q-48 -38 -97.5 -55t-98.5 -17zM256 96q32 0 66.5 11.5
t63.5 33.5v110l-91 -8q-62 -6 -86 -24t-24 -59q0 -34 16.5 -49t54.5 -15zM300 615q-60 0 -102 13t-67.5 35.5t-37 54t-11.5 69.5h99q0 -52 27.5 -75.5t91.5 -23.5q63 0 90.5 23.5t27.5 75.5h99q0 -38 -11.5 -69.5t-37 -54.5t-67 -35.5t-101.5 -12.5z" />
    <glyph glyph-name="breve" unicode="&#x2d8;" horiz-adv-x="532" 
d="M265 615q-60 0 -102 13t-67.5 35.5t-37 54t-11.5 69.5h99q0 -52 27.5 -75.5t91.5 -23.5q63 0 90.5 23.5t27.5 75.5h99q0 -38 -11.5 -69.5t-37 -54.5t-67 -35.5t-101.5 -12.5z" />
    <glyph glyph-name="acircumflex" unicode="&#xe2;" horiz-adv-x="596" 
d="M194 -5q-78 0 -117.5 38.5t-39.5 110.5q0 81 50.5 123t160.5 50l138 9v15q0 29 -5.5 48.5t-19.5 31.5t-39 17t-65 5t-84 -4.5t-94 -14.5l-10 102q60 11 112 15.5t101 4.5q127 0 188 -45t61 -139v-362h-119l-14 67h-8q-48 -38 -97.5 -55t-98.5 -17zM256 96q32 0 66.5 11.5
t63.5 33.5v110l-91 -8q-62 -6 -86 -24t-24 -59q0 -34 16.5 -49t54.5 -15zM102 719l197 78l200 -78v-102l-198 78l-199 -78v102z" />
    <glyph glyph-name="circumflex" unicode="&#x2c6;" horiz-adv-x="511" 
d="M54 719l197 78l200 -78v-102l-198 78l-199 -78v102z" />
    <glyph glyph-name="adblgrave" unicode="&#x201;" horiz-adv-x="596" 
d="M194 -5q-78 0 -117.5 38.5t-39.5 110.5q0 81 50.5 123t160.5 50l138 9v15q0 29 -5.5 48.5t-19.5 31.5t-39 17t-65 5t-84 -4.5t-94 -14.5l-10 102q60 11 112 15.5t101 4.5q127 0 188 -45t61 -139v-362h-119l-14 67h-8q-48 -38 -97.5 -55t-98.5 -17zM256 96q32 0 66.5 11.5
t63.5 33.5v110l-91 -8q-62 -6 -86 -24t-24 -59q0 -34 16.5 -49t54.5 -15zM151 613l-114 195h149l67 -185zM368 613l-114 195h149l67 -185z" />
    <glyph glyph-name="uni030F" unicode="&#x30f;" horiz-adv-x="511" 
d="M139 613l-114 195h149l67 -185zM356 613l-114 195h149l67 -185z" />
    <glyph glyph-name="adieresis" unicode="&#xe4;" horiz-adv-x="596" 
d="M194 -5q-78 0 -117.5 38.5t-39.5 110.5q0 81 50.5 123t160.5 50l138 9v15q0 29 -5.5 48.5t-19.5 31.5t-39 17t-65 5t-84 -4.5t-94 -14.5l-10 102q60 11 112 15.5t101 4.5q127 0 188 -45t61 -139v-362h-119l-14 67h-8q-48 -38 -97.5 -55t-98.5 -17zM256 96q32 0 66.5 11.5
t63.5 33.5v110l-91 -8q-62 -6 -86 -24t-24 -59q0 -34 16.5 -49t54.5 -15zM166 636q-39 0 -57 18t-18 56t18 55t57 17q40 0 57.5 -18t17.5 -54q0 -38 -17.5 -56t-57.5 -18zM439 636q-39 0 -57 18t-18 56t18 55t57 17t57 -18t18 -54q0 -38 -18 -56t-57 -18z" />
    <glyph glyph-name="dieresis" unicode="&#xa8;" horiz-adv-x="543" 
d="M130 636q-39 0 -57 18t-18 56t18 55t57 17q40 0 57.5 -18t17.5 -54q0 -38 -17.5 -56t-57.5 -18zM403 636q-39 0 -57 18t-18 56t18 55t57 17t57 -18t18 -54q0 -38 -18 -56t-57 -18z" />
    <glyph glyph-name="ae" unicode="&#xe6;" horiz-adv-x="955" 
d="M674 -13q-157 0 -221 93h-7q-75 -46 -136 -65.5t-118 -19.5q-76 0 -115 38.5t-39 112.5q0 79 50.5 120t159.5 49l139 10v27q0 27 -6.5 44t-22.5 27.5t-42.5 14.5t-66.5 4q-36 0 -78 -4t-91 -14l-11 102q60 11 111.5 15.5t106.5 4.5q141 0 188 -76h8q31 36 78 55.5
t112 19.5q117 0 178 -60t61 -177q0 -26 -1.5 -45.5t-6.5 -33.5h-370q4 -71 40.5 -101t113.5 -30q49 0 104 6.5t95 18.5l5 -104q-49 -15 -106.5 -23.5t-111.5 -8.5zM257 94q31 0 66 12t64 34v112l-92 -8q-62 -6 -85.5 -24.5t-23.5 -58.5q0 -35 16.5 -51t54.5 -16zM783 302
q-2 76 -28.5 109t-88.5 33q-65 0 -96.5 -34t-36.5 -108h250z" />
    <glyph glyph-name="aeacute" unicode="&#x1fd;" horiz-adv-x="955" 
d="M430 616l67 188h149l-113 -196zM674 -13q-157 0 -221 93h-7q-75 -46 -136 -65.5t-118 -19.5q-76 0 -115 38.5t-39 112.5q0 79 50.5 120t159.5 49l139 10v27q0 27 -6.5 44t-22.5 27.5t-42.5 14.5t-66.5 4q-36 0 -78 -4t-91 -14l-11 102q60 11 111.5 15.5t106.5 4.5
q141 0 188 -76h8q31 36 78 55.5t112 19.5q117 0 178 -60t61 -177q0 -26 -1.5 -45.5t-6.5 -33.5h-370q4 -71 40.5 -101t113.5 -30q49 0 104 6.5t95 18.5l5 -104q-49 -15 -106.5 -23.5t-111.5 -8.5zM257 94q31 0 66 12t64 34v112l-92 -8q-62 -6 -85.5 -24.5t-23.5 -58.5
q0 -35 16.5 -51t54.5 -16zM783 302q-2 76 -28.5 109t-88.5 33q-65 0 -96.5 -34t-36.5 -108h250z" />
    <glyph glyph-name="agrave" unicode="&#xe0;" horiz-adv-x="596" 
d="M194 -5q-78 0 -117.5 38.5t-39.5 110.5q0 81 50.5 123t160.5 50l138 9v15q0 29 -5.5 48.5t-19.5 31.5t-39 17t-65 5t-84 -4.5t-94 -14.5l-10 102q60 11 112 15.5t101 4.5q127 0 188 -45t61 -139v-362h-119l-14 67h-8q-48 -38 -97.5 -55t-98.5 -17zM256 96q32 0 66.5 11.5
t63.5 33.5v110l-91 -8q-62 -6 -86 -24t-24 -59q0 -34 16.5 -49t54.5 -15zM253 613l-114 195h153l67 -185z" />
    <glyph glyph-name="grave" unicode="`" horiz-adv-x="297" 
d="M139 613l-114 195h153l67 -185z" />
    <glyph glyph-name="ainvertedbreve" unicode="&#x203;" horiz-adv-x="596" 
d="M194 -5q-78 0 -117.5 38.5t-39.5 110.5q0 81 50.5 123t160.5 50l138 9v15q0 29 -5.5 48.5t-19.5 31.5t-39 17t-65 5t-84 -4.5t-94 -14.5l-10 102q60 11 112 15.5t101 4.5q127 0 188 -45t61 -139v-362h-119l-14 67h-8q-48 -38 -97.5 -55t-98.5 -17zM256 96q32 0 66.5 11.5
t63.5 33.5v110l-91 -8q-62 -6 -86 -24t-24 -59q0 -34 16.5 -49t54.5 -15zM84 625q0 37 11.5 69t37 54.5t67 35.5t101.5 13t102 -12.5t67.5 -35.5t37 -54.5t11.5 -69.5h-100q0 52 -27 75.5t-91 23.5q-63 0 -90.5 -23.5t-27.5 -75.5h-99z" />
    <glyph glyph-name="uni0311" unicode="&#x311;" horiz-adv-x="533" 
d="M44 625q0 37 11.5 69t37 54.5t67 35.5t101.5 13t102 -12.5t67.5 -35.5t37 -54.5t11.5 -69.5h-100q0 52 -27 75.5t-91 23.5q-63 0 -90.5 -23.5t-27.5 -75.5h-99v0z" />
    <glyph glyph-name="amacron" unicode="&#x101;" horiz-adv-x="596" 
d="M194 -5q-78 0 -117.5 38.5t-39.5 110.5q0 81 50.5 123t160.5 50l138 9v15q0 29 -5.5 48.5t-19.5 31.5t-39 17t-65 5t-84 -4.5t-94 -14.5l-10 102q60 11 112 15.5t101 4.5q127 0 188 -45t61 -139v-362h-119l-14 67h-8q-48 -38 -97.5 -55t-98.5 -17zM256 96q32 0 66.5 11.5
t63.5 33.5v110l-91 -8q-62 -6 -86 -24t-24 -59q0 -34 16.5 -49t54.5 -15zM108 746h393v-99h-393v99z" />
    <glyph glyph-name="macron" unicode="&#xaf;" horiz-adv-x="535" 
d="M61 746h393v-99h-393v99z" />
    <glyph glyph-name="ampersand" unicode="&#x26;" horiz-adv-x="813" 
d="M362 -10q-72 0 -130.5 15t-99 43t-62.5 68t-22 90q0 70 38 120t109 73q-38 38 -53.5 75.5t-15.5 80.5q0 94 72 146t202 52q48 0 99.5 -8t110.5 -24l2 -6l-19 -93h-9q-45 15 -88.5 23t-79.5 8q-140 0 -140 -106q0 -55 51 -104.5t166 -108.5l96 -50q3 27 3 58v88h133v-87
q0 -67 -15 -122l94 -48v-12l-55 -95h-10l-82 45q-46 -60 -120 -90.5t-175 -30.5zM431 237q-45 25 -82.5 47.5t-67.5 43.5q-82 -34 -82 -115q0 -57 46.5 -91t126.5 -34q126 0 180 82z" />
    <glyph glyph-name="ampersand.sc" horiz-adv-x="744" 
d="M330 -7q-66 0 -118.5 12t-89 33.5t-56.5 52.5t-20 70q0 55 34.5 94.5t97.5 56.5q-35 31 -49.5 60t-14.5 59q0 73 66 114.5t184 41.5q83 0 189 -23l3 -5l-17 -87h-9q-40 11 -79 17t-71 6q-121 0 -121 -71q0 -36 45.5 -72t145.5 -81l74 -33q3 10 4.5 31t1.5 35v37h129v-73
q0 -49 -12 -86l84 -38v-11l-52 -90h-9l-85 41q-80 -91 -255 -91zM339 83q101 0 143 54l-91 45q-39 20 -69 37t-54 34q-38 -14 -57.5 -34t-19.5 -51q0 -39 40 -62t108 -23z" />
    <glyph glyph-name="aogonek" unicode="&#x105;" horiz-adv-x="597" 
d="M446 -220q-66 0 -101 22t-35 66q0 73 102 132l-14 67h-8q-48 -38 -97.5 -55t-98.5 -17q-78 0 -117.5 38.5t-39.5 110.5q0 81 50.5 123t160.5 50l138 9v15q0 29 -5.5 48.5t-19.5 31.5t-39 17t-65 5t-84 -4.5t-94 -14.5l-10 102q60 11 112 15.5t101 4.5q127 0 188 -45
t61 -139v-375q-68 -31 -96 -54t-28 -47q0 -28 37 -28q14 0 39 4t48 10v-80q-35 -12 -85 -12zM256 96q32 0 66.5 11.5t63.5 33.5v110l-91 -8q-62 -6 -86 -24t-24 -59q0 -34 16.5 -49t54.5 -15z" />
    <glyph glyph-name="apostrophe" unicode="&#x2bc;" horiz-adv-x="240" 
d="M185 808v-4l-41 -224h-77v228h118z" />
    <glyph glyph-name="approxequal" unicode="&#x2248;" horiz-adv-x="543" 
d="M68 483q29 11 57.5 22.5t63.5 11.5q23 0 43.5 -5.5t41 -12.5t41 -12.5t43.5 -5.5q35 0 63 9t56 23v-84q-27 -12 -55.5 -25t-63.5 -13q-23 0 -43.5 6t-41 12.5t-41 12.5t-43.5 6q-35 0 -63.5 -8.5t-57.5 -22.5v86zM68 281q29 11 57.5 23t63.5 12q23 0 43.5 -5.5t41 -12.5
t41 -12.5t43.5 -5.5q35 0 63 8.5t56 22.5v-83q-27 -12 -55.5 -25t-63.5 -13q-23 0 -43.5 5.5t-41 12.5t-41 12.5t-43.5 5.5q-35 0 -63.5 -8t-57.5 -22v85z" />
    <glyph glyph-name="aring" unicode="&#xe5;" horiz-adv-x="596" 
d="M194 -5q-78 0 -117.5 38.5t-39.5 110.5q0 81 50.5 123t160.5 50l138 9v15q0 29 -5.5 48.5t-19.5 31.5t-39 17t-65 5t-84 -4.5t-94 -14.5l-10 102q60 11 112 15.5t101 4.5q127 0 188 -45t61 -139v-362h-119l-14 67h-8q-48 -38 -97.5 -55t-98.5 -17zM256 96q32 0 66.5 11.5
t63.5 33.5v110l-91 -8q-62 -6 -86 -24t-24 -59q0 -34 16.5 -49t54.5 -15zM299 591q-29 0 -54 8.5t-43.5 23.5t-29 35.5t-10.5 45.5t10.5 46t29 36t43.5 23.5t54 8.5t53.5 -8.5t42.5 -23.5t28.5 -36t10.5 -46t-10.5 -45.5t-28.5 -35.5t-42.5 -23.5t-53.5 -8.5zM299 646
q37 0 53.5 14.5t16.5 43.5t-16.5 44t-53.5 15q-38 0 -55 -15t-17 -44t17 -43.5t55 -14.5z" />
    <glyph glyph-name="ring" unicode="&#x2da;" horiz-adv-x="366" 
d="M182 591q-29 0 -54 8.5t-43.5 23.5t-29 35.5t-10.5 45.5t10.5 46t29 36t43.5 23.5t54 8.5t53.5 -8.5t42.5 -23.5t28.5 -36t10.5 -46t-10.5 -45.5t-28.5 -35.5t-42.5 -23.5t-53.5 -8.5zM182 646q37 0 53.5 14.5t16.5 43.5t-16.5 44t-53.5 15q-38 0 -55 -15t-17 -44
t17 -43.5t55 -14.5z" />
    <glyph glyph-name="aringacute" unicode="&#x1fb;" horiz-adv-x="596" 
d="M194 -5q-78 0 -117.5 38.5t-39.5 110.5q0 81 50.5 123t160.5 50l138 9v15q0 29 -5.5 48.5t-19.5 31.5t-39 17t-65 5t-84 -4.5t-94 -14.5l-10 102q60 11 112 15.5t101 4.5q127 0 188 -45t61 -139v-362h-119l-14 67h-8q-48 -38 -97.5 -55t-98.5 -17zM299 591q-29 0 -54 8.5
t-43.5 23.5t-29 35.5t-10.5 45.5q0 45 31.5 75.5t81.5 36.5l58 162h149l-104 -180q26 -15 41 -39.5t15 -54.5q0 -25 -10.5 -45.5t-28.5 -35.5t-42.5 -23.5t-53.5 -8.5zM256 96q32 0 66.5 11.5t63.5 33.5v110l-91 -8q-62 -6 -86 -24t-24 -59q0 -34 16.5 -49t54.5 -15z
M299 646q37 0 53.5 14.5t16.5 43.5t-16.5 44t-53.5 15q-38 0 -55 -15t-17 -44t17 -43.5t55 -14.5z" />
    <glyph glyph-name="arrowdown" unicode="&#x2193;" horiz-adv-x="676" 
d="M26 368l74 74l185 -202l-2 491h110l-3 -491l186 202l74 -74l-293 -293h-38z" />
    <glyph glyph-name="arrowleft" unicode="&#x2190;" horiz-adv-x="730" 
d="M29 388v38l292 293l75 -75l-203 -185l491 2v-109l-491 2l203 -185l-75 -75z" />
    <glyph glyph-name="arrowright" unicode="&#x2192;" horiz-adv-x="730" 
d="M335 169l202 185l-490 -2v109l490 -2l-202 185l75 75l292 -293v-38l-292 -294z" />
    <glyph glyph-name="arrowup" unicode="&#x2191;" horiz-adv-x="675" 
d="M286 566l-186 -202l-74 75l293 292h38l293 -292l-75 -75l-185 202l3 -491h-110z" />
    <glyph glyph-name="asciicircum" unicode="^" horiz-adv-x="550" 
d="M210 789h130l170 -308h-104l-129 216h-4l-128 -216h-105z" />
    <glyph glyph-name="asciitilde" unicode="~" horiz-adv-x="714" 
d="M50 275q32 35 57.5 58.5t48 37t44 19t46.5 5.5q34 0 61 -12t52 -26t49 -26t51 -12q36 0 69.5 19.5t56.5 53.5l79 -47q-15 -23 -35 -47.5t-44 -44.5t-52.5 -33.5t-59.5 -13.5q-36 0 -64.5 12t-53 26t-48 26t-48.5 12q-34 0 -65 -18t-68 -56z" />
    <glyph glyph-name="asterisk" unicode="*" horiz-adv-x="504" 
d="M96 478l45 63l80 72l-107 11l-73 24l25 77l74 -23l94 -54l-22 107v77h81v-77l-23 -107l94 54l74 23l25 -77l-73 -24l-108 -11l81 -72l46 -63l-67 -48l-45 63l-45 101l-45 -101l-46 -63z" />
    <glyph glyph-name="at" unicode="@" horiz-adv-x="918" 
d="M446 -132q-93 0 -167 27t-125.5 77.5t-79.5 123t-28 163.5q0 96 29.5 172t85 129.5t134.5 82t178 28.5q93 0 166 -24.5t123 -72t76.5 -115.5t26.5 -155q0 -121 -51.5 -186t-148.5 -65q-32 0 -53 9.5t-34.5 23t-20 28.5t-7.5 25h-5q-25 -36 -72.5 -58.5t-97.5 -22.5
q-63 0 -101 44t-38 131q0 57 18.5 104t52 81.5t80.5 53.5t105 19q37 0 78 -9.5t81 -24.5l-40 -209q-3 -16 -5.5 -29t-2.5 -24q0 -32 15.5 -48t51.5 -16q51 0 78.5 44t27.5 129q0 137 -78 209.5t-225 72.5q-78 0 -141 -22.5t-106.5 -64.5t-67 -103t-23.5 -137
q0 -72 21.5 -128.5t61.5 -95.5t97.5 -60t130.5 -21q42 0 93.5 8.5t112.5 25.5l24 -82q-137 -38 -230 -38zM396 133q51 1 89 36.5t49 92.5l27 146q-19 5 -36 7.5t-31 2.5q-37 0 -68 -14t-53.5 -39t-35.5 -58.5t-13 -73.5q0 -49 18.5 -74.5t53.5 -25.5z" />
    <glyph glyph-name="atilde" unicode="&#xe3;" horiz-adv-x="596" 
d="M194 -5q-78 0 -117.5 38.5t-39.5 110.5q0 81 50.5 123t160.5 50l138 9v15q0 29 -5.5 48.5t-19.5 31.5t-39 17t-65 5t-84 -4.5t-94 -14.5l-10 102q60 11 112 15.5t101 4.5q127 0 188 -45t61 -139v-362h-119l-14 67h-8q-48 -38 -97.5 -55t-98.5 -17zM256 96q32 0 66.5 11.5
t63.5 33.5v110l-91 -8q-62 -6 -86 -24t-24 -59q0 -34 16.5 -49t54.5 -15zM63 673q34 54 75 80t79 26q27 0 52.5 -6t49.5 -13.5t48.5 -13.5t50.5 -6q25 0 49 8t53 28l23 -31q-34 -53 -76 -79.5t-81 -26.5q-26 0 -51 6t-50 13.5t-49.5 13.5t-49.5 6t-48 -7.5t-51 -28.5z" />
    <glyph glyph-name="tilde" unicode="&#x2dc;" horiz-adv-x="549" 
d="M31 673q34 54 75 80t79 26q27 0 52.5 -6t49.5 -13.5t48.5 -13.5t50.5 -6q25 0 49 8t53 28l23 -31q-34 -53 -76 -79.5t-81 -26.5q-26 0 -51 6t-50 13.5t-49.5 13.5t-49.5 6t-48 -7.5t-51 -28.5z" />
    <glyph glyph-name="b" unicode="b" horiz-adv-x="679" 
d="M333 -11q-25 0 -51.5 1t-57.5 3.5t-69 7.5t-86 14v793h146v-328q61 70 177 70q120 0 182.5 -67t62.5 -206q0 -72 -22 -126t-62 -90t-96 -54t-124 -18zM330 90q43 0 74 8.5t50 29.5t28 55.5t9 85.5q0 47 -7.5 79.5t-24 52t-42.5 28t-64 8.5q-60 0 -99 -25t-39 -73v-240
q21 -4 50.5 -6.5t64.5 -2.5z" />
    <glyph glyph-name="backslash" unicode="\" horiz-adv-x="456" 
d="M28 740h126l274 -860h-126z" />
    <glyph glyph-name="bar" unicode="|" horiz-adv-x="308" 
d="M222 808v-1028h-136v1028h136z" />
    <glyph glyph-name="bar.tab" horiz-adv-x="307" 
d="M221 808v-1028h-136v1028h136z" />
    <glyph glyph-name="braceleft" unicode="{" horiz-adv-x="362" 
d="M34 411q35 0 51 23.5t16 70.5v236q0 69 26 98t86 29q9 0 26 -0.5t34.5 -1.5t31.5 -1.5t19 -1.5v-91h-61q-24 0 -34.5 -10t-10.5 -32v-255q0 -47 -22 -80.5t-60 -40.5q38 -5 60 -38t22 -80v-258q0 -22 10.5 -32t34.5 -10h61v-91q-5 -1 -19 -2t-31 -1.5l-34 -1t-26 -0.5
q-60 0 -86.5 29t-26.5 98v239q0 47 -16 70t-51 23v112z" />
    <glyph glyph-name="braceleft.sc" horiz-adv-x="350" 
d="M43 329q31 0 44 17.5t13 52.5v178q0 54 23 77t76 23q8 0 23 -0.5t30.5 -1t28 -1t16.5 -1.5v-86h-49q-36 0 -36 -32v-185q0 -37 -20 -63t-53 -31q33 -4 53 -29.5t20 -61.5v-188q0 -33 36 -33h49v-85q-4 -1 -16.5 -1.5t-28 -1t-30.5 -1t-23 -0.5q-53 0 -76 23t-23 77v180
q0 35 -13 52t-44 17v105z" />
    <glyph glyph-name="braceright" unicode="}" horiz-adv-x="362" 
d="M328 299q-35 0 -50.5 -23t-15.5 -70v-239q0 -69 -26.5 -98t-86.5 -29q-9 0 -26 0.5t-34.5 1t-32 1.5t-18.5 2v91h62q24 0 34.5 10t10.5 32v258q0 47 21.5 80t59.5 38q-38 7 -59.5 40.5t-21.5 80.5v255q0 22 -10.5 32t-34.5 10h-62v91q4 1 18.5 1.5t32 1.5t34.5 1.5
t26 0.5q60 0 86.5 -29t26.5 -98v-236q0 -47 15.5 -70.5t50.5 -23.5v-112z" />
    <glyph glyph-name="braceright.sc" horiz-adv-x="349" 
d="M306 224q-30 0 -43 -17t-13 -52v-180q0 -54 -23.5 -77t-76.5 -23q-8 0 -23 0.5t-30.5 1t-28 1t-16.5 1.5v85h50q36 0 36 33v188q0 36 19.5 61.5t52.5 29.5q-33 5 -52.5 31t-19.5 63v185q0 32 -36 32h-50v86q4 1 16.5 1.5t28.5 1t31 1t23 0.5q53 0 76 -23t23 -77v-178
q0 -35 13 -52.5t43 -17.5v-105z" />
    <glyph glyph-name="bracketleft" unicode="[" horiz-adv-x="363" 
d="M86 868h246v-96h-132v-836h132v-96h-246v1028z" />
    <glyph glyph-name="bracketleft.sc" horiz-adv-x="363" 
d="M94 677h225v-90h-117v-622h117v-90h-225v802z" />
    <glyph glyph-name="bracketright" unicode="]" horiz-adv-x="362" 
d="M30 -160v96h133v836h-133v96h246v-1028h-246z" />
    <glyph glyph-name="bracketright.sc" horiz-adv-x="363" 
d="M44 -125v90h118v622h-118v90h225v-802h-225z" />
    <glyph glyph-name="brokenbar" unicode="&#xa6;" horiz-adv-x="310" 
d="M87 204h136v-424h-136v424zM87 808h136v-424h-136v424z" />
    <glyph glyph-name="bullet" unicode="&#x2022;" horiz-adv-x="372" 
d="M186 263q-49 0 -79.5 26t-30.5 81t30.5 81t79.5 26t79.5 -26t30.5 -81t-30.5 -81t-79.5 -26z" />
    <glyph glyph-name="c" unicode="c" horiz-adv-x="535" 
d="M321 -9q-278 0 -278 278q0 280 278 280q44 0 89.5 -4.5t79.5 -12.5v-115q-40 6 -79 9.5t-76 3.5q-78 0 -113.5 -38t-35.5 -121q0 -86 34 -123.5t113 -37.5q48 0 83.5 2.5t73.5 9.5v-114q-31 -8 -76.5 -12.5t-92.5 -4.5z" />
    <glyph glyph-name="cacute" unicode="&#x107;" horiz-adv-x="535" 
d="M257 616l67 188h149l-113 -196zM321 -9q-278 0 -278 278q0 280 278 280q44 0 89.5 -4.5t79.5 -12.5v-115q-40 6 -79 9.5t-76 3.5q-78 0 -113.5 -38t-35.5 -121q0 -86 34 -123.5t113 -37.5q48 0 83.5 2.5t73.5 9.5v-114q-31 -8 -76.5 -12.5t-92.5 -4.5z" />
    <glyph glyph-name="caron" unicode="&#x2c7;" horiz-adv-x="484" 
d="M41 788l199 -78l199 78v-102l-201 -77l-197 77v102z" />
    <glyph glyph-name="ccaron" unicode="&#x10d;" horiz-adv-x="535" 
d="M101 788l199 -78l199 78v-102l-201 -77l-197 77v102zM321 -9q-278 0 -278 278q0 280 278 280q44 0 89.5 -4.5t79.5 -12.5v-115q-40 6 -79 9.5t-76 3.5q-78 0 -113.5 -38t-35.5 -121q0 -86 34 -123.5t113 -37.5q48 0 83.5 2.5t73.5 9.5v-114q-31 -8 -76.5 -12.5
t-92.5 -4.5z" />
    <glyph glyph-name="ccedilla" unicode="&#xe7;" horiz-adv-x="535" 
d="M271 -220q-23 0 -51 3.5t-55 8.5v87q18 -5 39.5 -8.5t41.5 -3.5q32 0 44.5 10t12.5 32q0 16 -9 36.5t-30 49.5q-221 25 -221 274q0 280 278 280q44 0 89.5 -4.5t79.5 -12.5v-115q-40 6 -79 9.5t-76 3.5q-78 0 -113.5 -38t-35.5 -121q0 -86 34 -123.5t113 -37.5
q48 0 83.5 2.5t73.5 9.5v-114q-25 -7 -59 -10.5t-72 -5.5q25 -33 33.5 -54t8.5 -44q0 -54 -35 -84t-95 -30z" />
    <glyph glyph-name="ccircumflex" unicode="&#x109;" horiz-adv-x="535" 
d="M106 719l197 78l200 -78v-102l-198 78l-199 -78v102zM321 -9q-278 0 -278 278q0 280 278 280q44 0 89.5 -4.5t79.5 -12.5v-115q-40 6 -79 9.5t-76 3.5q-78 0 -113.5 -38t-35.5 -121q0 -86 34 -123.5t113 -37.5q48 0 83.5 2.5t73.5 9.5v-114q-31 -8 -76.5 -12.5
t-92.5 -4.5z" />
    <glyph glyph-name="cdotaccent" unicode="&#x10b;" horiz-adv-x="535" 
d="M321 -9q-278 0 -278 278q0 280 278 280q44 0 89.5 -4.5t79.5 -12.5v-115q-40 6 -79 9.5t-76 3.5q-78 0 -113.5 -38t-35.5 -121q0 -86 34 -123.5t113 -37.5q48 0 83.5 2.5t73.5 9.5v-114q-31 -8 -76.5 -12.5t-92.5 -4.5zM301 629q-44 0 -64 19t-20 62q0 42 20 61.5
t64 19.5t63.5 -19.5t19.5 -61.5t-19.5 -61.5t-63.5 -19.5z" />
    <glyph glyph-name="dotaccent" unicode="&#x2d9;" horiz-adv-x="288" 
d="M140 629q-44 0 -64 19t-20 62q0 42 20 61.5t64 19.5t63.5 -19.5t19.5 -61.5t-19.5 -61.5t-63.5 -19.5z" />
    <glyph glyph-name="cent" unicode="&#xa2;" horiz-adv-x="550" 
d="M281 -7q-238 18 -238 276q0 259 238 278v113h92v-113q32 -2 62.5 -5.5t54.5 -9.5v-115q-40 6 -79 9.5t-76 3.5q-78 0 -113.5 -38t-35.5 -121q0 -86 34 -123.5t113 -37.5q48 0 83.5 2.5t73.5 9.5v-114q-23 -6 -53 -9.5t-64 -5.5v-113h-92v113z" />
    <glyph glyph-name="cent.tab" 
d="M313 -7q-254 19 -254 276q0 259 254 278v113h95v-113q34 -2 67 -5.5t59 -9.5v-115q-42 6 -83 9.5t-80 3.5q-87 0 -126 -38t-39 -121q0 -86 38 -123.5t125 -37.5q25 0 46.5 0.5t41 2t38.5 4t39 5.5v-114q-23 -6 -56.5 -9.5t-69.5 -5.5v-113h-95v113z" />
    <glyph glyph-name="colon" unicode=":" horiz-adv-x="287" 
d="M143 -6q-38 0 -61 19.5t-23 59.5q0 41 23 59.5t61 18.5t61.5 -19t23.5 -59t-23.5 -59.5t-61.5 -19.5zM143 389q-38 0 -61 19.5t-23 59.5q0 41 23 59.5t61 18.5t61.5 -19t23.5 -59t-23.5 -59.5t-61.5 -19.5z" />
    <glyph glyph-name="period" unicode="." horiz-adv-x="274" 
d="M137 -6q-38 0 -61 19.5t-23 59.5q0 41 23 59.5t61 18.5t61.5 -19t23.5 -59t-23.5 -59.5t-61.5 -19.5z" />
    <glyph glyph-name="colon.tab" horiz-adv-x="307" 
d="M153 -6q-38 0 -61.5 19.5t-23.5 59.5q0 41 23.5 59.5t61.5 18.5t61 -19t23 -59t-23 -59.5t-61 -19.5zM153 389q-38 0 -61.5 19.5t-23.5 59.5q0 41 23.5 59.5t61.5 18.5t61 -19t23 -59t-23 -59.5t-61 -19.5z" />
    <glyph glyph-name="colonmonetary" unicode="&#x20a1;" horiz-adv-x="649" 
d="M424 -11q-59 0 -108 9l-15 -50h-86l22 72q-189 77 -189 348q0 385 366 385h22t23 -2l18 57h87l-20 -66l53 -7v-120q-28 3 -49.5 5.5t-39.5 4.5l-155 -508q31 -6 71 -6q18 0 41.5 1.5t48 4t47 6t36.5 6.5v-120q-39 -9 -87 -14.5t-86 -5.5zM200 369q0 -85 17.5 -139
t57.5 -83l147 483q-61 -1 -103 -15.5t-68.5 -46t-38.5 -80.5t-12 -119z" />
    <glyph glyph-name="comma" unicode="," horiz-adv-x="278" 
d="M31 -145l44 294h147l-82 -304z" />
    <glyph glyph-name="comma.tab" horiz-adv-x="307" 
d="M52 -145l45 294h148l-84 -304z" />
    <glyph glyph-name="copyright" unicode="&#xa9;" horiz-adv-x="836" 
d="M433 163q-90 0 -138.5 51t-48.5 153q0 103 48.5 154.5t138.5 51.5q23 0 46.5 -2.5t42.5 -7.5v-73q-23 4 -43 6.5t-36 2.5q-58 0 -84 -32t-26 -99q0 -68 26.5 -99t81.5 -31q34 0 82 9v-73q-19 -5 -42.5 -8t-47.5 -3zM418 -11q-84 0 -152.5 27.5t-117 78t-75 120.5
t-26.5 155t26.5 155t75 120.5t117 78t152.5 27.5t152.5 -27.5t117 -78t75 -120.5t26.5 -155t-26.5 -155t-75 -120.5t-117 -78t-152.5 -27.5zM418 60q69 0 123.5 22t93 62.5t59 98t20.5 127.5t-20.5 127.5t-59 98t-93 62.5t-123.5 22t-123.5 -22t-93 -62.5t-59 -98
t-20.5 -127.5t20.5 -127.5t59 -98t93 -62.5t123.5 -22z" />
    <glyph glyph-name="currency" unicode="&#xa4;" horiz-adv-x="653" 
d="M57 159l55 53l43 31q-26 24 -40.5 56t-14.5 71q0 38 14.5 70t40.5 56l-43 32l-55 53l57 58l55 -54l39 -56q51 23 118 23q66 0 117 -23l41 56l54 54l58 -58l-55 -53l-45 -32q56 -50 56 -126q0 -39 -14.5 -71t-40.5 -56l44 -31l55 -53l-58 -58l-54 54l-40 55
q-51 -23 -117 -23q-67 0 -119 23l-39 -55l-55 -54zM190 370q0 -52 37 -80t100 -28q61 0 98 27.5t37 80.5q0 52 -36.5 79.5t-98.5 27.5q-63 0 -100 -27.5t-37 -79.5z" />
    <glyph glyph-name="currency.ss01" horiz-adv-x="732" 
d="M388 -10q-20 0 -38.5 0.5t-37.5 0.5v-141h-112v147q-27 2 -54.5 3.5t-56.5 4.5v730q29 2 57 4t54 4v147h112v-142q12 1 24 1h25h26.5t24.5 -1v142h112v-158q79 -20 115.5 -66t36.5 -122q0 -63 -34.5 -106t-97.5 -57v-4q77 -15 117 -60.5t40 -117.5q0 -160 -177 -197v-152
h-112v141q-6 0 -12 -0.5t-12 -0.5zM379 95q91 0 133.5 28.5t42.5 89.5q0 59 -39 86.5t-124 27.5h-161v-225q10 -2 22.5 -3.5t29.5 -2.5t40.5 -1h55.5zM380 423q82 0 116.5 25.5t34.5 86.5t-37 85.5t-127 24.5q-43 0 -76 -1.5t-60 -6.5v-214h149z" />
    <glyph glyph-name="d" unicode="d" horiz-adv-x="680" 
d="M287 -10q-120 0 -182.5 66t-62.5 206q0 72 22 126t62 90t96 54t124 18q33 0 63.5 -3t54.5 -5v266h145v-808h-125l-13 70h-8q-29 -42 -72 -61t-104 -19zM326 99q60 0 99 27t39 78v232q-23 4 -55 7t-67 3q-41 0 -70.5 -8.5t-48 -29t-27 -54.5t-8.5 -84q0 -48 7.5 -80.5
t24 -53t42.5 -29t64 -8.5z" />
    <glyph glyph-name="dagger" unicode="&#x2020;" horiz-adv-x="612" 
d="M245 265v80l25 156l-177 -15h-61v102h61l177 -15l-26 156v79h124v-79l-26 -156l178 15h61v-102h-61l-178 15l26 -156v-80l-26 -200h-71z" />
    <glyph glyph-name="daggerdbl" unicode="&#x2021;" horiz-adv-x="657" 
d="M267 -119l25 156l-177 -15h-61v102h61l177 -15l-26 156v81l26 155l-177 -15h-61v102h61l177 -15l-26 156v79h123v-79l-26 -156l178 15h61v-102h-61l-178 15l27 -156v-80l-27 -156l178 15h61v-102h-61l-178 15l27 -156v-80h-123v80z" />
    <glyph glyph-name="dcaron" unicode="&#x10f;" horiz-adv-x="680" 
d="M672 808h115l-38 -228h-77v228zM287 -10q-120 0 -182.5 66t-62.5 206q0 72 22 126t62 90t96 54t124 18q33 0 63.5 -3t54.5 -5v266h145v-808h-125l-13 70h-8q-29 -42 -72 -61t-104 -19zM326 99q60 0 99 27t39 78v232q-23 4 -55 7t-67 3q-41 0 -70.5 -8.5t-48 -29
t-27 -54.5t-8.5 -84q0 -48 7.5 -80.5t24 -53t42.5 -29t64 -8.5z" />
    <glyph glyph-name="dcroat" unicode="&#x111;" horiz-adv-x="680" 
d="M274 716h190v92h145v-92h78v-84h-78v-632h-125l-13 70h-8q-29 -42 -72 -61t-104 -19q-120 0 -182.5 66t-62.5 206q0 72 22 126t62 90t96 54t124 18q33 0 63.5 -3t54.5 -5v90h-190v84zM326 99q60 0 99 27t39 78v232q-23 4 -55 7t-67 3q-41 0 -70.5 -8.5t-48 -29t-27 -54.5
t-8.5 -84q0 -48 7.5 -80.5t24 -53t42.5 -29t64 -8.5z" />
    <glyph glyph-name="ddotbelow" unicode="&#x1e0d;" horiz-adv-x="680" 
d="M341 -198q-35 0 -51 15t-16 50t16 50.5t51 15.5q37 0 53 -16t16 -50t-16 -49.5t-53 -15.5zM287 -10q-120 0 -182.5 66t-62.5 206q0 72 22 126t62 90t96 54t124 18q33 0 63.5 -3t54.5 -5v266h145v-808h-125l-13 70h-8q-29 -42 -72 -61t-104 -19zM326 99q60 0 99 27t39 78
v232q-23 4 -55 7t-67 3q-41 0 -70.5 -8.5t-48 -29t-27 -54.5t-8.5 -84q0 -48 7.5 -80.5t24 -53t42.5 -29t64 -8.5z" />
    <glyph glyph-name="degree" unicode="&#xb0;" horiz-adv-x="504" 
d="M252 375q-46 0 -85.5 14t-68 39t-44.5 59t-16 74q0 39 16 73t44.5 59t68 39t85.5 14t85 -14t67.5 -39t44.5 -59t16 -73q0 -40 -16 -74t-44.5 -59t-67.5 -39t-85 -14zM252 454q56 0 87.5 29.5t31.5 77.5t-31.5 77.5t-87.5 29.5t-87.5 -29.5t-31.5 -77.5t31.5 -77.5
t87.5 -29.5z" />
    <glyph glyph-name="degree.tab" 
d="M307 375q-49 0 -91 14t-72.5 39t-48 59t-17.5 74q0 39 17.5 73t48 59t72.5 39t91 14t91 -14t72.5 -39t48 -59t17.5 -73q0 -40 -17.5 -74t-48 -59t-72.5 -39t-91 -14zM307 454q60 0 94.5 29.5t34.5 77.5t-34.5 77.5t-94.5 29.5t-95 -29.5t-35 -77.5t35 -77.5t95 -29.5z
" />
    <glyph glyph-name="divide" unicode="&#xf7;" horiz-adv-x="532" 
d="M269 134q-27 0 -44 15t-17 47q0 30 17 45t44 15q26 0 43 -15.5t17 -44.5q0 -32 -17 -47t-43 -15zM53 415h427v-90h-427v90zM269 480q-27 0 -44 15.5t-17 45.5q0 31 17 46.5t44 15.5q26 0 43 -16t17 -46t-17 -45.5t-43 -15.5z" />
    <glyph glyph-name="divide.tab" 
d="M310 134q-30 0 -48.5 15t-18.5 47q0 30 18.5 45t48.5 15q29 0 48 -15.5t19 -44.5q0 -32 -19 -47t-48 -15zM61 415h493v-90h-493v90zM310 480q-30 0 -48.5 15.5t-18.5 45.5q0 31 18.5 46.5t48.5 15.5q29 0 48 -16t19 -46t-19 -45.5t-48 -15.5z" />
    <glyph glyph-name="dollar" unicode="$" horiz-adv-x="659" 
d="M268 -9q-53 2 -112 9t-111 18v121q79 -17 145 -25.5t119 -8.5q160 0 160 91q0 27 -11 45.5t-31.5 31t-49 20.5t-62.5 15q-69 13 -118.5 32.5t-81 47t-46 65t-14.5 86.5q0 81 53 134.5t148 71.5v145h139v-138q38 -2 82.5 -8.5t105.5 -17.5v-120q-52 15 -110.5 23t-106.5 8
q-74 0 -114.5 -24.5t-40.5 -69.5q0 -23 8 -40.5t26 -31.5t48 -24.5t74 -19.5q61 -12 108.5 -28.5t80.5 -41.5t50.5 -61t17.5 -87q0 -185 -218 -214v-145h-138v141z" />
    <glyph glyph-name="dollar.tab" 
d="M244 -9q-53 2 -109 9t-107 18v121q78 -17 142 -25.5t116 -8.5q78 0 115.5 23t37.5 68q0 27 -10.5 45t-29.5 30.5t-46.5 21t-60.5 15.5q-68 12 -116 31.5t-78.5 47.5t-45 65.5t-14.5 86.5q0 81 52 134.5t143 70.5v146h138v-138q36 -2 81 -8.5t102 -17.5v-120
q-51 15 -107.5 23t-104.5 8q-72 0 -111 -24.5t-39 -69.5q0 -23 8 -40.5t25.5 -31t46.5 -24t71 -20.5q59 -12 105.5 -28t79 -41.5t49.5 -61.5t17 -87q0 -185 -212 -214v-145h-138v141z" />
    <glyph glyph-name="dotlessi" unicode="&#x131;" horiz-adv-x="287" 
d="M71 540h145v-540h-145v540z" />
    <glyph glyph-name="dotlessj" unicode="&#x237;" horiz-adv-x="284" 
d="M17 -200q15 41 25.5 78.5t17 78t9.5 88.5t3 110v61v103.5t-0.5 117.5t-1.5 103h144v-461q-6 -85 -28.5 -158t-61.5 -141z" />
    <glyph glyph-name="e" unicode="e" horiz-adv-x="607" 
d="M326 -9q-283 0 -283 275q0 139 71 211t209 72q242 0 242 -239q0 -47 -9 -80h-370q3 -36 13.5 -60.5t29 -39.5t46.5 -21.5t67 -6.5q47 0 102 6.5t96 17.5l5 -103q-49 -15 -106.5 -23.5t-112.5 -8.5zM318 447q-63 0 -95 -32.5t-37 -105.5h250q-3 75 -30 106.5t-88 31.5z
" />
    <glyph glyph-name="eacute" unicode="&#xe9;" horiz-adv-x="607" 
d="M275 616l67 188h149l-113 -196zM326 -9q-283 0 -283 275q0 139 71 211t209 72q242 0 242 -239q0 -47 -9 -80h-370q3 -36 13.5 -60.5t29 -39.5t46.5 -21.5t67 -6.5q47 0 102 6.5t96 17.5l5 -103q-49 -15 -106.5 -23.5t-112.5 -8.5zM318 447q-63 0 -95 -32.5t-37 -105.5
h250q-3 75 -30 106.5t-88 31.5z" />
    <glyph glyph-name="ebreve" unicode="&#x115;" horiz-adv-x="607" 
d="M326 -9q-283 0 -283 275q0 139 71 211t209 72q242 0 242 -239q0 -47 -9 -80h-370q3 -36 13.5 -60.5t29 -39.5t46.5 -21.5t67 -6.5q47 0 102 6.5t96 17.5l5 -103q-49 -15 -106.5 -23.5t-112.5 -8.5zM318 447q-63 0 -95 -32.5t-37 -105.5h250q-3 75 -30 106.5t-88 31.5z
M314 615q-60 0 -102 13t-67.5 35.5t-37 54t-11.5 69.5h99q0 -52 27.5 -75.5t91.5 -23.5q63 0 90.5 23.5t27.5 75.5h99q0 -38 -11.5 -69.5t-37 -54.5t-67 -35.5t-101.5 -12.5z" />
    <glyph glyph-name="ecaron" unicode="&#x11b;" horiz-adv-x="607" 
d="M120 788l199 -78l199 78v-102l-201 -77l-197 77v102zM326 -9q-283 0 -283 275q0 139 71 211t209 72q242 0 242 -239q0 -47 -9 -80h-370q3 -36 13.5 -60.5t29 -39.5t46.5 -21.5t67 -6.5q47 0 102 6.5t96 17.5l5 -103q-49 -15 -106.5 -23.5t-112.5 -8.5zM318 447
q-63 0 -95 -32.5t-37 -105.5h250q-3 75 -30 106.5t-88 31.5z" />
    <glyph glyph-name="ecircumflex" unicode="&#xea;" horiz-adv-x="607" 
d="M119 719l197 78l200 -78v-102l-198 78l-199 -78v102zM326 -9q-283 0 -283 275q0 139 71 211t209 72q242 0 242 -239q0 -47 -9 -80h-370q3 -36 13.5 -60.5t29 -39.5t46.5 -21.5t67 -6.5q47 0 102 6.5t96 17.5l5 -103q-49 -15 -106.5 -23.5t-112.5 -8.5zM318 447
q-63 0 -95 -32.5t-37 -105.5h250q-3 75 -30 106.5t-88 31.5z" />
    <glyph glyph-name="edblgrave" unicode="&#x205;" horiz-adv-x="607" 
d="M150 613l-114 195h149l67 -185zM367 613l-114 195h149l67 -185zM326 -9q-283 0 -283 275q0 139 71 211t209 72q242 0 242 -239q0 -47 -9 -80h-370q3 -36 13.5 -60.5t29 -39.5t46.5 -21.5t67 -6.5q47 0 102 6.5t96 17.5l5 -103q-49 -15 -106.5 -23.5t-112.5 -8.5zM318 447
q-63 0 -95 -32.5t-37 -105.5h250q-3 75 -30 106.5t-88 31.5z" />
    <glyph glyph-name="edieresis" unicode="&#xeb;" horiz-adv-x="607" 
d="M175 636q-39 0 -57 18t-18 56t18 55t57 17q40 0 57.5 -18t17.5 -54q0 -38 -17.5 -56t-57.5 -18zM448 636q-39 0 -57 18t-18 56t18 55t57 17t57 -18t18 -54q0 -38 -18 -56t-57 -18zM326 -9q-283 0 -283 275q0 139 71 211t209 72q242 0 242 -239q0 -47 -9 -80h-370
q3 -36 13.5 -60.5t29 -39.5t46.5 -21.5t67 -6.5q47 0 102 6.5t96 17.5l5 -103q-49 -15 -106.5 -23.5t-112.5 -8.5zM318 447q-63 0 -95 -32.5t-37 -105.5h250q-3 75 -30 106.5t-88 31.5z" />
    <glyph glyph-name="edotaccent" unicode="&#x117;" horiz-adv-x="607" 
d="M326 -9q-283 0 -283 275q0 139 71 211t209 72q242 0 242 -239q0 -47 -9 -80h-370q3 -36 13.5 -60.5t29 -39.5t46.5 -21.5t67 -6.5q47 0 102 6.5t96 17.5l5 -103q-49 -15 -106.5 -23.5t-112.5 -8.5zM318 447q-63 0 -95 -32.5t-37 -105.5h250q-3 75 -30 106.5t-88 31.5z
M320 629q-44 0 -64 19t-20 62q0 42 20 61.5t64 19.5t63.5 -19.5t19.5 -61.5t-19.5 -61.5t-63.5 -19.5z" />
    <glyph glyph-name="edotbelow" unicode="&#x1eb9;" horiz-adv-x="607" 
d="M326 -9q-283 0 -283 275q0 139 71 211t209 72q242 0 242 -239q0 -47 -9 -80h-370q3 -36 13.5 -60.5t29 -39.5t46.5 -21.5t67 -6.5q47 0 102 6.5t96 17.5l5 -103q-49 -15 -106.5 -23.5t-112.5 -8.5zM318 447q-63 0 -95 -32.5t-37 -105.5h250q-3 75 -30 106.5t-88 31.5z
M326 -198q-35 0 -51 15t-16 50t16 50.5t51 15.5q37 0 53 -16t16 -50t-16 -49.5t-53 -15.5z" />
    <glyph glyph-name="egrave" unicode="&#xe8;" horiz-adv-x="607" 
d="M326 -9q-283 0 -283 275q0 139 71 211t209 72q242 0 242 -239q0 -47 -9 -80h-370q3 -36 13.5 -60.5t29 -39.5t46.5 -21.5t67 -6.5q47 0 102 6.5t96 17.5l5 -103q-49 -15 -106.5 -23.5t-112.5 -8.5zM318 447q-63 0 -95 -32.5t-37 -105.5h250q-3 75 -30 106.5t-88 31.5z
M258 613l-114 195h153l67 -185z" />
    <glyph glyph-name="eight" unicode="8" horiz-adv-x="695" 
d="M349 -8q-158 0 -230 51t-72 149q0 39 11.5 69t30 53t42 39.5t47.5 27.5q-45 23 -74.5 64t-29.5 111q0 46 20.5 82.5t58 61t90 37.5t115.5 13q61 0 110.5 -13t84 -37.5t53 -61t18.5 -82.5q0 -35 -8.5 -61.5t-23.5 -47t-35 -36t-43 -27.5q28 -11 52 -26.5t42 -37.5
t28.5 -50.5t10.5 -66.5q0 -100 -72 -155.5t-226 -55.5zM283 342q-14 -8 -31 -19t-31.5 -27t-24 -37.5t-9.5 -50.5q0 -59 44.5 -86.5t117.5 -27.5q72 0 115 26t43 77q0 33 -15 54.5t-40 36t-57.5 24.5t-67.5 19zM206 549q0 -32 15.5 -53t42 -35t60.5 -23.5t71 -18.5l11 -3
q15 9 30 21.5t28 28t21 35t8 43.5q0 52 -41 78t-103 26t-102.5 -24.5t-40.5 -74.5z" />
    <glyph glyph-name="eight.denominator" horiz-adv-x="550" 
d="M278 -5q-118 0 -178.5 37.5t-60.5 115.5q0 52 24.5 84t59.5 51q-32 19 -50.5 48t-18.5 71q0 75 60.5 113.5t163.5 38.5q99 0 157 -38.5t58 -113.5q0 -45 -19 -73t-47 -45q38 -20 61 -50.5t23 -78.5q0 -81 -59 -120.5t-174 -39.5zM278 83q52 0 80 18.5t28 56.5
q0 34 -34 50t-94 33l-29 8q-9 -6 -20.5 -13.5t-21 -18t-16.5 -24.5t-7 -32q0 -38 31 -58t83 -20zM310 312q7 4 17 11.5t19 18.5t15.5 25t6.5 31q0 34 -25 51t-65 17q-45 0 -72 -17t-27 -49q0 -38 31.5 -55.5t81.5 -28.5q2 -1 9 -2.5t9 -1.5z" />
    <glyph glyph-name="eight.numerator" horiz-adv-x="550" 
d="M278 195q-118 0 -178.5 37.5t-60.5 115.5q0 52 24.5 84t59.5 51q-32 19 -50.5 48t-18.5 71q0 75 60.5 113.5t163.5 38.5q99 0 157 -38.5t58 -113.5q0 -45 -19 -73t-47 -45q38 -20 61 -50.5t23 -78.5q0 -81 -59 -120.5t-174 -39.5zM278 283q52 0 80 18.5t28 56.5
q0 34 -34 50t-94 33l-29 8q-9 -5 -20 -13t-21 -18.5t-17 -24.5t-7 -32q0 -38 31 -58t83 -20zM310 512q7 4 17 11.5t19 18.5t15.5 25t6.5 31q0 34 -25 51t-65 17q-45 0 -72 -17t-27 -49q0 -38 31 -55.5t81 -28.5z" />
    <glyph glyph-name="eight.osf" horiz-adv-x="691" 
d="M347 -8q-302 0 -302 185q0 59 34.5 104t98.5 73q-57 28 -81.5 66t-24.5 94q0 41 20 74t57 56.5t89.5 36.5t117.5 13q125 0 195.5 -47.5t70.5 -132.5q0 -54 -27.5 -93.5t-87.5 -68.5q75 -29 106.5 -67.5t31.5 -96.5q0 -97 -75 -146.5t-223 -49.5zM282 317
q-46 -21 -71.5 -54t-25.5 -71q0 -48 43.5 -73t118.5 -25q70 0 114 23t44 65q0 23 -9.5 41t-30.5 33t-55.5 27t-84.5 24zM203 502q0 -27 15 -45t40.5 -30.5t60 -21.5t73.5 -18l13 -3q38 20 61.5 50.5t23.5 63.5q0 44 -38 69.5t-105 25.5t-105.5 -24t-38.5 -67z" />
    <glyph glyph-name="eight.tf" 
d="M307 -8q-149 0 -217 51t-68 149q0 38 9.5 68t26 53t38.5 40t48 29q-42 25 -69 65t-27 109q0 46 19.5 82.5t55 61t85 37.5t109.5 13q117 0 184 -50t67 -144q0 -69 -28 -108t-74 -64q27 -12 49.5 -28.5t39 -38t26 -50t9.5 -65.5q0 -99 -67.5 -154.5t-215.5 -55.5zM307 94
q68 0 106.5 26t38.5 77q0 37 -17.5 60t-46.5 38t-65.5 25.5t-73.5 21.5q-11 -6 -26 -16t-29 -26t-24 -38.5t-10 -53.5q0 -59 40.5 -86.5t106.5 -27.5zM308 648q-57 0 -94 -24t-37 -74q0 -33 15.5 -55t41 -36t58.5 -23.5t67 -18.5q11 7 25 18.5t26.5 27t21 35.5t8.5 46
q0 52 -37.5 78t-94.5 26z" />
    <glyph glyph-name="eight.tosf" 
d="M304 -8q-142 0 -212 46.5t-70 137.5q0 61 32 106t93 72q-54 28 -76.5 66.5t-22.5 86.5q0 46 20 81.5t55.5 58.5t84.5 35t107 12q119 0 186 -47t67 -135q0 -52 -26 -92.5t-81 -68.5q72 -30 100.5 -69t28.5 -95q0 -195 -286 -195zM308 94q64 0 104 22.5t40 68.5
q0 23 -10.5 40.5t-27.5 30.5t-39 22.5t-44 16t-42.5 12t-35.5 10.5q-43 -18 -68 -52t-25 -72q0 -49 39.5 -74t108.5 -25zM306 593q-60 0 -94.5 -24t-34.5 -68q0 -27 14.5 -45t39.5 -31t58 -22t69 -19q34 17 58 47.5t24 67.5q0 43 -35.5 68.5t-98.5 25.5z" />
    <glyph glyph-name="eightinferior" unicode="&#x2088;" horiz-adv-x="550" 
d="M278 -105q-118 0 -178.5 37.5t-60.5 115.5q0 52 24.5 84t59.5 51q-32 19 -50.5 48t-18.5 71q0 75 60.5 113.5t163.5 38.5q99 0 157 -38.5t58 -113.5q0 -45 -19 -73t-47 -45q38 -20 61 -50.5t23 -78.5q0 -81 -59 -120.5t-174 -39.5zM278 -17q52 0 80 18.5t28 56.5
q0 34 -33.5 50.5t-93.5 32.5l-30 8q-9 -5 -20 -13t-21 -18.5t-17 -24.5t-7 -32q0 -38 31 -58t83 -20zM310 212q7 4 17 11.5t19 18.5t15.5 25t6.5 31q0 34 -25 51t-65 17q-45 0 -72 -17t-27 -49q0 -38 31 -55.5t81 -28.5z" />
    <glyph glyph-name="eightsuperior" unicode="&#x2078;" horiz-adv-x="550" 
d="M278 295q-118 0 -178.5 37.5t-60.5 115.5q0 52 24.5 84t59.5 51q-32 19 -50.5 48t-18.5 71q0 75 60.5 113.5t163.5 38.5q99 0 157 -38.5t58 -113.5q0 -45 -19 -73t-47 -45q38 -20 61 -50.5t23 -78.5q0 -81 -59 -120.5t-174 -39.5zM278 383q52 0 80 18.5t28 56.5
q0 34 -33.5 50.5t-93.5 32.5l-30 8q-9 -5 -20 -13t-21 -18.5t-17 -24.5t-7 -32q0 -38 31 -58t83 -20zM310 612q7 4 17 11.5t19 18.5t15.5 25t6.5 31q0 34 -25 51t-65 17q-45 0 -72 -17t-27 -49q0 -38 31.5 -55.5t81.5 -28.5z" />
    <glyph glyph-name="einvertedbreve" unicode="&#x207;" horiz-adv-x="607" 
d="M97 625q0 37 11.5 69t37 54.5t67 35.5t101.5 13t102 -12.5t67.5 -35.5t37 -54.5t11.5 -69.5h-100q0 52 -27 75.5t-91 23.5q-63 0 -90.5 -23.5t-27.5 -75.5h-99zM326 -9q-283 0 -283 275q0 139 71 211t209 72q242 0 242 -239q0 -47 -9 -80h-370q3 -36 13.5 -60.5t29 -39.5
t46.5 -21.5t67 -6.5q47 0 102 6.5t96 17.5l5 -103q-49 -15 -106.5 -23.5t-112.5 -8.5zM318 447q-63 0 -95 -32.5t-37 -105.5h250q-3 75 -30 106.5t-88 31.5z" />
    <glyph glyph-name="ellipsis" unicode="&#x2026;" horiz-adv-x="813" 
d="M137 -6q-38 0 -61 19.5t-23 59.5q0 41 23 59.5t61 18.5t61.5 -19t23.5 -59t-23.5 -59.5t-61.5 -19.5zM409 -6q-38 0 -61 19.5t-23 59.5q0 41 23 59.5t61 18.5t61.5 -19t23.5 -59t-23.5 -59.5t-61.5 -19.5zM675 -6q-38 0 -61 19.5t-23 59.5q0 41 23 59.5t61 18.5t61.5 -19
t23.5 -59t-23.5 -59.5t-61.5 -19.5z" />
    <glyph glyph-name="emacron" unicode="&#x113;" horiz-adv-x="607" 
d="M326 -9q-283 0 -283 275q0 139 71 211t209 72q242 0 242 -239q0 -47 -9 -80h-370q3 -36 13.5 -60.5t29 -39.5t46.5 -21.5t67 -6.5q47 0 102 6.5t96 17.5l5 -103q-49 -15 -106.5 -23.5t-112.5 -8.5zM318 447q-63 0 -95 -32.5t-37 -105.5h250q-3 75 -30 106.5t-88 31.5z
M118 746h393v-99h-393v99z" />
    <glyph glyph-name="emdash" unicode="&#x2014;" horiz-adv-x="859" 
d="M64 335h731v-110h-731v110z" />
    <glyph glyph-name="endash" unicode="&#x2013;" horiz-adv-x="688" 
d="M64 335h560v-110h-560v110z" />
    <glyph glyph-name="eng" unicode="&#x14b;" horiz-adv-x="681" 
d="M417 -202q13 37 22.5 74t16.5 77.5t10.5 86.5t3.5 102v178q0 30 -3.5 50t-12 31t-23 15.5t-36.5 4.5q-76 0 -179 -37v-380h-145v540h121l8 -61h4q83 36 143.5 53.5t109.5 17.5q75 0 117 -39t42 -113v-335q-7 -78 -30 -152t-56 -130z" />
    <glyph glyph-name="eogonek" unicode="&#x119;" horiz-adv-x="608" 
d="M326 -9q-283 0 -283 275q0 139 71 211t209 72q242 0 242 -239q0 -47 -9 -80h-370q3 -36 13.5 -60.5t29 -39.5t46.5 -21.5t67 -6.5q47 0 102 6.5t96 17.5l5 -103v-13q-68 -31 -96 -54t-28 -47q0 -28 37 -28q14 0 39 4t48 10v-80q-35 -12 -85 -12q-66 0 -101 22t-35 66
q0 54 58 102q-14 -1 -28 -1.5t-28 -0.5zM318 447q-63 0 -95 -32.5t-37 -105.5h250q-3 75 -30 106.5t-88 31.5z" />
    <glyph glyph-name="equal" unicode="=" horiz-adv-x="543" 
d="M67 290h409v-93h-409v93zM67 508h409v-93h-409v93z" />
    <glyph glyph-name="equal.tab" 
d="M77 290h459v-93h-459v93zM77 508h459v-93h-459v93z" />
    <glyph glyph-name="estimated" unicode="&#x212e;" horiz-adv-x="667" 
d="M340 1q-62 0 -114.5 23.5t-90.5 65.5t-60 99t-22 124q0 69 21 126.5t59 99t91 64.5t116 23t114.5 -22t89 -63t59.5 -98.5t25 -129.5h-447v-205q64 -66 159 -66q140 0 218 136l40 -24q-56 -80 -118 -116.5t-140 -36.5zM500 354v164q-71 68 -161 68q-93 0 -158 -68v-164
h319z" />
    <glyph glyph-name="eth" unicode="&#xf0;" horiz-adv-x="679" 
d="M215 698l143 13q-19 24 -41 48t-47 49h148q11 -14 29.5 -35t39.5 -50l166 15v-90l-112 -11q34 -63 59 -143.5t25 -181.5q0 -160 -75 -241t-218 -81q-140 0 -215.5 71.5t-75.5 206.5q0 67 19 119.5t55 88.5t87.5 55t115.5 19q56 0 94 -18t66 -58q-21 82 -62 152l-201 -19
v91zM334 102q77 0 111 41.5t34 135.5q0 74 -36.5 116t-111.5 42q-77 0 -110 -39.5t-33 -127.5q0 -90 34 -129t112 -39z" />
    <glyph glyph-name="etilde" unicode="&#x1ebd;" horiz-adv-x="607" 
d="M326 -9q-283 0 -283 275q0 139 71 211t209 72q242 0 242 -239q0 -47 -9 -80h-370q3 -36 13.5 -60.5t29 -39.5t46.5 -21.5t67 -6.5q47 0 102 6.5t96 17.5l5 -103q-49 -15 -106.5 -23.5t-112.5 -8.5zM318 447q-63 0 -95 -32.5t-37 -105.5h250q-3 75 -30 106.5t-88 31.5z
M76 673q34 54 75 80t79 26q27 0 52.5 -6t49.5 -13.5t48.5 -13.5t50.5 -6q25 0 49 8t53 28l23 -31q-34 -53 -76 -79.5t-81 -26.5q-26 0 -51 6t-50 13.5t-49.5 13.5t-49.5 6t-48 -7.5t-51 -28.5z" />
    <glyph glyph-name="exclam" unicode="!" horiz-adv-x="294" 
d="M148 -3q-35 0 -53.5 18t-18.5 51q0 34 18.5 52t53.5 18t54 -18.5t19 -51.5t-19 -51t-54 -18zM102 232l-26 498v10h141v-10l-26 -498v-11h-89v11z" />
    <glyph glyph-name="exclamdown" unicode="&#xa1;" horiz-adv-x="277" 
d="M140 543q35 0 54 -18t19 -51t-19 -51.5t-54 -18.5t-53.5 18t-18.5 52q0 33 18.5 51t53.5 18zM94 319h89v-11l26 -498v-10h-141v10l26 498v11z" />
    <glyph glyph-name="f" unicode="f" horiz-adv-x="463" 
d="M147 417h-131v123h132v23q0 72 15.5 120t52.5 76.5t97.5 41t150.5 14.5l7 -104q-52 -2 -86.5 -8.5t-55 -21t-29 -39t-8.5 -62.5v-40h156v-123h-156v-417h-145v417z" />
    <glyph glyph-name="f.calt" horiz-adv-x="463" 
d="M147 417h-131v123h132v23q0 72 15.5 120t52.5 76.5t97.5 41t150.5 14.5l7 -104q-52 -2 -86.5 -8.5t-55 -21t-29 -39t-8.5 -62.5v-40h156v-123h-156v-417h-145v417z" />
    <glyph glyph-name="h" unicode="h" horiz-adv-x="682" 
d="M70 808h145v-329q78 35 136 53t105 18q75 0 117 -38.5t42 -113.5v-398h-145v349q0 48 -19 68t-57 20q-33 0 -80 -12.5t-99 -33.5v-391h-145v808z" />
    <glyph glyph-name="i" unicode="i" horiz-adv-x="287" 
d="M143 628q-43 0 -61.5 18.5t-18.5 60.5t18.5 61t61.5 19q45 0 64 -20t19 -60q0 -39 -19 -59t-64 -20zM71 540h145v-540h-145v540z" />
    <glyph glyph-name="j" unicode="j" horiz-adv-x="284" 
d="M140 628q-44 0 -62.5 18.5t-18.5 60.5t18.5 61t62.5 19q45 0 63.5 -20t18.5 -60q0 -39 -18.5 -59t-63.5 -20zM17 -200q15 41 25.5 78.5t17 78t9.5 88.5t3 110v61v103.5t-0.5 117.5t-1.5 103h144v-461q-6 -85 -28.5 -158t-61.5 -141z" />
    <glyph glyph-name="k" unicode="k" horiz-adv-x="627" 
d="M70 808h145v-485h79l160 217h162l-198 -253l-23 -7v-4l24 -8l214 -268h-161l-180 233h-77v-233h-145v808z" />
    <glyph glyph-name="l" unicode="l" horiz-adv-x="289" 
d="M72 808h145v-808h-145v808z" />
    <glyph glyph-name="t" unicode="t" horiz-adv-x="455" 
d="M308 -13q-90 0 -136.5 43t-46.5 128v259h-105v123h115l22 149l112 13v-162h156v-123h-154v-227q0 -48 20 -69t67 -21q33 0 71 13v-110q-24 -8 -56.5 -12t-64.5 -4z" />
    <glyph glyph-name="five" unicode="5" horiz-adv-x="606" 
d="M242 -12q-46 0 -94.5 4.5t-96.5 11.5v111h31q38 -7 72.5 -10t67.5 -3q48 0 83.5 6t59 20t35 38.5t11.5 61.5q0 30 -13.5 50t-43.5 32t-77.5 17t-114.5 7l-81 2l-15 15l30 389h431v-115h-322l-11 -179q93 -1 163 -12t116 -37t69 -68.5t23 -106.5q0 -68 -26 -113t-70.5 -72
t-103 -38t-123.5 -11z" />
    <glyph glyph-name="five.denominator" horiz-adv-x="480" 
d="M193 -8q-35 0 -74.5 3.5t-77.5 8.5v99h26q60 -9 110 -9q72 0 106.5 16t34.5 60q0 42 -37.5 58t-122.5 18l-89 1l-17 14l24 285h341v-102h-249l-8 -112q78 0 132.5 -8.5t89 -27.5t50 -50.5t15.5 -77.5q0 -51 -20.5 -85t-55.5 -54.5t-81 -28.5t-97 -8z" />
    <glyph glyph-name="five.numerator" horiz-adv-x="480" 
d="M193 192q-35 0 -74.5 3.5t-77.5 8.5v99h26q60 -9 110 -9q72 0 106.5 16t34.5 60q0 42 -37.5 58t-122.5 18l-89 1l-17 14l24 285h341v-102h-249l-8 -112q78 0 132.5 -8.5t89 -27.5t50 -50.5t15.5 -77.5q0 -51 -20.5 -85t-55.5 -54.5t-81 -28.5t-97 -8z" />
    <glyph glyph-name="five.osf" horiz-adv-x="589" 
d="M234 -168q-47 0 -95 4.5t-96 11.5v111h30q38 -8 72.5 -10.5t68.5 -2.5q48 0 83 6t58.5 20t35 38.5t11.5 61.5q0 30 -13.5 50.5t-43.5 32.5t-77.5 17.5t-114.5 6.5l-80 1l-16 16l30 388h431v-115h-322l-11 -179q93 -1 163 -12t116 -37t69 -68.5t23 -106.5q0 -68 -26 -113
t-70 -72t-102.5 -38t-123.5 -11z" />
    <glyph glyph-name="five.tf" 
d="M245 -12q-47 0 -96 4.5t-97 11.5v111h30q74 -13 143 -13q48 0 84 6t60 20t35.5 38.5t11.5 61.5q0 30 -14 50.5t-44 33t-78 18t-116 6.5l-82 2l-15 15l30 387h435v-115h-325l-12 -179q95 -1 165.5 -12t117.5 -37t70 -68.5t23 -106.5q0 -68 -26.5 -113t-71 -72t-103.5 -38
t-125 -11z" />
    <glyph glyph-name="five.tosf" 
d="M245 -168q-47 0 -96 4.5t-97 11.5v111h30q38 -8 73.5 -10.5t69.5 -2.5q48 0 84 6t60 20t35.5 38.5t11.5 61.5q0 30 -14 50.5t-44 33t-78 18t-116 6.5l-82 1l-15 15l30 388h435v-115h-325l-12 -179q95 -1 165.5 -12t117.5 -37t70 -68.5t23 -106.5q0 -68 -26.5 -113
t-71 -72t-103.5 -38t-125 -11z" />
    <glyph glyph-name="fiveeighths" unicode="&#x215d;" horiz-adv-x="1263" 
d="M203 192q-35 0 -74.5 3.5t-77.5 8.5v99h26q60 -9 110 -9q72 0 106.5 16t34.5 60q0 42 -37.5 58t-122.5 18l-89 1l-17 14l24 285h341v-102h-249l-8 -112q78 0 132.5 -8.5t89 -27.5t50 -50.5t15.5 -77.5q0 -51 -20.5 -85t-55.5 -54.5t-81 -28.5t-97 -8zM728 740h127
l-373 -740h-128zM990 -5q-118 0 -178.5 37.5t-60.5 115.5q0 52 24.5 84t59.5 51q-32 19 -50.5 48t-18.5 71q0 75 60.5 113.5t163.5 38.5q99 0 157 -38.5t58 -113.5q0 -45 -19 -73t-47 -45q38 -20 61 -50.5t23 -78.5q0 -81 -59 -120.5t-174 -39.5zM990 83q52 0 80 18.5
t28 56.5q0 34 -34 50t-94 33l-29 8q-9 -6 -20.5 -13.5t-21 -18t-16.5 -24.5t-7 -32q0 -38 31 -58t83 -20zM1022 312q7 4 17 11.5t19 18.5t15.5 25t6.5 31q0 34 -25 51t-65 17q-45 0 -72 -17t-27 -49q0 -38 31.5 -55.5t81.5 -28.5q2 -1 9 -2.5t9 -1.5z" />
    <glyph glyph-name="fraction" unicode="&#x2044;" horiz-adv-x="302" 
d="M274 740h127l-373 -740h-128z" />
    <glyph glyph-name="fiveinferior" unicode="&#x2085;" horiz-adv-x="480" 
d="M193 -108q-35 0 -74.5 3.5t-77.5 8.5v99h26q60 -9 110 -9q72 0 106.5 16t34.5 60q0 42 -37.5 58t-122.5 18l-89 1l-17 14l24 285h341v-102h-249l-8 -112q78 0 132.5 -8.5t89 -27.5t50 -50.5t15.5 -77.5q0 -51 -20.5 -85t-55.5 -54.5t-81 -28.5t-97 -8z" />
    <glyph glyph-name="fivesuperior" unicode="&#x2075;" horiz-adv-x="480" 
d="M193 292q-35 0 -74.5 3.5t-77.5 8.5v99h26q60 -9 110 -9q72 0 106.5 16t34.5 60q0 42 -37.5 58t-122.5 18l-89 1l-17 14l24 285h341v-102h-249l-8 -112q78 0 132.5 -8.5t89 -27.5t50 -50.5t15.5 -77.5q0 -51 -20.5 -85t-55.5 -54.5t-81 -28.5t-97 -8z" />
    <glyph glyph-name="florin" unicode="&#x192;" horiz-adv-x="497" 
d="M161 417h-130v123h131v23q0 72 16 120t52.5 76.5t97.5 41t151 14.5l7 -104q-52 -2 -86.5 -8.5t-55.5 -21t-29.5 -39t-8.5 -62.5v-40h157v-123h-157v-589l-145 -48v637z" />
    <glyph glyph-name="four" unicode="4" horiz-adv-x="685" 
d="M20 241v10l249 499h4l145 -16l6 -15l-251 -448v-4h224l35 205h104v-205h123v-114h-123v-153h-145v153h-351z" />
    <glyph glyph-name="four.denominator" horiz-adv-x="536" 
d="M297 109h-263l-17 78l198 363l12 3l104 -11l10 -24l-193 -312h155l30 151h86v-151h94v-97h-94v-109h-122v109z" />
    <glyph glyph-name="four.numerator" horiz-adv-x="536" 
d="M297 309h-263l-17 78l198 363l12 3l104 -11l10 -24l-193 -312h155l30 151h86v-151h94v-97h-94v-109h-122v109z" />
    <glyph glyph-name="four.osf" horiz-adv-x="682" 
d="M19 102v10l249 481h4l145 -16l5 -15l-251 -429v-4h223l37 205h103v-205h123v-115h-123v-175h-145v175h-351z" />
    <glyph glyph-name="four.tf" 
d="M-2 241v10l237 499h4l143 -16l6 -15l-240 -448v-4h213l30 205h102v-205h117v-114h-117v-153h-143v153h-333z" />
    <glyph glyph-name="four.tosf" 
d="M-2 102v10l237 481h4l142 -16l7 -15l-240 -429v-4h212l6 34l24 171h103v-205h116v-115h-116v-175h-144v175h-333z" />
    <glyph glyph-name="fourinferior" unicode="&#x2084;" horiz-adv-x="536" 
d="M297 9h-263l-17 78l198 363l12 3l104 -11l10 -24l-193 -312h155l30 151h86v-151h94v-97h-94v-109h-122v109z" />
    <glyph glyph-name="foursuperior" unicode="&#x2074;" horiz-adv-x="536" 
d="M297 409h-263l-17 78l198 363l12 3l104 -11l10 -24l-193 -312h155l30 151h86v-151h94v-97h-94v-109h-122v109z" />
    <glyph glyph-name="franc" unicode="&#x20a3;" horiz-adv-x="731" 
d="M32 202h115v538h543v-115h-395v-194h356v-115h-356v-114h136v-91h-136v-111h-148v111h-115v91z" />
    <glyph glyph-name="g" unicode="g" horiz-adv-x="679" 
d="M302 -219q-29 0 -60 1.5t-60.5 4.5t-55.5 7t-46 9l9 105q35 -8 84 -14.5t100 -6.5q41 0 77.5 7t64 25t43.5 48.5t16 77.5v51h-7q-56 -85 -180 -85q-119 0 -181.5 63t-62.5 196q0 71 22 123.5t61.5 87.5t95.5 52t124 17q25 0 51.5 -1.5t58 -6t69.5 -13t85 -21.5v-450
q0 -82 -26 -135.5t-69 -85t-98.5 -44t-114.5 -12.5zM326 119q63 0 101 28t38 82v207q-24 4 -56 7t-67 3q-41 0 -70 -8t-47.5 -27.5t-27 -51.5t-8.5 -80q0 -45 7.5 -75.5t23.5 -49t42 -27t64 -8.5z" />
    <glyph glyph-name="gacute" unicode="&#x1f5;" horiz-adv-x="679" 
d="M295 616l67 188h149l-113 -196zM302 -219q-29 0 -60 1.5t-60.5 4.5t-55.5 7t-46 9l9 105q35 -8 84 -14.5t100 -6.5q41 0 77.5 7t64 25t43.5 48.5t16 77.5v51h-7q-56 -85 -180 -85q-119 0 -181.5 63t-62.5 196q0 71 22 123.5t61.5 87.5t95.5 52t124 17q25 0 51.5 -1.5
t58 -6t69.5 -13t85 -21.5v-450q0 -82 -26 -135.5t-69 -85t-98.5 -44t-114.5 -12.5zM326 119q63 0 101 28t38 82v207q-24 4 -56 7t-67 3q-41 0 -70 -8t-47.5 -27.5t-27 -51.5t-8.5 -80q0 -45 7.5 -75.5t23.5 -49t42 -27t64 -8.5z" />
    <glyph glyph-name="gbreve" unicode="&#x11f;" horiz-adv-x="679" 
d="M302 -219q-29 0 -60 1.5t-60.5 4.5t-55.5 7t-46 9l9 105q35 -8 84 -14.5t100 -6.5q41 0 77.5 7t64 25t43.5 48.5t16 77.5v51h-7q-56 -85 -180 -85q-119 0 -181.5 63t-62.5 196q0 71 22 123.5t61.5 87.5t95.5 52t124 17q25 0 51.5 -1.5t58 -6t69.5 -13t85 -21.5v-450
q0 -82 -26 -135.5t-69 -85t-98.5 -44t-114.5 -12.5zM326 119q63 0 101 28t38 82v207q-24 4 -56 7t-67 3q-41 0 -70 -8t-47.5 -27.5t-27 -51.5t-8.5 -80q0 -45 7.5 -75.5t23.5 -49t42 -27t64 -8.5zM343 615q-60 0 -102 13t-67.5 35.5t-37 54t-11.5 69.5h99q0 -52 27.5 -75.5
t91.5 -23.5q63 0 90.5 23.5t27.5 75.5h99q0 -38 -11.5 -69.5t-37 -54.5t-67 -35.5t-101.5 -12.5z" />
    <glyph glyph-name="gcircumflex" unicode="&#x11d;" horiz-adv-x="679" 
d="M152 719l197 78l200 -78v-102l-198 78l-199 -78v102zM302 -219q-29 0 -60 1.5t-60.5 4.5t-55.5 7t-46 9l9 105q35 -8 84 -14.5t100 -6.5q41 0 77.5 7t64 25t43.5 48.5t16 77.5v51h-7q-56 -85 -180 -85q-119 0 -181.5 63t-62.5 196q0 71 22 123.5t61.5 87.5t95.5 52
t124 17q25 0 51.5 -1.5t58 -6t69.5 -13t85 -21.5v-450q0 -82 -26 -135.5t-69 -85t-98.5 -44t-114.5 -12.5zM326 119q63 0 101 28t38 82v207q-24 4 -56 7t-67 3q-41 0 -70 -8t-47.5 -27.5t-27 -51.5t-8.5 -80q0 -45 7.5 -75.5t23.5 -49t42 -27t64 -8.5z" />
    <glyph glyph-name="gcommaaccent" unicode="&#x123;" horiz-adv-x="679" 
d="M490 782l-44 -150h-150l82 150h112zM302 -219q-29 0 -60 1.5t-60.5 4.5t-55.5 7t-46 9l9 105q35 -8 84 -14.5t100 -6.5q41 0 77.5 7t64 25t43.5 48.5t16 77.5v51h-7q-56 -85 -180 -85q-119 0 -181.5 63t-62.5 196q0 71 22 123.5t61.5 87.5t95.5 52t124 17q25 0 51.5 -1.5
t58 -6t69.5 -13t85 -21.5v-450q0 -82 -26 -135.5t-69 -85t-98.5 -44t-114.5 -12.5zM326 119q63 0 101 28t38 82v207q-24 4 -56 7t-67 3q-41 0 -70 -8t-47.5 -27.5t-27 -51.5t-8.5 -80q0 -45 7.5 -75.5t23.5 -49t42 -27t64 -8.5z" />
    <glyph glyph-name="gdotaccent" unicode="&#x121;" horiz-adv-x="679" 
d="M302 -219q-29 0 -60 1.5t-60.5 4.5t-55.5 7t-46 9l9 105q35 -8 84 -14.5t100 -6.5q41 0 77.5 7t64 25t43.5 48.5t16 77.5v51h-7q-56 -85 -180 -85q-119 0 -181.5 63t-62.5 196q0 71 22 123.5t61.5 87.5t95.5 52t124 17q25 0 51.5 -1.5t58 -6t69.5 -13t85 -21.5v-450
q0 -82 -26 -135.5t-69 -85t-98.5 -44t-114.5 -12.5zM326 119q63 0 101 28t38 82v207q-24 4 -56 7t-67 3q-41 0 -70 -8t-47.5 -27.5t-27 -51.5t-8.5 -80q0 -45 7.5 -75.5t23.5 -49t42 -27t64 -8.5zM345 629q-44 0 -64 19t-20 62q0 42 20 61.5t64 19.5t63.5 -19.5t19.5 -61.5
t-19.5 -61.5t-63.5 -19.5z" />
    <glyph glyph-name="germandbls" unicode="&#xdf;" horiz-adv-x="782" 
d="M71 576q0 122 75 179t225 57q152 0 228 -57.5t76 -178.5v-127h-142q-48 0 -72 -15.5t-24 -44.5q0 -17 8.5 -28.5t25 -19t41 -12.5t56.5 -9q43 -6 77.5 -17t59 -30t38 -47t13.5 -67q0 -84 -61.5 -127t-180.5 -43q-45 0 -101.5 5.5t-120.5 17.5v100q65 -14 116.5 -19.5
t97.5 -5.5q57 0 83.5 15.5t26.5 46.5q0 35 -29 48.5t-80 21.5q-35 5 -71.5 11.5t-67.5 23.5t-50.5 48t-19.5 84q0 78 61 121.5t170 45.5v23q0 65 -38.5 94t-117.5 29q-80 0 -118.5 -29t-38.5 -94v-576h-145v576z" />
    <glyph glyph-name="germandbls.sc" horiz-adv-x="1211" 
d="M293 -9q-26 0 -57 1.5t-63.5 4.5t-65 7.5t-62.5 9.5v113q69 -13 129 -19.5t111 -6.5q66 0 101 16t35 46q0 18 -9 30t-26 20.5t-41 14t-55 10.5q-125 16 -180.5 57t-55.5 119q0 40 18.5 72t53 54.5t84 34.5t111.5 12q44 0 92.5 -5t120.5 -17v-111q-47 11 -99.5 17.5
t-97.5 6.5q-135 0 -135 -64q0 -29 31.5 -46t103.5 -30q53 -6 96 -18t73.5 -32t47 -49t16.5 -70q0 -178 -277 -178zM899 -9q-26 0 -57 1.5t-63.5 4.5t-65 7.5t-62.5 9.5v113q69 -13 129 -19.5t111 -6.5q66 0 101 16t35 46q0 18 -9 30t-26 20.5t-41 14t-55 10.5
q-125 16 -180.5 57t-55.5 119q0 40 18.5 72t53 54.5t84 34.5t111.5 12q44 0 92.5 -5t120.5 -17v-111q-47 11 -99.5 17.5t-97.5 6.5q-135 0 -135 -64q0 -29 31.5 -46t103.5 -30q53 -6 96 -18t73.5 -32t47 -49t16.5 -70q0 -178 -277 -178z" />
    <glyph glyph-name="greater" unicode="&#x3e;" horiz-adv-x="542" 
d="M71 232l304 132l-305 133v100l432 -188v-88l-431 -188v99z" />
    <glyph glyph-name="greater.tab" 
d="M83 232l338 133l-340 132v100l480 -188v-88l-478 -188v99z" />
    <glyph glyph-name="greaterequal" unicode="&#x2265;" horiz-adv-x="568" 
d="M74 612l432 -160v-88l-431 -160v100l309 103l-310 105v100zM69 160h432v-91h-432v91z" />
    <glyph glyph-name="guillemotleft" unicode="&#xab;" horiz-adv-x="736" 
d="M31 268v4l208 238h148l-208 -238v-4l208 -238h-148zM340 268v4l208 238h148l-208 -238v-4l208 -238h-148z" />
    <glyph glyph-name="guilsinglleft" unicode="&#x2039;" horiz-adv-x="427" 
d="M31 268v4l208 238h148l-208 -238v-4l208 -238h-148z" />
    <glyph glyph-name="guillemotright" unicode="&#xbb;" horiz-adv-x="736" 
d="M190 30h-149l208 238v4l-208 238h149l208 -238v-4zM498 30h-149l208 238v4l-208 238h149l208 -238v-4z" />
    <glyph glyph-name="guilsinglright" unicode="&#x203a;" horiz-adv-x="427" 
d="M189 30h-149l208 238v4l-208 238h149l208 -238v-4z" />
    <glyph glyph-name="hbar" unicode="&#x127;" horiz-adv-x="682" 
d="M-23 716h93v92h145v-92h175v-84h-175v-153q78 35 136 53t105 18q75 0 117 -38.5t42 -113.5v-398h-145v349q0 48 -19 68t-57 20q-33 0 -80 -12.5t-99 -33.5v-391h-145v632h-93v84z" />
    <glyph glyph-name="hcircumflex" unicode="&#x125;" horiz-adv-x="682" 
d="M156 924l197 78l200 -78v-102l-198 78l-199 -78v102zM70 808h145v-329q78 35 136 53t105 18q75 0 117 -38.5t42 -113.5v-398h-145v349q0 48 -19 68t-57 20q-33 0 -80 -12.5t-99 -33.5v-391h-145v808z" />
    <glyph glyph-name="hdotbelow" unicode="&#x1e25;" horiz-adv-x="682" 
d="M70 808h145v-329q78 35 136 53t105 18q75 0 117 -38.5t42 -113.5v-398h-145v349q0 48 -19 68t-57 20q-33 0 -80 -12.5t-99 -33.5v-391h-145v808zM342 -198q-35 0 -51 15t-16 50t16 50.5t51 15.5q37 0 53 -16t16 -50t-16 -49.5t-53 -15.5z" />
    <glyph glyph-name="hungarumlaut" unicode="&#x2dd;" horiz-adv-x="502" 
d="M43 623l67 185h149l-114 -195zM261 623l66 185h149l-113 -195z" />
    <glyph glyph-name="hyphen" unicode="-" horiz-adv-x="538" 
d="M64 335h410v-110h-410v110z" />
    <glyph glyph-name="iacute" unicode="&#xed;" horiz-adv-x="288" 
d="M92 616l67 188h149l-113 -196zM71 540h145v-540h-145v540z" />
    <glyph glyph-name="ibreve" unicode="&#x12d;" horiz-adv-x="288" 
d="M146 615q-49 0 -83 13t-55 35.5t-30.5 54t-9.5 69.5h77q0 -52 23 -75.5t78 -23.5t78 23.5t23 75.5h76q0 -38 -9.5 -69.5t-30.5 -54.5t-54.5 -35.5t-82.5 -12.5zM71 540h145v-540h-145v540z" />
    <glyph glyph-name="icircumflex" unicode="&#xee;" horiz-adv-x="288" 
d="M-41 719l185 78l188 -78v-102l-187 78l-186 -78v102zM71 540h145v-540h-145v540z" />
    <glyph glyph-name="idblgrave" unicode="&#x209;" horiz-adv-x="288" 
d="M-18 613l-114 195h149l67 -185zM199 613l-114 195h149l67 -185zM71 540h145v-540h-145v540z" />
    <glyph glyph-name="idieresis" unicode="&#xef;" horiz-adv-x="288" 
d="M23 636q-39 0 -57 18t-18 56t18 55t57 17t57 -18t18 -54q0 -38 -18 -56t-57 -18zM268 636q-39 0 -57 18t-18 56t18 55t57 17t57 -18t18 -54q0 -38 -18 -56t-57 -18zM71 540h145v-540h-145v540z" />
    <glyph glyph-name="idotbelow" unicode="&#x1ecb;" horiz-adv-x="287" 
d="M143 628q-43 0 -61.5 18.5t-18.5 60.5t18.5 61t61.5 19q45 0 64 -20t19 -60q0 -39 -19 -59t-64 -20zM71 540h145v-540h-145v540zM143 -198q-35 0 -51 15t-16 50t16 50.5t51 15.5q37 0 53 -16t16 -50t-16 -49.5t-53 -15.5z" />
    <glyph glyph-name="igrave" unicode="&#xec;" horiz-adv-x="288" 
d="M71 540h145v-540h-145v540zM84 613l-114 195h153l67 -185z" />
    <glyph glyph-name="iinvertedbreve" unicode="&#x20b;" horiz-adv-x="288" 
d="M-32 625q0 37 9.5 69t30.5 54.5t55 35.5t83 13t83 -12.5t55 -35.5t30.5 -54.5t9.5 -69.5h-77q0 52 -23 75.5t-78 23.5t-78 -23.5t-23 -75.5h-77zM71 540h145v-540h-145v540z" />
    <glyph glyph-name="ij" unicode="&#x133;" horiz-adv-x="571" 
d="M143 628q-43 0 -61.5 18.5t-18.5 60.5t18.5 61t61.5 19q45 0 64 -20t19 -60q0 -39 -19 -59t-64 -20zM71 540h145v-540h-145v540zM427 628q-44 0 -62.5 18.5t-18.5 60.5t18.5 61t62.5 19q45 0 63.5 -20t18.5 -60q0 -39 -18.5 -59t-63.5 -20zM304 -200q15 41 25.5 78.5
t17 78t9.5 88.5t3 110v61v103.5t-0.5 117.5t-1.5 103h144v-461q-6 -85 -28.5 -158t-61.5 -141z" />
    <glyph glyph-name="imacron" unicode="&#x12b;" horiz-adv-x="288" 
d="M71 540h145v-540h-145v540zM-50 746h393v-99h-393v99z" />
    <glyph glyph-name="infinity" unicode="&#x221e;" horiz-adv-x="935" 
d="M254 129q-45 0 -83 13.5t-65.5 38t-42.5 58.5t-15 75q0 38 15.5 71t43.5 57t65.5 37.5t81.5 13.5q61 0 115 -27t98 -78q23 22 46.5 41t50 33.5t55.5 22.5t62 8q45 0 82.5 -13.5t65 -37.5t43 -57.5t15.5 -72.5q0 -40 -15.5 -73.5t-43 -58t-65 -38t-82.5 -13.5
q-59 0 -109.5 25.5t-104.5 86.5q-23 -22 -46 -42.5t-48 -36t-54 -24.5t-65 -9zM269 212q36 0 71 23.5t79 79.5q-73 95 -153 95q-46 0 -74 -26.5t-28 -69.5q0 -45 29.5 -73.5t75.5 -28.5zM670 212q46 0 73.5 27.5t27.5 72.5q0 21 -8 38.5t-22 31t-33.5 21t-41.5 7.5
q-41 0 -79 -25t-71 -73q46 -56 81 -78t73 -22z" />
    <glyph glyph-name="integral" unicode="&#x222b;" horiz-adv-x="361" 
d="M111 -206q-22 0 -45.5 4t-47.5 12l15 77q22 -4 33.5 -5t22.5 -1q29 0 45 12t16 44v9l-52 670q-1 5 -1 10.5v10.5q0 67 32.5 100t92.5 33q27 0 55.5 -4t66.5 -13q0 -2 -2.5 -13.5t-5 -25t-4.5 -25t-2 -12.5q-23 5 -35 7t-23 2q-26 0 -41.5 -13t-15.5 -44v-10l51 -688
q0 -2 0.5 -6.5t0.5 -6.5q0 -65 -42 -94.5t-114 -29.5z" />
    <glyph glyph-name="iogonek" unicode="&#x12f;" horiz-adv-x="287" 
d="M71 540h145v-553q-68 -31 -96 -54t-28 -47q0 -28 37 -28q14 0 39 4t48 10v-80q-35 -12 -85 -12q-66 0 -101 22t-35 66q0 73 102 132h-26v540zM143 628q-43 0 -61.5 18.5t-18.5 60.5t18.5 61t61.5 19q45 0 64 -20t19 -60q0 -39 -19 -59t-64 -20z" />
    <glyph glyph-name="itilde" unicode="&#x129;" horiz-adv-x="288" 
d="M-80 673q32 54 70 80t75 26q25 0 48.5 -6t46.5 -13.5t46.5 -13.5t47.5 -6q22 0 44.5 8t50.5 28l23 -31q-32 -53 -72 -79.5t-77 -26.5q-24 0 -47.5 6t-47 13.5t-46.5 13.5t-46 6t-45.5 -7.5t-48.5 -28.5zM71 540h145v-540h-145v540z" />
    <glyph glyph-name="jcircumflex" unicode="&#x135;" horiz-adv-x="284" 
d="M-47 721l185 78l189 -78v-101l-187 77l-187 -77v101zM17 -200q15 41 25.5 78.5t17 78t9.5 88.5t3 110v61v103.5t-0.5 117.5t-1.5 103h144v-461q-6 -85 -28.5 -158t-61.5 -141z" />
    <glyph glyph-name="kcommaaccent" unicode="&#x137;" horiz-adv-x="627" 
d="M258 -70h150l-82 -150h-112zM70 808h145v-485h79l160 217h162l-198 -253l-23 -7v-4l24 -8l214 -268h-161l-180 233h-77v-233h-145v808z" />
    <glyph glyph-name="kgreenlandic" unicode="&#x138;" horiz-adv-x="631" 
d="M71 540h145v-217h101l139 217h160l-176 -253l-23 -7v-4l24 -8l193 -268h-160l-159 233h-99v-233h-145v540z" />
    <glyph glyph-name="lacute" unicode="&#x13a;" horiz-adv-x="289" 
d="M89 842l67 188h149l-113 -196zM72 808h145v-808h-145v808z" />
    <glyph glyph-name="lcaron" unicode="&#x13e;" horiz-adv-x="290" 
d="M280 808h115l-38 -228h-77v228zM72 808h145v-808h-145v808z" />
    <glyph glyph-name="lcommaaccent" unicode="&#x13c;" horiz-adv-x="289" 
d="M77 -70h150l-82 -150h-112zM72 808h145v-808h-145v808z" />
    <glyph glyph-name="ldot" unicode="&#x140;" horiz-adv-x="425" 
d="M72 808h145v-808h-145v808zM357 289q-45 0 -64.5 19t-19.5 62t19.5 62t64.5 19q44 0 63.5 -19.5t19.5 -61.5t-19.5 -61.5t-63.5 -19.5z" />
    <glyph glyph-name="less" unicode="&#x3c;" horiz-adv-x="541" 
d="M40 321v88l432 188v-100l-305 -133l304 -132v-99z" />
    <glyph glyph-name="less.tab" 
d="M53 321v88l478 188v-100l-339 -132l338 -133v-99z" />
    <glyph glyph-name="lessequal" unicode="&#x2264;" horiz-adv-x="568" 
d="M65 452l432 160v-100l-310 -105l309 -103v-100l-431 160v88zM64 160h432v-91h-432v91z" />
    <glyph glyph-name="lira" unicode="&#x20a4;" horiz-adv-x="729" 
d="M56 484h165v30q0 118 68 176t211 58q45 0 87 -6.5t95 -20.5l-7 -117q-93 21 -160 21q-80 0 -112.5 -26t-32.5 -85v-30h224l-11 -78h-213v-78h210l-11 -77h-199v-125h298v-126h-612v127h165v124h-165v77h165v78h-165v78z" />
    <glyph glyph-name="logicalnot" unicode="&#xac;" horiz-adv-x="883" 
d="M58 437h752v-335h-141v216h-611v119z" />
    <glyph glyph-name="lozenge" unicode="&#x25ca;" horiz-adv-x="634" 
d="M34 363v15l190 362h186l190 -362v-15l-190 -363h-186zM458 370l-141 280l-142 -280l142 -280z" />
    <glyph glyph-name="lslash" unicode="&#x142;" horiz-adv-x="385" 
d="M26 363l96 47v398h145v-328l103 51v-110l-103 -51v-370h-145v300l-96 -47v110z" />
    <glyph glyph-name="m" unicode="m" horiz-adv-x="992" 
d="M71 540h121l8 -64h7q61 35 111 54.5t95 19.5q51 0 87.5 -19t54.5 -56h4q63 37 113 56t94 19q75 0 117 -38.5t42 -113.5v-398h-145v347q0 47 -19 67t-57 20q-25 0 -60.5 -11t-72.5 -31v-392h-145v347q0 47 -18.5 67t-57.5 20q-26 0 -62.5 -12t-71.5 -31v-391h-145v540z
" />
    <glyph glyph-name="minus" unicode="&#x2212;" horiz-adv-x="560" 
d="M67 415h426v-90h-426v90z" />
    <glyph glyph-name="minus.tab" 
d="M88 415h437v-90h-437v90z" />
    <glyph glyph-name="mu" unicode="&#xb5;" horiz-adv-x="717" 
d="M84 540h145v-364q0 -42 17.5 -60.5t52.5 -18.5q42 0 87.5 14t97.5 34v395h145v-540h-121l-9 67h-4q-43 -21 -75 -35.5t-60.5 -23.5t-57.5 -13.5t-66 -4.5h-7v-210h-145v760z" />
    <glyph glyph-name="multiply" unicode="&#xd7;" horiz-adv-x="498" 
d="M51 236l133 134l-133 134l64 65l133 -134l134 134l65 -65l-134 -134l134 -134l-64 -64l-134 134l-134 -134z" />
    <glyph glyph-name="multiply.tab" 
d="M79 236l156 135l-156 133l69 65l158 -137l159 137l70 -65l-157 -133l157 -135l-69 -64l-159 137l-159 -137z" />
    <glyph glyph-name="n" unicode="n" horiz-adv-x="682" 
d="M71 540h121l8 -64h7q84 38 143 56t107 18q75 0 117 -38.5t42 -113.5v-398h-146v349q0 48 -18.5 68t-57.5 20q-34 0 -81 -13t-97 -33v-391h-145v540z" />
    <glyph glyph-name="nacute" unicode="&#x144;" horiz-adv-x="682" 
d="M295 616l67 188h149l-113 -196zM71 540h121l8 -64h7q84 38 143 56t107 18q75 0 117 -38.5t42 -113.5v-398h-146v349q0 48 -18.5 68t-57.5 20q-34 0 -81 -13t-97 -33v-391h-145v540z" />
    <glyph glyph-name="napostrophe" unicode="&#x149;" horiz-adv-x="780" 
d="M147 808v-4l-41 -224h-77v228h118zM168 540h121l8 -64h7q84 38 143 56t107 18q75 0 117 -38.5t42 -113.5v-398h-146v349q0 48 -18.5 68t-57.5 20q-34 0 -81 -13t-97 -33v-391h-145v540z" />
    <glyph glyph-name="ncaron" unicode="&#x148;" horiz-adv-x="682" 
d="M136 788l199 -78l199 78v-102l-201 -77l-197 77v102zM71 540h121l8 -64h7q84 38 143 56t107 18q75 0 117 -38.5t42 -113.5v-398h-146v349q0 48 -18.5 68t-57.5 20q-34 0 -81 -13t-97 -33v-391h-145v540z" />
    <glyph glyph-name="ncommaaccent" unicode="&#x146;" horiz-adv-x="682" 
d="M274 -70h150l-82 -150h-112zM71 540h121l8 -64h7q84 38 143 56t107 18q75 0 117 -38.5t42 -113.5v-398h-146v349q0 48 -18.5 68t-57.5 20q-34 0 -81 -13t-97 -33v-391h-145v540z" />
    <glyph glyph-name="ndotaccent" unicode="&#x1e45;" horiz-adv-x="682" 
d="M344 629q-44 0 -64 19t-20 62q0 42 20 61.5t64 19.5t63.5 -19.5t19.5 -61.5t-19.5 -61.5t-63.5 -19.5zM71 540h121l8 -64h7q84 38 143 56t107 18q75 0 117 -38.5t42 -113.5v-398h-146v349q0 48 -18.5 68t-57.5 20q-34 0 -81 -13t-97 -33v-391h-145v540z" />
    <glyph glyph-name="nine" unicode="9" horiz-adv-x="694" 
d="M335 751q151 0 230 -85.5t79 -256.5q0 -205 -101.5 -312.5t-297.5 -107.5q-73 0 -159 19l16 105q42 -8 74.5 -12t63.5 -4q117 0 178.5 59.5t74.5 182.5q-38 -29 -88 -46t-105 -17q-60 0 -109 15.5t-83.5 44t-53 69t-18.5 91.5q0 58 21 105.5t59.5 80.5t94 51t124.5 18z
M335 369q43 0 87.5 17.5t73.5 44.5q-3 112 -42 163.5t-119 51.5q-71 0 -109 -38t-38 -109q0 -65 37.5 -97.5t109.5 -32.5z" />
    <glyph glyph-name="six" unicode="6" horiz-adv-x="694" 
d="M359 -11q-151 0 -230 85.5t-79 256.5q0 205 101.5 312.5t297.5 107.5q73 0 159 -19l-16 -105q-42 8 -74.5 12t-63.5 4q-117 0 -178.5 -59.5t-74.5 -182.5q38 29 88 46t105 17q60 0 109 -15.5t83.5 -44t53 -69t18.5 -91.5q0 -59 -21 -106t-59.5 -80t-94 -51t-124.5 -18z
M359 371q-43 0 -87.5 -17.5t-73.5 -44.5q3 -112 42 -163.5t119 -51.5q71 0 109 38t38 109q0 65 -37.5 97.5t-109.5 32.5z" />
    <glyph glyph-name="nine.denominator" horiz-adv-x="550" 
d="M197 -7q-28 0 -59.5 3.5t-69.5 10.5l17 95q43 -6 65.5 -9t42.5 -3q85 0 132 39t61 115q-32 -23 -71.5 -35t-79.5 -12q-46 0 -83.5 11.5t-64 33.5t-41 52.5t-14.5 68.5q0 44 16.5 79.5t47 60t74 38t97.5 13.5q120 0 182 -64t62 -189q0 -151 -79.5 -229.5t-234.5 -78.5z
M268 284q29 0 61 10t57 27q-6 137 -119 137q-52 0 -80 -24t-28 -69q0 -81 109 -81z" />
    <glyph glyph-name="nine.numerator" horiz-adv-x="550" 
d="M197 193q-28 0 -59.5 3.5t-69.5 10.5l17 95q43 -6 65.5 -9t42.5 -3q85 0 132 39t61 115q-32 -23 -71.5 -35t-79.5 -12q-46 0 -83.5 11.5t-64 33.5t-41 52.5t-14.5 68.5q0 44 16.5 79.5t47 60t74 38t97.5 13.5q120 0 182 -64t62 -189q0 -151 -79.5 -229.5t-234.5 -78.5z
M268 484q29 0 61 10t57 27q-6 137 -119 137q-52 0 -80 -24t-28 -69q0 -81 109 -81z" />
    <glyph glyph-name="nine.osf" horiz-adv-x="677" 
d="M319 589q157 0 238 -84t81 -249q0 -184 -101 -279.5t-299 -95.5q-70 0 -159 19l17 105q44 -8 75.5 -12t61.5 -4q120 0 183 56t74 170q-38 -31 -89 -48.5t-107 -17.5q-61 0 -110 14.5t-83.5 40.5t-53 63.5t-18.5 84.5q0 53 21 97t59 75t91.5 48t118.5 17zM328 242
q44 0 89.5 15.5t73.5 40.5q-5 98 -45 142.5t-119 44.5q-71 0 -108.5 -33.5t-37.5 -96.5q0 -56 37.5 -84.5t109.5 -28.5z" />
    <glyph glyph-name="six.osf" horiz-adv-x="688" 
d="M365 -16q-157 0 -238 84t-81 249q0 184 101 279.5t299 95.5q70 0 159 -19l-17 -105q-44 8 -75.5 12t-61.5 4q-120 0 -183 -56t-74 -170q38 31 89 48.5t107 17.5q61 0 110 -14.5t83.5 -40.5t53 -64t18.5 -84q0 -53 -21 -97t-59 -75t-91.5 -48t-118.5 -17zM356 331
q-44 0 -89.5 -15.5t-73.5 -40.5q5 -98 45 -142.5t119 -44.5q71 0 108.5 33.5t37.5 96.5q0 56 -37.5 84.5t-109.5 28.5z" />
    <glyph glyph-name="nine.tf" 
d="M295 751q140 0 213 -85.5t73 -256.5q0 -205 -93.5 -312.5t-274.5 -107.5q-69 0 -148 19l16 105q39 -8 69 -12t57 -4q103 0 158.5 59.5t66.5 179.5q-35 -29 -79.5 -44.5t-91.5 -15.5q-55 0 -100 15.5t-76.5 44t-48.5 69t-17 91.5q0 58 19 105.5t55 80.5t87 51t115 18z
M296 369q36 0 74.5 16t65.5 43q-2 113 -36.5 165.5t-104.5 52.5q-62 0 -94 -38t-32 -108q0 -131 127 -131z" />
    <glyph glyph-name="nine.tosf" 
d="M288 589q144 0 219 -84t75 -249q0 -184 -92.5 -279.5t-275.5 -95.5q-66 0 -148 19l16 105q42 -8 70.5 -12t55.5 -4q106 0 162 56t67 167q-35 -30 -80.5 -46.5t-94.5 -16.5q-55 0 -100 14.5t-76.5 40.5t-48.5 63.5t-17 84.5q0 53 19.5 97t54.5 75t84.5 48t109.5 17z
M297 242q37 0 76 14t65 37q-3 102 -38 147t-104 45q-62 0 -94 -33.5t-32 -96.5q0 -113 127 -113z" />
    <glyph glyph-name="nineinferior" unicode="&#x2089;" horiz-adv-x="550" 
d="M197 -107q-28 0 -59.5 3.5t-69.5 10.5l17 95q43 -6 65.5 -9t42.5 -3q85 0 132 39t61 115q-32 -23 -71.5 -35t-79.5 -12q-46 0 -83.5 11.5t-64 33.5t-41 52.5t-14.5 68.5q0 44 16.5 79.5t47 60t74 38t97.5 13.5q120 0 182 -64t62 -189q0 -151 -79.5 -229.5t-234.5 -78.5z
M268 184q29 0 61.5 10t56.5 27q-6 137 -119 137q-52 0 -80 -24t-28 -69q0 -81 109 -81z" />
    <glyph glyph-name="ninesuperior" unicode="&#x2079;" horiz-adv-x="550" 
d="M197 293q-28 0 -59.5 3.5t-69.5 10.5l17 95q43 -6 65.5 -9t42.5 -3q85 0 132 39t61 115q-32 -23 -71.5 -35t-79.5 -12q-46 0 -83.5 11.5t-64 33.5t-41 52.5t-14.5 68.5q0 44 16.5 79.5t47 60t74 38t97.5 13.5q120 0 182 -64t62 -189q0 -151 -79.5 -229.5t-234.5 -78.5z
M268 584q29 0 61.5 10t56.5 27q-6 137 -119 137q-52 0 -80 -24t-28 -69q0 -81 109 -81z" />
    <glyph glyph-name="notequal" unicode="&#x2260;" horiz-adv-x="518" 
d="M54 508h197l26 98l88 -23l-20 -75h118v-93h-143l-34 -125h177v-93h-202l-29 -110l-88 22l23 88h-113v93h138l34 125h-172v93z" />
    <glyph glyph-name="ntilde" unicode="&#xf1;" horiz-adv-x="682" 
d="M71 540h121l8 -64h7q84 38 143 56t107 18q75 0 117 -38.5t42 -113.5v-398h-146v349q0 48 -18.5 68t-57.5 20q-34 0 -81 -13t-97 -33v-391h-145v540zM109 673q34 54 75 80t79 26q27 0 52.5 -6t49.5 -13.5t48.5 -13.5t50.5 -6q25 0 49 8t53 28l23 -31q-34 -53 -76 -79.5
t-81 -26.5q-26 0 -51 6t-50 13.5t-49.5 13.5t-49.5 6t-48 -7.5t-51 -28.5z" />
    <glyph glyph-name="numbersign" unicode="#" horiz-adv-x="657" 
d="M380 199h-131l-16 -199h-100l16 199h-100v92h107l13 154h-120v94h127l17 201h100l-17 -201h132l17 201h100l-17 -201h100v-94h-107l-13 -154h120v-92h-127l-16 -199h-101zM256 291h132l12 154h-131z" />
    <glyph glyph-name="numbersign.tab" 
d="M359 199h-131l-16 -199h-99l16 199h-100v92h107l13 154h-120v94h128l16 201h98l-15 -201h131l16 201h99l-16 -201h98v-94h-106l-13 -154h118v-92h-125l-16 -199h-99zM235 291h131l13 154h-131z" />
    <glyph glyph-name="o" unicode="o" horiz-adv-x="667" 
d="M334 -10q-143 0 -218 71.5t-75 208.5q0 136 75 208t218 72q142 0 216.5 -71.5t74.5 -208.5t-74.5 -208.5t-216.5 -71.5zM334 102q78 0 111.5 38.5t33.5 129.5q0 90 -34 128.5t-111 38.5t-111.5 -38.5t-34.5 -128.5t34.5 -129t111.5 -39z" />
    <glyph glyph-name="oacute" unicode="&#xf3;" horiz-adv-x="667" 
d="M274 616l67 188h149l-113 -196zM334 -10q-143 0 -218 71.5t-75 208.5q0 136 75 208t218 72q142 0 216.5 -71.5t74.5 -208.5t-74.5 -208.5t-216.5 -71.5zM334 102q78 0 111.5 38.5t33.5 129.5q0 90 -34 128.5t-111 38.5t-111.5 -38.5t-34.5 -128.5t34.5 -129t111.5 -39z
" />
    <glyph glyph-name="obreve" unicode="&#x14f;" horiz-adv-x="667" 
d="M334 -10q-143 0 -218 71.5t-75 208.5q0 136 75 208t218 72q142 0 216.5 -71.5t74.5 -208.5t-74.5 -208.5t-216.5 -71.5zM334 102q78 0 111.5 38.5t33.5 129.5q0 90 -34 128.5t-111 38.5t-111.5 -38.5t-34.5 -128.5t34.5 -129t111.5 -39zM333 615q-60 0 -102 13
t-67.5 35.5t-37 54t-11.5 69.5h99q0 -52 27.5 -75.5t91.5 -23.5q63 0 90.5 23.5t27.5 75.5h99q0 -38 -11.5 -69.5t-37 -54.5t-67 -35.5t-101.5 -12.5z" />
    <glyph glyph-name="ocircumflex" unicode="&#xf4;" horiz-adv-x="667" 
d="M131 719l197 78l200 -78v-102l-198 78l-199 -78v102zM334 -10q-143 0 -218 71.5t-75 208.5q0 136 75 208t218 72q142 0 216.5 -71.5t74.5 -208.5t-74.5 -208.5t-216.5 -71.5zM334 102q78 0 111.5 38.5t33.5 129.5q0 90 -34 128.5t-111 38.5t-111.5 -38.5t-34.5 -128.5
t34.5 -129t111.5 -39z" />
    <glyph glyph-name="odblgrave" unicode="&#x20d;" horiz-adv-x="667" 
d="M166 613l-114 195h149l67 -185zM383 613l-114 195h149l67 -185zM334 -10q-143 0 -218 71.5t-75 208.5q0 136 75 208t218 72q142 0 216.5 -71.5t74.5 -208.5t-74.5 -208.5t-216.5 -71.5zM334 102q78 0 111.5 38.5t33.5 129.5q0 90 -34 128.5t-111 38.5t-111.5 -38.5
t-34.5 -128.5t34.5 -129t111.5 -39z" />
    <glyph glyph-name="odieresis" unicode="&#xf6;" horiz-adv-x="667" 
d="M195 636q-39 0 -57 18t-18 56t18 55t57 17q40 0 57.5 -18t17.5 -54q0 -38 -17.5 -56t-57.5 -18zM468 636q-39 0 -57 18t-18 56t18 55t57 17t57 -18t18 -54q0 -38 -18 -56t-57 -18zM334 -10q-143 0 -218 71.5t-75 208.5q0 136 75 208t218 72q142 0 216.5 -71.5
t74.5 -208.5t-74.5 -208.5t-216.5 -71.5zM334 102q78 0 111.5 38.5t33.5 129.5q0 90 -34 128.5t-111 38.5t-111.5 -38.5t-34.5 -128.5t34.5 -129t111.5 -39z" />
    <glyph glyph-name="odotbelow" unicode="&#x1ecd;" horiz-adv-x="667" 
d="M336 -198q-35 0 -51 15t-16 50t16 50.5t51 15.5q37 0 53 -16t16 -50t-16 -49.5t-53 -15.5zM334 -10q-143 0 -218 71.5t-75 208.5q0 136 75 208t218 72q142 0 216.5 -71.5t74.5 -208.5t-74.5 -208.5t-216.5 -71.5zM334 102q78 0 111.5 38.5t33.5 129.5q0 90 -34 128.5
t-111 38.5t-111.5 -38.5t-34.5 -128.5t34.5 -129t111.5 -39z" />
    <glyph glyph-name="oe" unicode="&#x153;" horiz-adv-x="1045" 
d="M764 -9q-77 0 -130 23t-82 68h-7q-30 -45 -83.5 -68.5t-127.5 -23.5q-143 0 -218 71.5t-75 208.5q0 136 75 208t218 72q75 0 129.5 -25t83.5 -70h7q29 45 81.5 69.5t127.5 24.5q118 0 178.5 -60t60.5 -177q0 -23 -2 -42.5t-7 -36.5h-369q4 -71 40.5 -101t113.5 -30
q23 0 49 1.5t52.5 4.5t51.5 7.5t46 10.5l5 -103q-49 -15 -106.5 -23.5t-111.5 -8.5zM334 102q78 0 111.5 38.5t33.5 129.5q0 90 -34 128.5t-111 38.5t-111.5 -38.5t-34.5 -128.5t34.5 -129t111.5 -39zM873 306q-2 77 -29 109t-88 32q-65 0 -97 -33.5t-36 -107.5h250z" />
    <glyph glyph-name="ograve" unicode="&#xf2;" horiz-adv-x="667" 
d="M334 -10q-143 0 -218 71.5t-75 208.5q0 136 75 208t218 72q142 0 216.5 -71.5t74.5 -208.5t-74.5 -208.5t-216.5 -71.5zM334 102q78 0 111.5 38.5t33.5 129.5q0 90 -34 128.5t-111 38.5t-111.5 -38.5t-34.5 -128.5t34.5 -129t111.5 -39zM268 613l-114 195h153l67 -185z
" />
    <glyph glyph-name="ohungarumlaut" unicode="&#x151;" horiz-adv-x="667" 
d="M169 623l67 185h149l-114 -195zM387 623l66 185h149l-113 -195zM334 -10q-143 0 -218 71.5t-75 208.5q0 136 75 208t218 72q142 0 216.5 -71.5t74.5 -208.5t-74.5 -208.5t-216.5 -71.5zM334 102q78 0 111.5 38.5t33.5 129.5q0 90 -34 128.5t-111 38.5t-111.5 -38.5
t-34.5 -128.5t34.5 -129t111.5 -39z" />
    <glyph glyph-name="oinvertedbreve" unicode="&#x20f;" horiz-adv-x="667" 
d="M116 625q0 37 11.5 69t37 54.5t67 35.5t101.5 13t102 -12.5t67.5 -35.5t37 -54.5t11.5 -69.5h-100q0 52 -27 75.5t-91 23.5q-63 0 -90.5 -23.5t-27.5 -75.5h-99zM334 -10q-143 0 -218 71.5t-75 208.5q0 136 75 208t218 72q142 0 216.5 -71.5t74.5 -208.5t-74.5 -208.5
t-216.5 -71.5zM334 102q78 0 111.5 38.5t33.5 129.5q0 90 -34 128.5t-111 38.5t-111.5 -38.5t-34.5 -128.5t34.5 -129t111.5 -39z" />
    <glyph glyph-name="omacron" unicode="&#x14d;" horiz-adv-x="667" 
d="M138 746h393v-99h-393v99zM334 -10q-143 0 -218 71.5t-75 208.5q0 136 75 208t218 72q142 0 216.5 -71.5t74.5 -208.5t-74.5 -208.5t-216.5 -71.5zM334 102q78 0 111.5 38.5t33.5 129.5q0 90 -34 128.5t-111 38.5t-111.5 -38.5t-34.5 -128.5t34.5 -129t111.5 -39z" />
    <glyph glyph-name="one" unicode="1" horiz-adv-x="470" 
d="M228 581h-4l-184 -64h-7l-15 90v4l245 129h112v-740h-147v581z" />
    <glyph glyph-name="one.denominator" horiz-adv-x="378" 
d="M179 418l-142 -45h-6l-14 66v14l195 93h89v-546h-122v418z" />
    <glyph glyph-name="one.numerator" horiz-adv-x="378" 
d="M179 618l-142 -45h-6l-14 66v14l195 93h89v-546h-122v418z" />
    <glyph glyph-name="one.osf" horiz-adv-x="460" 
d="M230 425h-4l-183 -63h-7l-16 89v4l245 129h112v-584h-147v425z" />
    <glyph glyph-name="one.tf" 
d="M319 581h-5l-225 -64h-9l-17 90v4l293 129h118v-740h-155v581z" />
    <glyph glyph-name="one.tosf" 
d="M326 425h-5l-224 -63h-9l-17 89v4l292 129h119v-584h-156v425z" />
    <glyph glyph-name="oneeighth" unicode="&#x215b;" horiz-adv-x="1184" 
d="M907 -5q-118 0 -178.5 37.5t-60.5 115.5q0 52 24.5 84t59.5 51q-32 19 -50.5 48t-18.5 71q0 75 60.5 113.5t163.5 38.5q99 0 157 -38.5t58 -113.5q0 -45 -19 -73t-47 -45q38 -20 61 -50.5t23 -78.5q0 -81 -59 -120.5t-174 -39.5zM907 83q52 0 80 18.5t28 56.5
q0 34 -34 50t-94 33l-29 8q-9 -6 -20.5 -13.5t-21 -18t-16.5 -24.5t-7 -32q0 -38 31 -58t83 -20zM939 312q7 4 17 11.5t19 18.5t15.5 25t6.5 31q0 34 -25 51t-65 17q-45 0 -72 -17t-27 -49q0 -38 31.5 -55.5t81.5 -28.5q2 -1 9 -2.5t9 -1.5zM636 740h127l-373 -740h-128z
M190 618l-142 -45h-6l-14 66v14l195 93h89v-546h-122v418z" />
    <glyph glyph-name="onehalf" unicode="&#xbd;" horiz-adv-x="1180" 
d="M707 81q0 72 43.5 121.5t141.5 90.5q34 15 56 26t35 21.5t17.5 20t4.5 21.5q0 65 -111 65q-31 0 -68.5 -4.5t-90.5 -13.5l-12 102q60 11 105.5 16t86.5 5q212 0 212 -161q0 -58 -38 -100t-122 -78q-56 -27 -77.5 -46.5t-21.5 -44.5v-19h260v-102h-421v80zM636 740h127
l-373 -740h-128zM190 618l-142 -45h-6l-14 66v14l195 93h89v-546h-122v418z" />
    <glyph glyph-name="two.denominator" horiz-adv-x="501" 
d="M36 81q0 72 43.5 121.5t141.5 90.5q34 15 56 26t35 21.5t17.5 20t4.5 21.5q0 65 -111 65q-31 0 -68.5 -4.5t-90.5 -13.5l-12 102q60 11 105.5 16t86.5 5q212 0 212 -161q0 -58 -38 -100t-122 -78q-56 -27 -77.5 -46.5t-21.5 -44.5v-19h260v-102h-421v80z" />
    <glyph glyph-name="oneinferior" unicode="&#x2081;" horiz-adv-x="378" 
d="M179 318l-142 -45h-6l-14 66v14l195 93h89v-546h-122v418z" />
    <glyph glyph-name="onequarter" unicode="&#xbc;" horiz-adv-x="1158" 
d="M910 109h-263l-17 78l198 363l12 3l104 -11l10 -24l-193 -312h155l30 151h86v-151h94v-97h-94v-109h-122v109zM636 740h127l-373 -740h-128zM190 618l-142 -45h-6l-14 66v14l195 93h89v-546h-122v418z" />
    <glyph glyph-name="onesuperior" unicode="&#xb9;" horiz-adv-x="378" 
d="M179 718l-142 -45h-6l-14 66v14l195 93h89v-546h-122v418z" />
    <glyph glyph-name="onethird" unicode="&#x2153;" horiz-adv-x="1143" 
d="M636 740h127l-373 -740h-128zM190 618l-142 -45h-6l-14 66v14l195 93h89v-546h-122v418zM871 -8q-46 0 -93 3.5t-73 8.5v106h4q11 -2 27.5 -4t35 -3.5t36.5 -2.5t32 -1q76 0 105.5 17t29.5 55q0 34 -30 49t-106 15h-64v81h63q67 0 94.5 16t27.5 50q0 35 -26 50.5
t-92 15.5q-23 0 -59 -3t-74 -8h-4v103q14 3 33.5 5.5t41 4.5t42.5 3t38 1q112 0 169.5 -40t57.5 -117q0 -40 -18.5 -69.5t-53.5 -45.5q39 -17 60 -49.5t21 -79.5q0 -78 -57 -119.5t-168 -41.5z" />
    <glyph glyph-name="three.denominator" horiz-adv-x="477" 
d="M211 -8q-46 0 -93 3.5t-73 8.5v106h4q11 -2 27.5 -4t35 -3.5t36.5 -2.5t32 -1q76 0 105.5 17t29.5 55q0 34 -30 49t-106 15h-64v81h63q67 0 94.5 16t27.5 50q0 35 -26 50.5t-92 15.5q-23 0 -59 -3t-74 -8h-4v103q14 3 33.5 5.5t41 4.5t42.5 3t38 1q112 0 169.5 -40
t57.5 -117q0 -40 -18.5 -69.5t-53.5 -45.5q39 -17 60 -49.5t21 -79.5q0 -78 -57 -119.5t-168 -41.5z" />
    <glyph glyph-name="oogonek" unicode="&#x1eb;" horiz-adv-x="667" 
d="M325 -211q-66 0 -101 22t-35 66q0 65 78 118q-111 16 -168.5 85.5t-57.5 189.5q0 136 75 208t218 72q142 0 216.5 -71.5t74.5 -208.5q0 -117 -55 -186.5t-160 -87.5q-68 -31 -96 -54t-28 -47q0 -28 37 -28q14 0 39 4t48 10v-80q-35 -12 -85 -12zM334 102q78 0 111.5 38.5
t33.5 129.5q0 90 -34 128.5t-111 38.5t-111.5 -38.5t-34.5 -128.5t34.5 -129t111.5 -39z" />
    <glyph glyph-name="ordfeminine" unicode="&#xaa;" horiz-adv-x="491" 
d="M171 348q-59 0 -95 31.5t-36 84.5t43 83t123 35l104 6v5q0 22 -3.5 36t-13 22t-26.5 10.5t-44 2.5q-26 0 -61 -2.5t-76 -7.5l-8 76q45 8 85.5 12t75.5 4q101 0 145 -29.5t44 -94.5v-270h-99l-8 47h-4q-35 -23 -72 -37t-74 -14zM215 431q20 0 43 5.5t52 18.5v66l-54 -3
q-56 -4 -77 -14t-21 -32q0 -41 57 -41z" />
    <glyph glyph-name="ordmasculine" unicode="&#xba;" horiz-adv-x="518" 
d="M259 431q26 0 45 5t31 18t17.5 35t5.5 57q0 34 -5.5 56.5t-17.5 36t-31 18.5t-45 5q-27 0 -46 -5t-31 -18.5t-17.5 -36t-5.5 -56.5q0 -35 5.5 -57t17.5 -35t31 -18t46 -5zM259 345q-103 0 -160 49.5t-57 151.5t57 151.5t160 49.5t159.5 -49.5t56.5 -151.5t-56.5 -151.5
t-159.5 -49.5z" />
    <glyph glyph-name="oslash" unicode="&#xf8;" horiz-adv-x="673" 
d="M99 86q-53 69 -53 184q0 65 18 117t54 88t90.5 55.5t128.5 19.5q110 0 180 -44l34 34h110l-86 -86q54 -71 54 -184q0 -131 -72.5 -205.5t-219.5 -74.5q-112 0 -180 44l-34 -34h-110zM337 102q44 0 72 10.5t44.5 31.5t23 52.5t6.5 73.5q0 49 -9 82l-230 -230
q31 -20 93 -20zM192 270q0 -24 1.5 -44.5t6.5 -37.5l229 229q-34 20 -92 20q-44 0 -72.5 -10t-44.5 -31t-22 -52.5t-6 -73.5z" />
    <glyph glyph-name="oslashacute" unicode="&#x1ff;" horiz-adv-x="673" 
d="M99 86q-53 69 -53 184q0 65 18 117t54 88t90.5 55.5t128.5 19.5q110 0 180 -44l34 34h110l-86 -86q54 -71 54 -184q0 -131 -72.5 -205.5t-219.5 -74.5q-112 0 -180 44l-34 -34h-110zM337 102q44 0 72 10.5t44.5 31.5t23 52.5t6.5 73.5q0 49 -9 82l-230 -230
q31 -20 93 -20zM192 270q0 -24 1.5 -44.5t6.5 -37.5l229 229q-34 20 -92 20q-44 0 -72.5 -10t-44.5 -31t-22 -52.5t-6 -73.5zM284 616l67 188h149l-113 -196z" />
    <glyph glyph-name="otilde" unicode="&#xf5;" horiz-adv-x="667" 
d="M334 -10q-143 0 -218 71.5t-75 208.5q0 136 75 208t218 72q142 0 216.5 -71.5t74.5 -208.5t-74.5 -208.5t-216.5 -71.5zM334 102q78 0 111.5 38.5t33.5 129.5q0 90 -34 128.5t-111 38.5t-111.5 -38.5t-34.5 -128.5t34.5 -129t111.5 -39zM95 673q34 54 75 80t79 26
q27 0 52.5 -6t49.5 -13.5t48.5 -13.5t50.5 -6q25 0 49 8t53 28l23 -31q-34 -53 -76 -79.5t-81 -26.5q-26 0 -51 6t-50 13.5t-49.5 13.5t-49.5 6t-48 -7.5t-51 -28.5z" />
    <glyph glyph-name="p" unicode="p" horiz-adv-x="682" 
d="M71 540h125l12 -69h8q29 41 73.5 60t104.5 19q120 0 182 -66.5t62 -205.5q0 -73 -22 -127t-61.5 -90t-95.5 -53.5t-124 -17.5q-34 0 -64.5 2.5t-54.5 4.5v-217h-145v760zM339 94q41 0 70 8.5t48 29t27.5 54.5t8.5 84q0 48 -7.5 80.5t-24 52.5t-43 29t-63.5 9
q-63 0 -101 -28t-38 -80v-229q23 -4 55 -7t68 -3z" />
    <glyph glyph-name="paragraph" unicode="&#xb6;" horiz-adv-x="682" 
d="M441 0h-67v266q-23 -1 -43.5 -1h-40.5q-59 0 -106 12.5t-80 40.5t-50.5 74t-17.5 113t18 113t51 74t80 40.5t106 12.5q34 0 72.5 -2.5t77.5 -7.5v-735zM584 0h-86v735h86v-735z" />
    <glyph glyph-name="paragraph.tab" 
d="M402 0h-66v266q-23 -1 -42 -1h-39q-56 0 -100.5 12.5t-76 40.5t-48.5 74t-17 113t17 113t48.5 74t76 40.5t100.5 12.5q33 0 70.5 -2.5t76.5 -7.5v-735zM539 0h-84v735h84v-735z" />
    <glyph glyph-name="parenleft" unicode="(" horiz-adv-x="337" 
d="M197 -160q-77 112 -116.5 243.5t-39.5 270.5t39.5 270.5t116.5 243.5h128v-4q-78 -111 -122.5 -241t-44.5 -269t44.5 -269t122.5 -241v-4h-128v0z" />
    <glyph glyph-name="parenleft.sc" horiz-adv-x="335" 
d="M185 -125q-67 88 -101.5 190.5t-34.5 210.5t34.5 210.5t101.5 190.5h123v-3q-69 -88 -108 -189t-39 -209q0 -107 39 -208.5t108 -189.5v-3h-123v0z" />
    <glyph glyph-name="parenright" unicode=")" horiz-adv-x="336" 
d="M12 -160v4q78 111 122 241t44 269t-44 269t-122 241v4h128q77 -112 116 -243.5t39 -270.5t-39 -270.5t-116 -243.5h-128z" />
    <glyph glyph-name="parenright.sc" horiz-adv-x="335" 
d="M28 -125v3q68 88 107 189.5t39 208.5q0 108 -39 209t-107 189v3h121q68 -88 102 -190.5t34 -210.5t-34 -210.5t-102 -190.5h-121z" />
    <glyph glyph-name="partialdiff" unicode="&#x2202;" horiz-adv-x="611" 
d="M301 -4q-63 0 -111 20.5t-80.5 56.5t-49.5 84.5t-17 105.5q0 52 16.5 95.5t46.5 75.5t73 50t96 18q41 0 76 -15.5t66 -42.5q-21 208 -147 208q-35 0 -78 -14.5t-75 -35.5l-35 76q18 16 41 29t49 22.5t53.5 15t53.5 5.5q132 0 204 -107t72 -311q0 -80 -18 -142.5
t-51 -105.5t-80 -65.5t-105 -22.5zM299 105q60 0 91 49t31 165v39q-25 23 -53 36.5t-63 13.5q-27 0 -50.5 -10.5t-40.5 -29t-27 -45.5t-10 -60q0 -71 32 -114.5t90 -43.5z" />
    <glyph glyph-name="percent" unicode="%" horiz-adv-x="1108" 
d="M250 277q-103 0 -158 59t-55 178q0 118 55 177t158 59t157.5 -59t54.5 -177q0 -119 -54.5 -178t-157.5 -59zM250 369q54 0 80 33.5t26 111.5t-26 111.5t-80 33.5q-56 0 -81.5 -33.5t-25.5 -111.5t25.5 -111.5t81.5 -33.5zM859 -10q-103 0 -158 59t-55 178q0 118 55 177
t158 59q102 0 157 -59t55 -177q0 -119 -55 -178t-157 -59zM859 81q54 0 80 33.5t26 112.5q0 78 -26 111.5t-80 33.5q-56 0 -81.5 -33.5t-25.5 -111.5q0 -79 25.5 -112.5t81.5 -33.5zM676 740h128l-373 -740h-128z" />
    <glyph glyph-name="percent.tab" 
d="M69 288q-75 0 -116.5 56.5t-41.5 169.5t41.5 169.5t116.5 56.5q76 0 117 -56.5t41 -169.5t-41 -169.5t-117 -56.5zM69 369q37 0 54.5 33.5t17.5 111.5t-17.5 111.5t-54.5 33.5q-38 0 -55 -33.5t-17 -111.5t17 -111.5t55 -33.5zM545 1q-76 0 -117 56t-41 170
q0 112 41 168.5t117 56.5q75 0 116 -56.5t41 -168.5q0 -114 -41 -170t-116 -56zM545 81q37 0 54.5 33.5t17.5 112.5q0 78 -17.5 111.5t-54.5 33.5q-38 0 -55 -33.5t-17 -111.5q0 -79 17 -112.5t55 -33.5zM389 740h109l-274 -740h-110z" />
    <glyph glyph-name="period.tab" horiz-adv-x="307" 
d="M152 -6q-38 0 -61.5 19.5t-23.5 59.5q0 41 23.5 59.5t61.5 18.5q39 0 63 -19t24 -59t-24 -59.5t-63 -19.5z" />
    <glyph glyph-name="periodcentered.tab" horiz-adv-x="307" 
d="M153 289q-44 0 -64 19t-20 62t20 62t64 19t64 -19.5t20 -61.5t-20 -61.5t-64 -19.5z" />
    <glyph glyph-name="perthousand" unicode="&#x2030;" horiz-adv-x="1572" 
d="M250 277q-103 0 -158 59t-55 178q0 118 55 177t158 59t157.5 -59t54.5 -177q0 -119 -54.5 -178t-157.5 -59zM250 369q54 0 80 33.5t26 111.5t-26 111.5t-80 33.5q-56 0 -81.5 -33.5t-25.5 -111.5t25.5 -111.5t81.5 -33.5zM859 -10q-103 0 -158 59t-55 178q0 118 55 177
t158 59q102 0 157 -59t55 -177q0 -119 -55 -178t-157 -59zM859 81q54 0 80 33.5t26 112.5q0 78 -26 111.5t-80 33.5q-56 0 -81.5 -33.5t-25.5 -111.5q0 -79 25.5 -112.5t81.5 -33.5zM1322 -10q-105 0 -158.5 59.5t-53.5 177.5q0 116 54 176t158 60q105 0 158.5 -60
t53.5 -176q0 -118 -53.5 -177.5t-158.5 -59.5zM1322 81q57 0 81.5 34.5t24.5 111.5q0 75 -24.5 110t-81.5 35t-81.5 -34.5t-24.5 -110.5q0 -77 24.5 -111.5t81.5 -34.5zM676 740h128l-373 -740h-128z" />
    <glyph glyph-name="pi" unicode="&#x3c0;" horiz-adv-x="858" 
d="M219 427h-25q-42 0 -64 -14.5t-30 -49.5l-93 31q18 146 180 146h589l55 -40v-73h-157v-248q0 -76 74 -76q8 0 20 2t21 6v-111q-14 -4 -40 -7t-49 -3q-84 0 -127.5 40.5t-43.5 118.5v278h-165v-540h-145v540z" />
    <glyph glyph-name="plus" unicode="+" horiz-adv-x="508" 
d="M41 415h168v164h91v-164h168v-90h-168v-164h-91v164h-168v90z" />
    <glyph glyph-name="plus.tab" 
d="M61 415h197v164h98v-164h197v-90h-197v-164h-98v164h-197v90z" />
    <glyph glyph-name="plusminus" unicode="&#xb1;" horiz-adv-x="548" 
d="M66 472h162v163h91v-163h162v-91h-162v-158h-91v158h-162v91zM67 159h415v-91h-415v91z" />
    <glyph glyph-name="plusminus.tab" 
d="M73 472h185v163h96v-163h185v-91h-185v-158h-96v158h-185v91zM74 159h466v-91h-466v91z" />
    <glyph glyph-name="product" unicode="&#x220f;" horiz-adv-x="811" 
d="M94 740h622v-853h-144v741h-333v-741h-145v853z" />
    <glyph glyph-name="q" unicode="q" horiz-adv-x="679" 
d="M472 72q-33 -42 -79.5 -62t-105.5 -20q-245 0 -245 272q0 70 21 124t60.5 90.5t95.5 55t127 18.5q37 0 74 -2.5t71.5 -5.5t65 -7t53.5 -7v-748h-138v292zM326 99q66 0 102.5 30t36.5 81v226q-32 5 -62.5 7.5t-60.5 2.5q-42 0 -71.5 -9t-48 -30t-26.5 -54.5t-8 -82.5
q0 -47 7 -79.5t23.5 -53t42.5 -29.5t65 -9z" />
    <glyph glyph-name="question" unicode="?" horiz-adv-x="489" 
d="M156 222l-10 184q34 7 66 17.5t57 25.5t40.5 36.5t15.5 50.5t-10.5 48t-28 30.5t-41.5 16.5t-51 5q-40 0 -80 -6t-73 -13l-8 108q46 11 91.5 17t94.5 6q51 0 94 -11.5t74.5 -35.5t49.5 -61t18 -88q0 -47 -16 -82t-43 -60t-63 -41t-75 -25l-4 -121v-17h-98v16zM208 -5
q-35 0 -53.5 18t-18.5 52q0 33 18.5 51t53.5 18t54 -18t19 -51q0 -34 -19 -52t-54 -18z" />
    <glyph glyph-name="questiondown" unicode="&#xbf;" horiz-adv-x="483" 
d="M331 319l10 -184q-34 -7 -66 -17.5t-57 -25.5t-40.5 -36.5t-15.5 -50.5t10.5 -48t28 -30.5t41.5 -16.5t51 -5q40 0 80 6t73 13l8 -108q-46 -11 -91.5 -17t-94.5 -6q-51 0 -94.5 11.5t-75 35.5t-49 61t-17.5 88q0 47 16 82t43 60t63 41t75 25l4 121v17h98v-16zM279 546
q35 0 53.5 -18t18.5 -52q0 -33 -18.5 -51t-53.5 -18t-54 18t-19 51q0 34 19 52t54 18z" />
    <glyph glyph-name="quotedbl" unicode="&#x22;" horiz-adv-x="443" 
d="M182 808v-4l-41 -324h-77v328h118zM398 808v-4l-41 -324h-77v328h118z" />
    <glyph glyph-name="quotesingle" unicode="'" horiz-adv-x="227" 
d="M182 808v-4l-41 -324h-77v328h118z" />
    <glyph glyph-name="quotedbl.tab" horiz-adv-x="307" 
d="M98 808v-4l-47 -324h-80v328h127zM358 808v-4l-47 -324h-80v328h127z" />
    <glyph glyph-name="quotedblbase" unicode="&#x201e;" horiz-adv-x="491" 
d="M184 151q4 -15 6.5 -33.5t2.5 -39.5q0 -27 -5 -57t-14.5 -61t-24 -60.5t-32.5 -55.5l-83 3q19 37 29 89t10 103q0 29 -4.5 54t-15.5 54zM420 151q4 -15 6.5 -33.5t2.5 -39.5q0 -27 -5 -57t-14.5 -61t-24 -60.5t-32.5 -55.5l-83 3q19 37 29 89t10 103q0 29 -4.5 54
t-15.5 54z" />
    <glyph glyph-name="quoteright" unicode="&#x2019;" horiz-adv-x="247" 
d="M194 809q4 -15 6.5 -33.5t2.5 -39.5q0 -27 -5 -57t-14.5 -61t-24 -60.5t-32.5 -55.5l-83 3q19 37 29 89t10 103q0 29 -4.5 54t-15.5 54z" />
    <glyph glyph-name="quotedblleft" unicode="&#x201c;" horiz-adv-x="485" 
d="M58 502q-4 14 -6.5 33t-2.5 40q0 27 5 57t14.5 60.5t24 60.5t32.5 56l83 -3q-18 -37 -28.5 -89t-10.5 -103q0 -29 4 -54t15 -54zM294 502q-4 14 -6.5 33t-2.5 40q0 27 5 57t14.5 60.5t24 60.5t32.5 56l83 -3q-18 -37 -28.5 -89t-10.5 -103q0 -29 4 -54t15 -54z" />
    <glyph glyph-name="quoteleft" unicode="&#x2018;" horiz-adv-x="249" 
d="M58 502q-4 14 -6.5 33t-2.5 40q0 27 5 57t14.5 60.5t24 60.5t32.5 56l83 -3q-18 -37 -28.5 -89t-10.5 -103q0 -29 4 -54t15 -54l-130 -4v0z" />
    <glyph glyph-name="quotedblright" unicode="&#x201d;" horiz-adv-x="483" 
d="M194 809q4 -15 6.5 -33.5t2.5 -39.5q0 -27 -5 -57t-14.5 -61t-24 -60.5t-32.5 -55.5l-83 3q19 37 29 89t10 103q0 29 -4.5 54t-15.5 54zM430 809q4 -15 6.5 -33.5t2.5 -39.5q0 -27 -5 -57t-14.5 -61t-24 -60.5t-32.5 -55.5l-83 3q19 37 29 89t10 103q0 29 -4.5 54
t-15.5 54z" />
    <glyph glyph-name="quotesinglbase" unicode="&#x201a;" horiz-adv-x="254" 
d="M184 151q4 -15 6.5 -33.5t2.5 -39.5q0 -27 -5 -57t-14.5 -61t-24 -60.5t-32.5 -55.5l-83 3q19 37 29 89t10 103q0 29 -4.5 54t-15.5 54z" />
    <glyph glyph-name="quotesingle.tab" horiz-adv-x="307" 
d="M226 808v-4l-44 -324h-80v328h124z" />
    <glyph glyph-name="r" unicode="r" horiz-adv-x="458" 
d="M71 540h121l8 -79h4q57 35 103.5 58.5t87.5 29.5h51v-120h-48q-48 -5 -95 -21t-87 -38v-370h-145v540z" />
    <glyph glyph-name="racute" unicode="&#x155;" horiz-adv-x="458" 
d="M196 616l67 188h149l-113 -196zM71 540h121l8 -79h4q57 35 103.5 58.5t87.5 29.5h51v-120h-48q-48 -5 -95 -21t-87 -38v-370h-145v540z" />
    <glyph glyph-name="radical" unicode="&#x221a;" horiz-adv-x="741" 
d="M143 389l-95 -42l-43 102l219 90l180 -428l194 743h135l-235 -854h-178z" />
    <glyph glyph-name="rcaron" unicode="&#x159;" horiz-adv-x="458" 
d="M54 788l199 -78l199 78v-102l-201 -77l-197 77v102zM71 540h121l8 -79h4q57 35 103.5 58.5t87.5 29.5h51v-120h-48q-48 -5 -95 -21t-87 -38v-370h-145v540z" />
    <glyph glyph-name="rcommaaccent" unicode="&#x157;" horiz-adv-x="458" 
d="M72 -70h150l-82 -150h-112zM71 540h121l8 -79h4q57 35 103.5 58.5t87.5 29.5h51v-120h-48q-48 -5 -95 -21t-87 -38v-370h-145v540z" />
    <glyph glyph-name="rdblgrave" unicode="&#x211;" horiz-adv-x="458" 
d="M93 613l-114 195h149l67 -185zM310 613l-114 195h149l67 -185zM71 540h121l8 -79h4q57 35 103.5 58.5t87.5 29.5h51v-120h-48q-48 -5 -95 -21t-87 -38v-370h-145v540z" />
    <glyph glyph-name="rdotbelow" unicode="&#x1e5b;" horiz-adv-x="458" 
d="M71 540h121l8 -79h4q57 35 103.5 58.5t87.5 29.5h51v-120h-48q-48 -5 -95 -21t-87 -38v-370h-145v540zM141 -198q-35 0 -51 15t-16 50t16 50.5t51 15.5q37 0 53 -16t16 -50t-16 -49.5t-53 -15.5z" />
    <glyph glyph-name="registered" unicode="&#xae;" horiz-adv-x="717" 
d="M248 614q52 6 96 6q74 0 109 -25.5t35 -78.5q0 -74 -65 -94v-3l74 -128h-64l-64 115h-61v-115h-60v323zM346 454q43 0 61.5 14.5t18.5 46.5q0 29 -17 43.5t-59 14.5h-19.5t-22.5 -2v-116q5 -1 17.5 -1h20.5zM358 142q-68 0 -124 22.5t-96.5 63t-63 96.5t-22.5 123
t22.5 123.5t63 97t96.5 63t124 22.5t124.5 -22.5t97 -63t63 -97t22.5 -123.5t-22.5 -123t-63 -96.5t-97 -63t-124.5 -22.5zM358 200q55 0 100.5 18t77.5 50.5t49.5 78t17.5 100.5t-17.5 100.5t-49.5 78t-77.5 50.5t-100.5 18t-100 -18t-77 -50.5t-49.5 -78t-17.5 -100.5
t17.5 -100.5t49.5 -78t77 -50.5t100 -18z" />
    <glyph glyph-name="rinvertedbreve" unicode="&#x213;" horiz-adv-x="458" 
d="M37 625q0 37 11.5 69t37 54.5t67 35.5t101.5 13t102 -12.5t67.5 -35.5t37 -54.5t11.5 -69.5h-100q0 52 -27 75.5t-91 23.5q-63 0 -90.5 -23.5t-27.5 -75.5h-99zM71 540h121l8 -79h4q57 35 103.5 58.5t87.5 29.5h51v-120h-48q-48 -5 -95 -21t-87 -38v-370h-145v540z" />
    <glyph glyph-name="s" unicode="s" horiz-adv-x="547" 
d="M266 -11q-45 0 -101 5.5t-121 17.5v103q63 -12 115 -19t99 -7q111 0 111 60q0 35 -28.5 48.5t-81.5 21.5q-35 4 -71.5 11t-67.5 24t-50.5 48t-19.5 84q0 78 63 122.5t174 44.5q21 0 41.5 -1t43.5 -3.5t51 -6.5t64 -10l-5 -111q-58 12 -104.5 19t-80.5 7q-107 0 -107 -58
q0 -35 33.5 -47.5t97.5 -21.5q43 -6 78 -17t59 -30t37 -47t13 -67q0 -84 -61.5 -127t-180.5 -43z" />
    <glyph glyph-name="sacute" unicode="&#x15b;" horiz-adv-x="547" 
d="M208 616l67 188h149l-113 -196zM266 -11q-45 0 -101 5.5t-121 17.5v103q63 -12 115 -19t99 -7q111 0 111 60q0 35 -28.5 48.5t-81.5 21.5q-35 4 -71.5 11t-67.5 24t-50.5 48t-19.5 84q0 78 63 122.5t174 44.5q21 0 41.5 -1t43.5 -3.5t51 -6.5t64 -10l-5 -111
q-58 12 -104.5 19t-80.5 7q-107 0 -107 -58q0 -35 33.5 -47.5t97.5 -21.5q43 -6 78 -17t59 -30t37 -47t13 -67q0 -84 -61.5 -127t-180.5 -43z" />
    <glyph glyph-name="scaron" unicode="&#x161;" horiz-adv-x="547" 
d="M73 788l199 -78l199 78v-102l-201 -77l-197 77v102zM266 -11q-45 0 -101 5.5t-121 17.5v103q63 -12 115 -19t99 -7q111 0 111 60q0 35 -28.5 48.5t-81.5 21.5q-35 4 -71.5 11t-67.5 24t-50.5 48t-19.5 84q0 78 63 122.5t174 44.5q21 0 41.5 -1t43.5 -3.5t51 -6.5t64 -10
l-5 -111q-58 12 -104.5 19t-80.5 7q-107 0 -107 -58q0 -35 33.5 -47.5t97.5 -21.5q43 -6 78 -17t59 -30t37 -47t13 -67q0 -84 -61.5 -127t-180.5 -43z" />
    <glyph glyph-name="schwa" unicode="&#x259;" horiz-adv-x="603" 
d="M278 549q141 0 212 -68.5t71 -204.5q0 -141 -71 -213t-211 -72q-125 0 -180.5 62.5t-55.5 193.5q0 24 1.5 39t4.5 31h370q-3 34 -12.5 56.5t-27.5 36t-46 19.5t-68 6q-45 0 -91.5 -4t-105.5 -17l-5 103q47 14 104 23t111 9zM287 98q67 0 97 31t35 102h-248q1 -37 7 -62.5
t19.5 -41t35.5 -22.5t54 -7z" />
    <glyph glyph-name="scircumflex" unicode="&#x15d;" horiz-adv-x="547" 
d="M73 719l197 78l200 -78v-102l-198 78l-199 -78v102zM266 -11q-45 0 -101 5.5t-121 17.5v103q63 -12 115 -19t99 -7q111 0 111 60q0 35 -28.5 48.5t-81.5 21.5q-35 4 -71.5 11t-67.5 24t-50.5 48t-19.5 84q0 78 63 122.5t174 44.5q21 0 41.5 -1t43.5 -3.5t51 -6.5t64 -10
l-5 -111q-58 12 -104.5 19t-80.5 7q-107 0 -107 -58q0 -35 33.5 -47.5t97.5 -21.5q43 -6 78 -17t59 -30t37 -47t13 -67q0 -84 -61.5 -127t-180.5 -43z" />
    <glyph glyph-name="sdotbelow" unicode="&#x1e63;" horiz-adv-x="547" 
d="M266 -11q-45 0 -101 5.5t-121 17.5v103q63 -12 115 -19t99 -7q111 0 111 60q0 35 -28.5 48.5t-81.5 21.5q-35 4 -71.5 11t-67.5 24t-50.5 48t-19.5 84q0 78 63 122.5t174 44.5q21 0 41.5 -1t43.5 -3.5t51 -6.5t64 -10l-5 -111q-58 12 -104.5 19t-80.5 7q-107 0 -107 -58
q0 -35 33.5 -47.5t97.5 -21.5q43 -6 78 -17t59 -30t37 -47t13 -67q0 -84 -61.5 -127t-180.5 -43zM288 -198q-35 0 -51 15t-16 50t16 50.5t51 15.5q37 0 53 -16t16 -50t-16 -49.5t-53 -15.5z" />
    <glyph glyph-name="section" unicode="&#xa7;" horiz-adv-x="576" 
d="M279 -11q-45 0 -100.5 5.5t-121.5 17.5v100q64 -13 115.5 -19t99.5 -6q110 0 110 62q0 35 -28.5 48.5t-80.5 21.5q-35 5 -72 11.5t-67.5 23.5t-50.5 48t-20 84q0 32 11.5 58t31.5 46q-20 17 -31.5 41.5t-11.5 62.5q0 78 63 122.5t174 44.5q21 0 41.5 -1t44 -3.5t51.5 -6
t64 -9.5l-6 -109q-116 26 -185 26q-107 0 -107 -60q0 -35 34 -48t97 -22q43 -6 77.5 -17t59 -30t37.5 -47t13 -67q0 -68 -42 -110q42 -33 42 -98q0 -84 -61 -127t-181 -43zM364 297q18 20 18 48q0 24 -6.5 39.5t-18.5 26t-29 16t-38 9.5l-15 2.5t-18.5 3.5t-18 4.5
t-13.5 4.5q-22 -20 -22 -53q0 -21 7.5 -35.5t21 -23.5t32 -15t41.5 -11q5 -1 13 -3t17 -4t16.5 -4.5t12.5 -4.5z" />
    <glyph glyph-name="section.tab" 
d="M298 -11q-46 0 -103.5 5.5t-125.5 17.5v100q65 -13 119 -19t102 -6q116 0 116 62q0 35 -30 48.5t-85 21.5q-36 5 -74 11.5t-69.5 23.5t-52 48t-20.5 84q0 62 45 104q-20 17 -32.5 41.5t-12.5 62.5q0 78 65 122.5t179 44.5q22 0 43 -1t45 -3.5t52.5 -6t65.5 -9.5l-5 -109
q-122 26 -190 26q-114 0 -114 -60q0 -35 35.5 -48t101.5 -22q44 -6 79.5 -17t61 -30t39.5 -47t14 -67q0 -68 -44 -110q44 -33 44 -98q0 -84 -63 -127t-186 -43zM387 297q19 19 19 48q0 24 -7 39.5t-19.5 26t-31 16t-40.5 9.5q-6 1 -15.5 2.5t-19.5 3.5t-19.5 4.5t-14.5 4.5
q-23 -20 -23 -53q0 -21 7.5 -35.5t22 -23.5t34.5 -15t44 -11q6 -1 14.5 -3t17.5 -4t17.5 -4.5t13.5 -4.5z" />
    <glyph glyph-name="semicolon" unicode=";" horiz-adv-x="304" 
d="M45 -145l44 294h147l-82 -304zM158 389q-38 0 -61 19.5t-23 59.5q0 41 23 59.5t61 18.5t61.5 -19t23.5 -59t-23.5 -59.5t-61.5 -19.5z" />
    <glyph glyph-name="semicolon.tab" horiz-adv-x="307" 
d="M42 -145l49 294h146l-86 -304zM158 389q-38 0 -61 19.5t-23 59.5q0 41 23 59.5t61 18.5t62.5 -19t24.5 -59t-24.5 -59.5t-62.5 -19.5z" />
    <glyph glyph-name="servicemark" unicode="&#x2120;" horiz-adv-x="1011" 
d="M220 312q-32 0 -75.5 4.5t-82.5 12.5v79q48 -10 85.5 -14.5t66.5 -4.5q81 0 81 43q0 27 -21.5 38.5t-56.5 18.5q-81 15 -115 45t-34 86q0 59 45.5 92t123.5 33q27 0 57.5 -3.5t76.5 -13.5v-79q-32 8 -65.5 13.5t-59.5 5.5q-37 0 -57.5 -12t-20.5 -34q0 -21 17.5 -34
t61.5 -21q33 -6 60.5 -15.5t46.5 -24.5t29.5 -36.5t10.5 -51.5q0 -127 -174 -127zM459 740h120l120 -294l121 294h120v-420h-87v299l-116 -283h-75l-117 283v-299h-86v420z" />
    <glyph glyph-name="seven" unicode="7" horiz-adv-x="566" 
d="M238 -20l-125 20v17l274 597h-357l-8 114l11 12h495l23 -77v-18l-278 -646z" />
    <glyph glyph-name="seven.denominator" horiz-adv-x="433" 
d="M178 -15l-81 12l-9 26l203 418h-267v83l14 15h362l18 -52v-26l-211 -463z" />
    <glyph glyph-name="seven.numerator" horiz-adv-x="433" 
d="M178 185l-81 12l-9 26l203 418h-267v83l14 15h362l18 -52v-26l-211 -463z" />
    <glyph glyph-name="seven.osf" horiz-adv-x="554" 
d="M232 -176l-126 20v17l274 597h-356l-8 114l11 12h494l23 -77v-18l-277 -646z" />
    <glyph glyph-name="seven.tf" 
d="M256 -20l-128 20v17l295 597h-384l-8 114l11 12h523l25 -77v-18l-298 -646z" />
    <glyph glyph-name="seven.tosf" 
d="M256 -176l-128 20v17l295 597h-384l-8 114l11 12h523l25 -77v-18l-298 -646z" />
    <glyph glyph-name="seveneighths" unicode="&#x215e;" horiz-adv-x="1164" 
d="M616 740h127l-373 -740h-128zM891 -5q-118 0 -178.5 37.5t-60.5 115.5q0 52 24.5 84t59.5 51q-32 19 -50.5 48t-18.5 71q0 75 60.5 113.5t163.5 38.5q99 0 157 -38.5t58 -113.5q0 -45 -19 -73t-47 -45q38 -20 61 -50.5t23 -78.5q0 -81 -59 -120.5t-174 -39.5zM891 83
q52 0 80 18.5t28 56.5q0 34 -34 50t-94 33l-29 8q-9 -6 -20.5 -13.5t-21 -18t-16.5 -24.5t-7 -32q0 -38 31 -58t83 -20zM923 312q7 4 17 11.5t19 18.5t15.5 25t6.5 31q0 34 -25 51t-65 17q-45 0 -72 -17t-27 -49q0 -38 31.5 -55.5t81.5 -28.5q2 -1 9 -2.5t9 -1.5zM185 185
l-81 12l-9 26l203 418h-267v83l14 15h362l18 -52v-26l-211 -463z" />
    <glyph glyph-name="seveninferior" unicode="&#x2087;" horiz-adv-x="433" 
d="M178 -115l-81 12l-9 26l203 418h-267v83l14 15h362l18 -52v-26l-211 -463z" />
    <glyph glyph-name="sevensuperior" unicode="&#x2077;" horiz-adv-x="433" 
d="M178 285l-81 12l-9 26l203 418h-267v83l14 15h362l18 -52v-26l-211 -463z" />
    <glyph glyph-name="six.denominator" horiz-adv-x="551" 
d="M283 -7q-118 0 -181 63.5t-63 189.5q0 150 79.5 229t234.5 79q29 0 60.5 -3.5t68.5 -10.5l-17 -95q-33 6 -58.5 9t-49.5 3q-85 0 -132 -39t-61 -115q33 23 72.5 35t79.5 12q45 0 82.5 -11.5t64.5 -33.5t41.5 -52.5t14.5 -68.5q0 -44 -16.5 -79.5t-47 -60t-74.5 -38
t-98 -13.5zM283 89q53 0 81 24t28 69q0 81 -109 81q-31 0 -63.5 -10t-55.5 -27q4 -71 33 -104t86 -33z" />
    <glyph glyph-name="six.numerator" horiz-adv-x="551" 
d="M283 193q-118 0 -181 63.5t-63 189.5q0 150 79.5 229t234.5 79q29 0 60.5 -3.5t68.5 -10.5l-17 -95q-33 6 -58.5 9t-49.5 3q-85 0 -132 -39t-61 -115q33 23 72.5 35t79.5 12q45 0 82.5 -11.5t64.5 -33.5t41.5 -52.5t14.5 -68.5q0 -44 -16.5 -79.5t-47 -60t-74.5 -38
t-98 -13.5zM283 289q53 0 81 24t28 69q0 81 -109 81q-31 0 -63.5 -10t-55.5 -27q4 -71 33 -104t86 -33z" />
    <glyph glyph-name="six.tf" 
d="M319 -11q-143 0 -218 85.5t-75 256.5q0 205 95.5 312.5t282.5 107.5q69 0 151 -19l-16 -105q-40 8 -70.5 12t-59.5 4q-209 0 -233 -239q36 28 82 44t96 16q57 0 103 -15.5t78.5 -44t50 -69t17.5 -91.5q0 -59 -20 -106t-57 -80t-89.5 -51t-117.5 -18zM319 371
q-38 0 -78 -16.5t-69 -42.5q2 -113 37.5 -165.5t109.5 -52.5q64 0 98.5 38t34.5 109q0 130 -133 130z" />
    <glyph glyph-name="six.tosf" 
d="M326 -16q-148 0 -224.5 84t-76.5 249q0 184 95.5 279.5t282.5 95.5q68 0 151 -19l-16 -105q-42 8 -72 12t-58 4q-216 0 -237 -223q36 29 83.5 46t98.5 17q57 0 103 -14.5t78.5 -40.5t50 -64t17.5 -84q0 -53 -20 -97t-56.5 -75t-87.5 -48t-112 -17zM318 331
q-39 0 -79.5 -14t-69.5 -37q4 -103 40.5 -147.5t108.5 -44.5q66 0 99.5 33.5t33.5 96.5q0 113 -133 113z" />
    <glyph glyph-name="sixinferior" unicode="&#x2086;" horiz-adv-x="551" 
d="M283 -107q-118 0 -181 63.5t-63 189.5q0 150 79.5 229t234.5 79q29 0 60.5 -3.5t68.5 -10.5l-17 -95q-33 6 -58.5 9t-49.5 3q-85 0 -132 -39t-61 -115q33 23 72.5 35t79.5 12q45 0 82.5 -11.5t64.5 -33.5t41.5 -52.5t14.5 -68.5q0 -44 -16.5 -79.5t-47 -60t-74.5 -38
t-98 -13.5zM283 -11q53 0 81 24t28 69q0 81 -109 81q-31 0 -63.5 -10t-55.5 -27q4 -71 33 -104t86 -33z" />
    <glyph glyph-name="sixsuperior" unicode="&#x2076;" horiz-adv-x="551" 
d="M283 293q-118 0 -181 63.5t-63 189.5q0 150 79.5 229t234.5 79q29 0 60.5 -3.5t68.5 -10.5l-17 -95q-33 6 -58.5 9t-49.5 3q-85 0 -132 -39t-61 -115q33 23 72.5 35t79.5 12q45 0 82.5 -11.5t64.5 -33.5t41.5 -52.5t14.5 -68.5q0 -44 -16.5 -79.5t-47 -60t-74.5 -38
t-98 -13.5zM283 389q53 0 81 24t28 69q0 81 -109 81q-31 0 -63.5 -10t-55.5 -27q4 -71 33 -104t86 -33z" />
    <glyph glyph-name="slash" unicode="/" horiz-adv-x="456" 
d="M302 740h126l-274 -860h-126z" />
    <glyph glyph-name="slash.tab" 
d="M415 740h136l-351 -860h-137z" />
    </font>
</defs>
</svg>
